#TITLE:GENOM SCREAMS;
#SUBTITLE:(Another);
#ARTIST:L.E.D. LIGHT;
#TITLETRANSLIT:;
#SUBTITLETRANSLIT:;
#ARTISTTRANSLIT:;
#GENRE:;
#CREDIT:;
#BANNER:GENOM SCREAMS.png;
#BACKGROUND:GENOM SCREAMS-bg.png;
#LYRICSPATH:;
#CDTITLE:;
#MUSIC:GENOM SCREAMS.ogg;
#OFFSET:-0.833000;
#SAMPLESTART:52.010006;
#SAMPLELENGTH:12.500000;
#SELECTABLE:YES;
#DISPLAYBPM:150.000000;
#BPMS:0.000000=150.000000
;
#STOPS:
;
#BGCHANGES:;
#KEYSOUNDS:;
#ATTACKS:;

//---------------dance-single - ----------------
#NOTES:
     dance-single:
     :
     Beginner:
     3:
     0.163687,0.241753,0.088139,0.000000,0.000000,91.000000,84.000000,7.000000,0.000000,0.000000,0.000000,0.163687,0.241753,0.088139,0.000000,0.000000,91.000000,84.000000,7.000000,0.000000,0.000000,0.000000:
0000
0000
0000
0000
,
0000
0000
0000
0000
,
0000
0000
0000
0000
,
0000
0000
0000
0000
,
1000
0000
1000
0000
,
0010
0000
0010
0000
,
0001
0001
0000
0000
,
1000
1000
0000
0000
,
0001
0001
0000
0000
,
0100
0100
0100
0000
,
1000
1000
0000
0000
,
0001
0001
0000
0000
,
1000
1000
0000
0000
,
0100
0100
0100
0000
,
0010
0000
0010
0000
,
0100
0000
0100
0000
,
0001
0000
1000
0000
,
0100
0000
0100
0000
,
0000
0000
0000
0000
,
0000
0000
0000
0000
,
0000
0100
0000
0100
,
0000
0100
0000
0100
,
0000
1000
0000
1000
,
0000
1000
0000
1000
,
0000
0001
0000
0001
,
0000
0001
0000
0001
,
0000
0010
0000
0010
,
0000
0010
0000
0010
,
0000
1000
0000
1000
,
0000
0001
0000
0001
,
0000
0000
0000
0000
,
0000
0000
0000
0000
,
0000
0100
0000
0100
,
0000
0001
0000
0001
,
0000
1000
0000
1000
,
0000
0010
0000
0010
,
0000
0100
0000
0100
,
0000
0001
0000
0001
,
0000
1000
0000
1000
,
0000
0010
0000
0010
,
0000
0110
0000
0100
,
0000
0110
0000
0100
,
0000
0110
0000
0100
,
0000
0100
0100
0100
,
0000
1001
0000
1000
,
0000
1001
0000
0001
,
0000
1001
0000
1000
,
0000
1001
0000
0001
,
0001
0000
0000
0000
;

//---------------dance-single - ----------------
#NOTES:
     dance-single:
     :
     Easy:
     6:
     0.399324,0.543944,0.667338,0.000000,0.000000,222.000000,169.000000,53.000000,0.000000,0.000000,0.000000,0.399324,0.543944,0.667338,0.000000,0.000000,222.000000,169.000000,53.000000,0.000000,0.000000,0.000000:
// measure 0
0000
0000
0000
0000
,  // measure 1
0000
0000
0000
0000
,  // measure 2
0000
0000
0000
0000
,  // measure 3
0000
0000
0000
0000
,  // measure 4
1000
0001
1000
0001
,  // measure 5
0010
1000
0001
1001
,  // measure 6
0001
0001
1000
1000
,  // measure 7
0001
0001
1000
1000
,  // measure 8
0001
1000
0001
1000
,  // measure 9
0001
1000
0001
0001
,  // measure 10
1000
0001
1000
0100
,  // measure 11
0001
1000
0001
0100
,  // measure 12
0010
1000
0001
0100
,  // measure 13
0010
1000
0001
0100
,  // measure 14
0010
0010
1000
0100
,  // measure 15
1000
1000
0001
0100
,  // measure 16
0100
0100
0001
0100
,  // measure 17
0001
0001
1000
0100
,  // measure 18
0000
0000
0000
0000
,  // measure 19
0010
0010
0010
0010
,  // measure 20
1001
0100
1001
0100
,  // measure 21
1001
0100
1001
0100
,  // measure 22
0010
1000
0001
1000
,  // measure 23
0010
1000
0001
1000
,  // measure 24
1010
0001
1010
0001
,  // measure 25
1010
0001
1010
0001
,  // measure 26
0110
1000
0110
0001
,  // measure 27
0110
1000
0110
0001
,  // measure 28
1010
1010
1100
1100
,  // measure 29
0101
0101
0011
0011
,  // measure 30
0000
0000
0000
0000
,  // measure 31
0010
1000
0001
0100
,  // measure 32
1001
0100
1010
0001
,  // measure 33
1001
0100
0011
1000
,  // measure 34
0010
0001
0010
1000
,  // measure 35
1001
0100
0011
0100
,  // measure 36
1001
0100
0010
0001
,  // measure 37
1000
0001
0100
0010
,  // measure 38
1001
0100
0010
1000
,  // measure 39
0001
0100
0010
1000
,  // measure 40
1001
0110
1000
0100
,  // measure 41
1001
0110
0001
0100
,  // measure 42
1001
0110
1001
0100
,  // measure 43
1001
0110
1001
0100
,  // measure 44
0011
1000
1001
0100
,  // measure 45
1010
0101
1001
0100
,  // measure 46
1001
0101
1010
1100
,  // measure 47
0011
1100
1001
0110
,  // measure 48
1001
0000
0000
0000
;

//---------------dance-single - ----------------
#NOTES:
     dance-single:
     :
     Medium:
     8:
     0.404720,0.483505,0.251826,0.000000,0.000000,225.000000,205.000000,20.000000,0.000000,0.000000,0.000000,0.404720,0.483505,0.251826,0.000000,0.000000,225.000000,205.000000,20.000000,0.000000,0.000000,0.000000:
0000
0000
0000
0000
,
0000
0000
0000
0000
,
0000
0000
0000
0000
,
0000
0000
0000
0000
,
1000
0001
1000
0001
,
0010
1000
0001
1001
,
0001
0001
1000
1000
,
0001
0001
1000
1000
,
0001
1000
0001
1000
,
0001
1000
0001
0001
,
1000
0000
0001
0000
1000
1000
1000
0000
,
0001
0000
1000
0000
0001
0001
0001
0000
,
0010
0000
1000
0000
0001
1000
0100
0000
,
0010
0000
1000
0000
0001
1000
0100
0000
,
0010
0000
0010
0000
0001
1000
0100
0000
,
1000
0000
1000
0000
0001
1000
0100
0000
,
0100
0000
0100
0000
0001
1000
0100
0000
,
0001
0000
0001
0000
0001
1000
0100
0000
,
0000
0000
0000
0000
,
0010
0010
0010
0010
,
1000
0001
0100
0000
1000
0001
0100
0000
,
0001
1000
0100
0000
0001
1000
0100
0000
,
0010
0001
0100
0000
0010
1000
0100
0000
,
0010
0001
0100
0000
0010
1000
0100
0000
,
0010
0100
1000
0000
0010
0100
0001
0000
,
0010
1000
0100
0000
0010
0001
1000
0000
,
0001
0001
0100
0000
0001
0001
0100
0000
,
1000
0001
0100
0000
1000
0001
0100
0000
,
0001
1000
0100
0000
0001
1000
0100
0000
,
0001
0010
0100
0000
0001
0010
0100
0000
,
0000
0000
0000
0000
,
0010
1000
0001
0100
,
1001
0100
1010
0001
,
1001
0100
0011
1000
,
0010
0001
0010
1000
,
1001
0100
0011
0100
,
1001
0100
0010
0001
,
1000
0001
0100
0010
,
1001
0100
0010
1000
,
0001
0100
0010
1000
,
1001
0000
0010
0000
1000
0100
1000
0000
,
1001
0000
0010
0000
0001
0100
0001
0000
,
0010
0000
1000
0000
0011
1000
0100
0000
,
0010
0000
0001
0000
1010
0001
0100
0000
,
1001
0000
0100
0000
0010
0001
0100
0000
,
1001
0000
0100
0000
0010
1000
0100
0000
,
1001
0000
1100
0000
0010
0001
0100
0000
,
1001
0000
0101
0000
0010
1000
0100
0000
,
1001
0000
0000
0000
;

//---------------dance-single - ----------------
#NOTES:
     dance-single:
     :
     Hard:
     11:
     0.510846,0.543944,0.579199,0.000000,0.000000,284.000000,238.000000,46.000000,0.000000,0.000000,0.000000,0.510846,0.543944,0.579199,0.000000,0.000000,284.000000,238.000000,46.000000,0.000000,0.000000,0.000000:
0000
0000
0000
0000
,
0000
0000
0000
0000
,
0000
0000
0000
0000
,
0000
0000
0000
0000
,
0010
0010
0010
0010
,
1001
0000
1001
0000
1000
0001
1001
0000
,
1000
0001
0100
0000
1000
0001
0100
0000
,
1000
0001
0100
0000
1000
0001
0100
0000
,
0001
1000
0100
0000
0001
1000
0100
0000
,
0001
1000
0100
0000
0001
1000
0100
0000
,
1000
0000
0001
0000
0010
1000
0100
0000
,
1000
0000
0001
0000
0010
0001
0100
0000
,
0010
1000
0100
0010
0001
0100
0010
0000
,
0010
1000
0100
0010
0001
0100
0010
0000
,
0010
0010
0010
0000
0001
1000
0100
0000
,
0010
0010
0010
0000
0001
1000
0100
0000
,
0100
0100
0100
0000
1000
0001
0100
0000
,
0100
0100
0100
0000
1000
0001
0100
0000
,
0000
0000
0000
0000
,
0010
0010
0010
1001
,
1001
0100
1000
0000
1001
0100
1000
0000
,
1001
0100
1000
0000
1001
0100
1000
0000
,
1010
0001
0100
0000
1010
0001
0100
0000
,
1010
0001
0100
0000
1010
0001
0100
0000
,
0011
1000
0011
1000
,
0011
1000
0011
1000
,
0010
0100
1001
0000
0010
0100
1001
0000
,
1000
0001
0101
0000
1000
0001
0101
0000
,
0001
1000
1001
0000
0001
1000
1001
0000
,
1000
0001
0100
0000
1000
0001
0100
0000
,
0000
0000
0000
0000
,
0010
1000
0001
0100
,
1000
0100
0010
0100
1000
0100
0001
0100
,
0010
0100
0001
0100
1000
0100
0010
0100
,
0001
0100
1000
0100
0010
0100
1000
0100
,
0001
0100
1000
0100
0001
0100
1000
0100
,
1001
0100
0100
0100
,
1000
0000
0001
0000
0100
0010
1000
0001
,
1001
0000
0100
0000
0010
0001
1000
0100
,
1001
0100
0010
0101
,
1001
0000
0100
0000
1000
0001
0100
0000
,
1001
0000
0010
0000
0001
0100
1001
0000
,
0010
0000
1000
0000
0011
1000
1100
0000
,
0010
0000
0001
0000
1010
0001
0101
0000
,
1001
0000
0100
0000
1010
0100
1001
0000
,
1001
0000
0100
0000
1010
0100
1001
0000
,
1001
0000
1100
0000
0010
0001
1001
0000
,
1001
0000
0101
0000
0010
1000
1001
0000
,
1001
0000
0000
0000
;

//---------------dance-single - ----------------
#NOTES:
     dance-single:
     :
     Challenge:
     16:
     0.877793,0.997230,0.377739,0.037774,1.353563,488.000000,458.000000,30.000000,3.000000,0.000000,0.000000,0.877793,0.997230,0.377739,0.037774,1.353563,488.000000,458.000000,30.000000,3.000000,0.000000,0.000000:
0000
0000
0000
0000
,
0000
0000
0000
0000
,
0000
0000
0000
0000
,
0000
0000
0000
0000
,
1000
0100
1000
0100
1000
0010
1000
0010
0100
0010
0100
0010
0100
0001
0100
0001
,
0010
0001
0010
0001
1000
0001
1000
0001
0100
0001
0100
0001
0100
0010
0100
0010
,
1000
0000
0100
1000
0000
0100
1000
0000
1000
0000
1000
0100
0000
1000
0100
0000
,
0010
0000
0001
0010
0000
0001
0010
0000
0010
0000
0010
0001
0000
0010
0001
0000
,
0001
0000
0100
0001
0000
0100
0001
0000
0001
0000
0001
0100
0000
0001
0100
0000
,
0100
0010
0100
0010
0100
0010
0100
0010
0100
0001
0100
0001
0010
0001
0010
0001
,
0100
0000
0001
1000
0000
0010
1000
0000
0000
0100
1000
0100
1000
0010
0100
0000
,
0001
0000
0100
0010
0000
1000
0100
0000
0000
1000
0100
1000
0010
0100
0001
0000
,
0100
0000
0010
0100
0000
0001
0100
0000
0000
0001
0010
0001
0010
0001
0100
0000
,
0010
0000
1000
0100
0000
1000
0010
0000
0010
0100
0001
0100
0010
0100
0001
0000
,
1001
0000
0100
0010
0000
0100
0000
0010
0000
1000
0000
0100
1000
0100
1000
0010
,
0100
0000
0001
0100
0000
0010
0000
0100
0000
0001
0010
0001
0100
0001
0100
0010
,
1000
0100
1000
0100
0000
1000
0000
0100
0000
1000
0000
0010
0100
0001
0100
0010
,
0100
0001
0010
0000
0001
0100
0010
0100
0000
0100
0001
1000
0100
1000
0000
1000
,
0020
0000
0000
0000
,
0200
0000
0000
0330
,
1001
0100
0010
0100
1001
0100
0010
0100
,
1001
0010
0100
0010
1001
0010
0100
0010
,
1001
0100
0001
0010
1001
0100
1000
0010
,
1001
0110
1001
0110
1001
1100
0011
1100
,
1001
0000
1000
0100
0000
1000
0000
0010
0000
0100
0000
0001
0000
0001
0000
0001
,
0100
0000
0010
1000
0000
0010
0000
1000
0000
0001
0000
1000
0000
1000
0000
0010
,
0100
0000
0001
1000
0000
0100
0000
1000
0000
0001
0000
0100
0000
0001
0000
0010
,
0001
0000
0100
0001
0000
1000
0000
0100
0000
0010
0000
0100
0000
1000
0000
1000
,
0100
0000
0100
1000
0000
1000
0000
0010
0000
0100
0000
0010
0000
0010
0000
0100
,
0001
0100
0001
0010
0000
0001
0000
1000
0000
1000
0001
1000
0000
0001
1000
0010
,
2000
0000
0000
0000
,
0001
0100
0001
3100
,
1001
0000
0100
0001
0000
0100
0001
0100
0010
0000
0010
1000
0000
1000
0010
1000
,
0100
0000
0100
1000
0000
1000
0010
0100
0001
0000
0001
0100
0000
0100
0010
0100
,
0010
0000
0010
1000
0000
1000
0001
0100
0001
0000
0001
1000
0000
0100
1000
0001
,
0100
0000
0001
1000
0000
0100
1000
0001
0100
0010
1000
0010
1000
0010
0100
0010
,
1000
0000
0100
0010
0000
0100
1000
0100
0010
0000
0100
1000
0000
0100
0010
0100
,
1000
0000
0100
0010
0000
0001
0010
0001
0100
0000
0001
0010
0000
0001
0100
0001
,
0100
0010
1000
0010
1000
0010
0100
0010
0100
0001
0100
0001
0100
0001
0010
0001
,
0100
0010
1000
0100
0010
0001
0100
0010
1000
0100
0010
0001
0100
0010
1000
0000
,
1001
0000
0100
1000
0000
0100
1000
0000
0000
0001
0100
0010
0100
0010
0100
0000
,
1001
0000
0001
1000
0000
0001
1000
0000
0000
0001
1000
0100
0010
0001
1000
0000
,
1001
0000
0100
0010
0000
0100
0001
0000
0000
0100
0010
0100
0001
0100
0010
0000
,
1001
0000
0100
1000
0000
0001
0100
0000
0001
0000
1000
0000
0010
0100
0010
0000
,
1001
0000
0010
0100
0000
0001
0100
0000
0000
0100
0010
1000
0010
1000
0100
0000
,
1001
0000
0100
1000
0000
0010
0100
0000
0000
0001
0010
0100
1000
0010
0100
0000
,
1001
0000
0100
0010
0000
0100
0001
0000
0000
1000
0001
0100
0010
1000
0001
0000
,
1001
0000
0010
0100
0000
0100
0010
0000
0011
0000
0101
0000
1100
0000
1010
0000
,
1001
0000
0000
0000
;
