#TITLE:Freak;
#SUBTITLE:;
#ARTIST:LFO;
#TITLETRANSLIT:;
#SUBTITLETRANSLIT:;
#ARTISTTRANSLIT:;
#GENRE:;
#CREDIT:;
#BANNER:;
#BACKGROUND:Freak-bg.png;
#LYRICSPATH:;
#CDTITLE:;
#MUSIC:Freak.ogg;
#OFFSET:-1.181000;
#SAMPLESTART:29.585464;
#SAMPLELENGTH:12.444000;
#SELECTABLE:YES;
#BPMS:0.000000=135.000000
;
#STOPS:
;
#BGCHANGES:;
#KEYSOUNDS:;
#ATTACKS:;

//---------------dance-single - ----------------
#NOTES:
     dance-single:
     :
     Hard:
     13:
     0.509840,0.715867,0.568790,0.000000,0.468415,320.000000,269.000000,51.000000,0.000000,0.000000,0.000000,0.509840,0.715867,0.568790,0.000000,0.468415,320.000000,269.000000,51.000000,0.000000,0.000000,0.000000:
// measure 0
0000
0000
0000
0000
,  // measure 1
0000
0000
0000
0000
0000
0000
0000
0000
0000
0000
0000
0000
0010
0100
0000
0000
,  // measure 2
0000
0000
0000
0000
,  // measure 3
0000
0000
0000
0000
0000
0000
0000
0000
0000
0000
0000
0000
1000
0100
0000
0000
,  // measure 4
0000
0000
0000
0000
,  // measure 5
0000
0000
0000
0000
0000
0000
0000
0000
0000
0000
0000
0000
0001
0010
0000
0000
,  // measure 6
0000
0000
0000
0000
,  // measure 7
0000
0000
0000
0000
0000
0000
0000
0000
0000
0000
0000
0000
0001
0010
0000
0000
,  // measure 8
0011
0000
0000
0001
0010
0001
0000
0000
,  // measure 9
1000
0000
0000
0100
0000
0000
1000
0000
0000
0000
0000
0000
0000
0000
0000
0000
,  // measure 10
1100
0000
1000
0100
1000
0000
1000
0000
0010
0000
1000
0000
0000
0000
0000
0000
,  // measure 11
1000
0000
0000
0001
0000
0000
1000
0000
0000
0000
0000
0000
1001
0000
0000
0000
,  // measure 12
0011
0000
0000
0001
0100
0001
0000
0000
,  // measure 13
0100
0000
0000
0010
0000
0000
0100
0000
0000
0000
0000
0000
0110
0000
0000
0000
,  // measure 14
1000
0000
0010
1000
0010
0000
0010
0000
1000
0000
0010
0000
0000
0000
0000
0000
,  // measure 15
1000
0000
0000
0100
0000
0000
0010
0000
0000
0000
0000
0000
1001
0000
0000
0000
,  // measure 16
0100
0001
0000
0000
0000
0000
0001
0000
0001
0100
0000
0000
0000
0000
1000
0000
,  // measure 17
0001
1000
0000
1000
0001
0000
1001
0000
0000
0000
0000
0000
1100
0000
0000
0000
,  // measure 18
1000
0000
0000
1000
0010
0001
0000
1000
,  // measure 19
0010
0000
0000
0010
0000
0000
1010
0000
0000
0000
0000
0000
0010
1000
0000
0000
,  // measure 20
1001
0000
0000
1000
0100
1000
0000
1000
,  // measure 21
0001
0000
0000
1000
0000
0000
1001
0000
0000
0000
0000
0000
0001
1000
0000
0000
,  // measure 22
1100
0000
0000
1000
0001
0010
0000
0001
,  // measure 23
1000
0000
0000
0100
0000
0000
0011
0000
0000
0000
0000
0000
0001
1000
0000
0000
,  // measure 24
1100
0000
0000
1010
0011
1010
0000
0000
,  // measure 25
1000
0000
0000
0001
0000
0000
1000
0000
0000
0000
0000
0000
0000
0000
0000
0000
,  // measure 26
1010
0000
1000
0001
1000
0000
1000
0000
0100
0000
0010
0000
0000
0000
1000
0010
,  // measure 27
1000
0000
0000
1010
0000
0000
0101
0000
0000
0000
0000
0000
1000
0010
0000
0000
,  // measure 28
1010
0000
0000
0000
0000
0000
0101
0000
1100
0000
0101
0000
0000
0000
0000
0100
,  // measure 29
0010
0000
0000
0010
0000
0000
0110
0000
0000
0000
0000
0000
0000
0000
0000
0000
,  // measure 30
1001
0000
0001
1000
0001
0000
0100
0000
0010
0000
1001
0000
0000
0000
0000
0100
,  // measure 31
0010
0000
0000
0010
0000
0000
0101
0000
0000
0000
0000
0000
0000
0000
0000
0000
,  // measure 32
1000
0010
0000
1010
0000
0000
0001
0000
0001
0010
0000
0011
0000
0000
0100
0000
,  // measure 33
0010
0100
0010
0100
0000
0000
0100
0000
0001
0100
0000
0101
0000
0000
1000
0000
,  // measure 34
0100
1000
0000
1100
0000
0000
1000
0000
0001
1000
0000
1001
0000
0000
1010
0000
,  // measure 35
1000
0010
0000
1010
0000
0000
1001
0000
1000
0001
0000
1001
0000
0000
1001
0000
,  // measure 36
1000
0001
0000
1001
0000
0000
1001
0000
1000
0001
0000
1001
0000
0000
1001
0000
,  // measure 37
1000
0001
0000
1001
0000
0000
1001
0000
1000
0001
0000
1001
0000
0000
1001
0000
,  // measure 38
1000
0001
0000
1001
0000
0000
1001
0000
1000
0001
0000
1001
0000
0000
0100
0000
,  // measure 39
0010
0100
0000
0001
0000
0000
1001
0000
0100
0010
0000
1000
0000
0000
0001
0000
,  // measure 40
0100
0010
0000
1000
0000
0000
0001
0000
0100
0001
0000
0100
0000
0000
0010
0000
,  // measure 41
1000
0010
0000
0100
0000
0000
0001
0000
1000
0010
0000
0100
0000
0000
0001
0000
,  // measure 42
1000
0010
0000
0100
0000
0000
0001
0000
1000
0010
0000
0100
0000
0000
0001
0000
,  // measure 43
1000
0010
0000
0100
0000
0000
0001
0000
1000
0010
0000
0100
0000
0000
0001
0000
,  // measure 44
0100
0000
0001
0000
1000
0000
0010
0100
0010
0000
1000
0000
0001
0000
0100
0010
,  // measure 45
0100
0000
0001
0000
1000
0000
0010
0100
0010
0000
1000
0000
0010
0000
0100
0001
,  // measure 46
1000
0000
0010
0000
0100
0000
0001
1000
0010
0000
0100
0000
0001
0000
1000
0000
,  // measure 47
0010
0100
0001
1000
0010
0100
0001
1000
,  // measure 48
1001
0000
0000
0001
1000
0100
0000
0010
,  // measure 49
1000
0000
0000
0001
0000
0000
0010
0000
0000
0000
0000
0000
0000
0000
0000
0000
;

//---------------dance-single - ----------------
#NOTES:
     dance-single:
     :
     Medium:
     9:
     0.385566,0.440534,0.356888,0.000000,0.117104,242.000000,210.000000,32.000000,0.000000,0.000000,0.000000,0.385566,0.440534,0.356888,0.000000,0.117104,242.000000,210.000000,32.000000,0.000000,0.000000,0.000000:
// measure 0
0000
0000
0000
0000
,  // measure 1
0000
0000
0000
0110
,  // measure 2
0000
0000
0000
0000
,  // measure 3
0000
0000
0000
1100
,  // measure 4
0000
0000
0000
0000
,  // measure 5
0000
0000
0000
0011
,  // measure 6
0000
0000
0000
0000
,  // measure 7
0000
0000
0000
0011
,  // measure 8
1001
0001
0010
0100
,  // measure 9
1000
0000
0000
0100
0000
0000
1000
0000
0100
0000
0000
0000
1100
0000
0000
0000
,  // measure 10
1100
0000
1000
1000
0010
0000
1000
0000
,  // measure 11
1000
0000
0000
0001
0000
0000
1000
0000
0001
0000
0000
0000
1001
0000
0000
0000
,  // measure 12
0011
0000
0001
0000
0100
0001
0100
0000
,  // measure 13
0100
0000
0000
0010
0000
0000
0100
0000
0010
0000
0000
0000
0110
0000
0000
0000
,  // measure 14
1000
0000
0010
0010
1000
0000
0010
0000
,  // measure 15
1000
0000
0000
0100
0000
0000
0010
0000
0001
0000
0000
0000
1001
0000
0000
0000
,  // measure 16
0100
0001
0001
0100
,  // measure 17
0001
0001
1001
1100
,  // measure 18
1000
1001
0010
0001
,  // measure 19
0010
0010
1010
0010
,  // measure 20
1001
1000
0100
1000
,  // measure 21
0001
1001
1000
0001
,  // measure 22
1100
1000
0001
0010
,  // measure 23
1000
0100
0001
0001
,  // measure 24
1100
1010
0011
1010
,  // measure 25
1000
0001
1000
0001
,  // measure 26
1010
1000
0100
1000
,  // measure 27
1010
0101
0011
1001
,  // measure 28
1010
0101
1100
0001
,  // measure 29
0010
0010
0010
0010
,  // measure 30
1001
0001
0010
1000
,  // measure 31
0010
0001
0010
1000
,  // measure 32
0010
0000
0001
0000
0001
0000
0001
0100
,  // measure 33
0010
0010
0010
0100
0001
0000
0001
1000
,  // measure 34
0100
0000
1000
1000
0001
0000
0001
0000
,  // measure 35
1000
0000
0000
1000
0000
0000
1000
0000
0001
0000
0000
0001
0000
0000
0001
0000
,  // measure 36
1000
0000
0000
1000
0000
0000
1000
0000
0001
0000
0000
0001
0000
0000
0001
0000
,  // measure 37
1000
0000
0000
1000
0000
0000
1000
0000
0001
0000
0000
0001
0000
0000
0001
0000
,  // measure 38
1000
0000
0000
1000
0000
0000
1000
0000
0001
0000
0000
0001
0000
0000
0001
0000
,  // measure 39
0100
0000
0000
0100
0000
0000
0100
0000
0010
0000
0000
0010
0000
0000
0010
0000
,  // measure 40
0100
0000
0000
0100
0000
0000
0100
0000
0010
0000
0000
0010
0000
0000
0010
0000
,  // measure 41
0100
0000
0000
0100
0000
0000
0100
0000
0010
0000
0000
0010
0000
0000
0010
0000
,  // measure 42
0100
0000
0000
0100
0000
0000
0100
0000
0010
0000
0000
0010
0000
0000
0010
0000
,  // measure 43
1000
0000
0100
1000
1000
0000
0001
0001
,  // measure 44
0100
0000
1000
0010
0010
0000
0001
0100
,  // measure 45
0100
0000
1000
0010
0010
0000
0010
0100
,  // measure 46
1000
0000
0100
0001
0010
0000
0001
1000
,  // measure 47
0010
0000
0001
1000
0010
0000
0001
1000
,  // measure 48
1001
0000
0000
0100
0100
0100
0000
0010
,  // measure 49
0010
0000
0000
0010
0000
0000
0010
0000
0000
0000
0000
0000
0000
0000
0000
0000
;

//---------------dance-single - ----------------
#NOTES:
     dance-single:
     :
     Easy:
     7:
     0.307497,0.440534,0.356888,0.000000,0.050187,193.000000,161.000000,32.000000,0.000000,0.000000,0.000000,0.307497,0.440534,0.356888,0.000000,0.050187,193.000000,161.000000,32.000000,0.000000,0.000000,0.000000:
// measure 0
0000
0000
0000
0000
,  // measure 1
0000
0000
0000
0110
,  // measure 2
0000
0000
0000
0000
,  // measure 3
0000
0000
0000
1100
,  // measure 4
0000
0000
0000
0000
,  // measure 5
0000
0000
0000
0011
,  // measure 6
0000
0000
0000
0000
,  // measure 7
0000
0000
0000
0011
,  // measure 8
1001
0001
0010
0100
,  // measure 9
1000
1000
0100
1100
,  // measure 10
1100
1000
0010
1000
,  // measure 11
1000
0001
0001
1001
,  // measure 12
0011
0001
0100
0100
,  // measure 13
0100
0010
0010
0110
,  // measure 14
1000
0010
1000
0010
,  // measure 15
1000
0001
0010
1001
,  // measure 16
0100
0001
0001
0100
,  // measure 17
0001
0001
1001
1100
,  // measure 18
1000
1001
0010
0001
,  // measure 19
0010
0010
1010
0010
,  // measure 20
1001
1000
0100
1000
,  // measure 21
0001
1001
1000
0001
,  // measure 22
1100
1000
0001
0010
,  // measure 23
1000
0100
0001
0001
,  // measure 24
1100
1010
0011
1010
,  // measure 25
1000
0001
1000
0001
,  // measure 26
1010
1000
0100
1000
,  // measure 27
1010
0101
0011
1001
,  // measure 28
1010
0101
1100
0001
,  // measure 29
0010
0010
0010
0010
,  // measure 30
1001
0001
0010
1000
,  // measure 31
0010
0001
0010
1000
,  // measure 32
0010
0001
0001
0001
,  // measure 33
0010
0010
0001
0001
,  // measure 34
1000
1000
0001
0001
,  // measure 35
1000
0000
0000
1000
0000
0000
1000
0000
0000
0000
0000
0000
0000
0000
0000
0000
,  // measure 36
0001
0000
0000
0001
0000
0000
0001
0000
0000
0000
0000
0000
0000
0000
0000
0000
,  // measure 37
1000
0000
0000
1000
0000
0000
1000
0000
0000
0000
0000
0000
0000
0000
0000
0000
,  // measure 38
0001
0000
0000
0001
0000
0000
0001
0000
0000
0000
0000
0000
0000
0000
0000
0000
,  // measure 39
0100
0000
0000
0100
0000
0000
0100
0000
0000
0000
0000
0000
0000
0000
0000
0000
,  // measure 40
0010
0000
0000
0010
0000
0000
0010
0000
0000
0000
0000
0000
0000
0000
0000
0000
,  // measure 41
0100
0000
0000
0100
0000
0000
0100
0000
0000
0000
0000
0000
0000
0000
0000
0000
,  // measure 42
0010
0000
0000
0010
0000
0000
0010
0000
0000
0000
0000
0000
0000
0000
0000
0000
,  // measure 43
1000
0100
1000
0001
,  // measure 44
0100
1000
0010
0001
,  // measure 45
0100
1000
0010
0010
,  // measure 46
1000
0100
0010
0001
,  // measure 47
0010
0001
0010
0001
,  // measure 48
1001
0000
0100
0000
,  // measure 49
0001
0000
0000
0001
0000
0000
0001
0000
0000
0000
0000
0000
0000
0000
0000
0000
;

//---------------dance-single - ----------------
#NOTES:
     dance-single:
     :
     Beginner:
     3:
     0.141799,0.191270,0.100375,0.089222,0.000000,89.000000,80.000000,9.000000,8.000000,0.000000,0.000000,0.141799,0.191270,0.100375,0.089222,0.000000,89.000000,80.000000,9.000000,8.000000,0.000000,0.000000:
// measure 0
0000
0000
0000
0000
,  // measure 1
0000
0000
0000
0110
,  // measure 2
0000
0000
0000
0000
,  // measure 3
0000
0000
0000
1001
,  // measure 4
0000
0000
0000
0000
,  // measure 5
0000
0000
0000
0110
,  // measure 6
0000
0000
0000
0000
,  // measure 7
0000
0000
0000
1001
,  // measure 8
1001
0000
0010
0000
,  // measure 9
1000
0000
0100
0000
,  // measure 10
1000
0000
0010
0000
,  // measure 11
1000
0000
0001
0000
,  // measure 12
0001
0000
0100
0000
,  // measure 13
0100
0000
0010
0000
,  // measure 14
1000
0000
1000
0000
,  // measure 15
1000
0000
0010
0000
,  // measure 16
0100
0000
0001
0000
,  // measure 17
0001
0000
1001
0000
,  // measure 18
1000
0000
0010
0000
,  // measure 19
0010
0000
0010
0000
,  // measure 20
1001
0000
0100
0000
,  // measure 21
0001
0000
1000
0000
,  // measure 22
1000
0000
0001
0000
,  // measure 23
1000
0000
0001
0000
,  // measure 24
1000
0000
0001
0000
,  // measure 25
1000
0000
0001
0000
,  // measure 26
1000
0000
0100
0000
,  // measure 27
1000
0000
0001
0000
,  // measure 28
1000
0000
0100
0000
,  // measure 29
1000
1000
1000
0000
,  // measure 30
0001
0001
0001
0000
,  // measure 31
0010
0000
0100
0000
,  // measure 32
0010
0000
0100
0000
,  // measure 33
1000
0000
0001
0000
,  // measure 34
1000
0000
0001
0000
,  // measure 35
2000
0000
3000
0000
,  // measure 36
0002
0000
0003
0000
,  // measure 37
2000
0000
3000
0000
,  // measure 38
0002
0000
0003
0000
,  // measure 39
0200
0000
0300
0000
,  // measure 40
0020
0000
0030
0000
,  // measure 41
0200
0000
0300
0000
,  // measure 42
0020
0000
0030
0000
,  // measure 43
1000
0000
1000
0000
,  // measure 44
0100
0000
0010
0000
,  // measure 45
0001
0000
0010
0000
,  // measure 46
1000
0000
0010
0000
,  // measure 47
0001
0000
0010
0000
,  // measure 48
1001
0000
0000
0000
,  // measure 49
1001
0000
0000
0000
;
