#TITLE:FUCK THE MILLENNIUM;
#SUBTITLE:;
#ARTIST:2K;
#TITLETRANSLIT:;
#SUBTITLETRANSLIT:;
#ARTISTTRANSLIT:;
#GENRE:;
#CREDIT:;
#BANNER:FUCK THE MILLENNIUM.png;
#BACKGROUND:FUCK THE MILLENNIUM-bg.png;
#LYRICSPATH:;
#CDTITLE:;
#MUSIC:1-21 - FUCK THE MILLENNIUM.ogg;
#OFFSET:-0.243000;
#SAMPLESTART:49.023487;
#SAMPLELENGTH:12.000000;
#SELECTABLE:YES;
#BPMS:0.000000=123.000000
;
#STOPS:
;
#BGCHANGES:;
#KEYSOUNDS:;
#ATTACKS:;

//---------------dance-single - ----------------
#NOTES:
     dance-single:
     :
     Hard:
     11:
     0.396764,0.474197,0.166385,0.000000,0.287974,217.000000,204.000000,13.000000,0.000000,0.000000,0.000000,0.396764,0.474197,0.166385,0.000000,0.287974,217.000000,204.000000,13.000000,0.000000,0.000000,0.000000:
0000
0000
0000
0000
,
0000
0000
0000
0000
,
0000
0000
0000
0000
,
0000
0000
0000
0000
,
0100
0001
0100
0001
0100
0000
0000
0000
0000
0000
0000
0000
0000
0000
0000
0000
,
0100
0010
0100
0010
0100
0000
0000
0000
0000
0000
0000
0000
0000
0000
0000
0000
,
1000
0100
1000
0100
1000
0000
0000
0000
0000
0000
0000
0000
0000
0000
0000
0000
,
0100
0010
0100
0010
0100
0000
0000
0000
0000
0000
0000
0000
0000
0000
0000
0000
,
0010
0001
0010
0001
0010
0000
0000
0000
0000
0000
0000
0000
0000
0000
0000
0000
,
0100
0001
0100
0001
0100
0000
0000
0000
0000
0000
0000
0000
0000
0000
0000
0000
,
1000
0010
1000
0010
1000
0000
0000
0000
0000
0000
0000
0000
0000
0000
0000
0000
,
0100
0001
0100
0010
0100
0000
0000
0000
0000
0000
0000
0000
0000
0000
0000
0000
,
1000
0001
1000
0001
1000
0000
0000
0000
0000
0000
0000
0000
0000
0000
0000
0000
,
0100
0010
0100
0010
0100
0000
0000
0000
0000
0000
0000
0000
0000
0000
0000
0000
,
0100
0010
0100
0010
0100
0000
0000
0000
0000
0000
0000
0000
0000
0000
0000
0000
,
1001
0000
1001
1001
0000
1001
1001
0000
,
1000
0000
0001
0000
0000
0000
0000
0000
0100
0010
0100
0000
0101
0000
0000
0000
,
0100
0000
0001
0000
0000
0000
0000
0000
1000
0100
1000
0000
0110
0000
0000
0000
,
0100
0000
0001
0000
0000
0000
0000
0000
0100
0010
0100
0000
0101
0000
0000
0000
,
0100
0000
0010
0000
0000
0000
0000
0000
0100
0000
0000
0001
0000
0000
0000
0000
,
0110
0011
0000
0000
,
1000
0100
1000
0010
1000
0000
0000
0000
0000
0000
0000
0000
0000
0000
0000
0000
,
0110
0011
0000
0000
,
1000
0100
1000
0100
1000
0000
0000
0000
0000
0000
0000
0000
0000
0000
0000
0000
,
0100
0000
0001
0000
0100
0000
0010
0000
0100
0000
0000
0000
0100
0000
0001
0100
,
0001
0000
0100
0000
0010
0000
0100
0000
0010
0000
0000
0000
0100
0000
0010
0100
,
0010
0000
0100
0000
0010
0000
1000
0000
0010
0000
0000
0000
0100
0000
0010
0100
,
0010
0000
0100
0000
0001
0000
0100
0000
0000
0000
0100
0000
0001
0000
0100
0001
,
0000
0000
0100
0001
0100
0010
0100
1000
,
1000
0010
1000
0000
0100
0010
0100
0000
0000
0000
0110
0000
0001
0000
0010
0000
,
0010
0100
1000
0001
0100
0000
0010
0000
,
0000
0000
0100
0000
0001
0000
0100
0000
0100
0000
0000
0100
0000
0000
0001
0000
,
0000
0100
0010
0100
0001
0100
0001
0000
,
1000
0001
1000
0000
0010
0100
0010
0000
0000
0000
0100
0000
0001
0000
0100
0000
,
0001
0100
0010
0000
0100
0000
0000
0000
,
0100
0000
0000
0001
0100
0000
0100
0000
0010
0000
0010
0000
0010
0000
0000
0000
,
0100
0001
0100
0000
0010
0100
0010
0000
1000
0000
0000
0000
1000
0000
0000
0000
,
0100
0001
0100
0000
0001
0000
0000
0000
1000
0000
0000
0000
0001
0000
0000
0000
,
1000
0001
1000
0000
0100
0000
0000
0000
0100
0000
0000
0000
0100
0000
0001
0100
,
0001
0000
0000
0000
;

//---------------dance-single - ----------------
#NOTES:
     dance-single:
     :
     Medium:
     8:
     0.365681,0.399324,0.166385,0.000000,0.019198,200.000000,187.000000,13.000000,0.000000,0.000000,0.000000,0.365681,0.399324,0.166385,0.000000,0.019198,200.000000,187.000000,13.000000,0.000000,0.000000,0.000000:
0000
0000
0000
0000
,
0000
0000
0000
0000
,
0000
0000
0000
0000
,
0000
0000
0000
0000
,
1000
1000
1000
0000
0000
0000
0000
0000
,
0001
0001
0001
0000
0000
0000
0000
0000
,
1000
1000
1000
0000
0000
0000
0000
0000
,
0001
0001
0001
0000
0000
0000
0000
0000
,
0100
0100
0100
0000
0000
0000
0000
0000
,
0010
0010
0010
0000
0000
0000
0000
0000
,
0100
0100
0100
0000
0000
0000
0000
0000
,
0010
0010
0010
0000
0000
0000
0000
0000
,
1000
0001
1000
0001
1000
0001
1000
0000
,
0001
1000
0001
1000
0001
1000
0001
0000
,
1000
0001
1000
0001
1000
0001
1000
0000
,
0001
1000
0001
1000
0001
1000
0001
0000
,
1001
0000
0100
0001
0100
0001
0100
0000
,
1001
0000
0010
1000
0010
1000
0010
0000
,
1001
0000
0100
0001
0100
0001
0100
0000
,
1001
0000
0010
1000
0010
1000
0010
0000
,
1001
0000
1100
0000
1000
0100
1000
0000
,
1001
0000
0101
0000
0001
0100
0001
0000
,
0100
1000
0100
0000
1001
0000
1001
0000
,
0100
0001
0100
0000
1001
0000
1001
0000
,
0000
0000
1000
0000
1000
0000
0000
0000
0001
0000
0000
0100
0000
0000
0001
0000
,
0001
0000
0001
0000
0001
0000
0000
0000
1000
0000
0000
0100
0000
0000
1000
0000
,
1000
0000
1000
0000
1000
0000
0000
0000
0001
0000
0000
0100
0000
0000
0001
0000
,
0001
0001
0001
0000
1000
0100
1000
1000
,
1000
0100
1000
0000
0001
0100
0001
0000
,
1000
0100
1000
0000
0001
0100
0001
0000
,
1000
0010
1000
0000
0001
0100
0001
0000
,
1000
0100
1000
0000
1000
0010
1000
0000
,
0100
0001
0100
0000
0001
0010
0001
0000
,
0100
0001
0100
0000
0010
1000
0010
0000
,
1000
0100
1000
0000
0010
0100
0001
0000
,
0100
0010
0100
0000
0010
0100
0001
0000
,
0100
0010
1000
0000
1000
0100
1000
0000
,
1000
0001
1000
0000
0001
0100
0001
0000
,
0010
0100
0010
0000
0010
1000
0010
0000
,
1001
0000
0000
0000
;

//---------------dance-single - ----------------
#NOTES:
     dance-single:
     :
     Easy:
     5:
     0.228551,0.349409,0.243178,0.000000,0.000000,125.000000,106.000000,19.000000,0.000000,0.000000,0.000000,0.228551,0.349409,0.243178,0.000000,0.000000,125.000000,106.000000,19.000000,0.000000,0.000000,0.000000:
0000
0000
0000
0000
,
0000
0000
0000
0000
,
0000
0000
0000
0000
,
0000
0000
0000
0000
,
1100
0000
0000
0000
,
0011
0000
0000
0000
,
1001
0000
0000
0000
,
0110
0000
0000
0000
,
1010
0000
0000
0000
,
0110
0000
0000
0000
,
0101
0000
0000
0000
,
0110
0000
0000
0000
,
1100
0000
0000
0000
,
0011
0000
0000
0000
,
0101
0000
0000
0000
,
1010
0000
0000
0000
,
1000
0001
0100
0001
,
0100
0010
1000
0100
,
1000
0010
0100
0001
,
0100
0010
1000
0100
,
1000
0010
0100
0001
,
0100
0010
1000
0100
,
1000
0010
0100
0001
,
1001
0000
0000
0000
,
1001
0000
0100
0000
0001
0100
0001
0000
,
1001
0000
0100
0000
1000
0100
1000
0000
,
1001
0000
0001
0000
0100
0001
0100
0000
,
1001
0000
0010
0000
0100
1000
0100
0000
,
1001
0100
0001
0100
,
0010
1000
0100
1000
,
0010
0100
0001
0010
,
0100
1000
0010
0100
,
0001
0100
0010
1000
,
0100
1000
0010
0100
,
0001
1000
0100
1000
,
0010
0100
0001
0010
,
0001
0100
0010
1000
,
0100
1000
0010
0100
,
0001
0010
0100
1000
,
1001
0000
0000
0000
;

//---------------dance-single - ----------------
#NOTES:
     dance-single:
     :
     Beginner:
     1:
     0.102391,0.149747,0.051195,0.102391,0.000000,56.000000,52.000000,4.000000,8.000000,0.000000,0.000000,0.102391,0.149747,0.051195,0.102391,0.000000,56.000000,52.000000,4.000000,8.000000,0.000000,0.000000:
// measure 0
0000
0000
0000
0000
,  // measure 1
0000
0000
0000
0000
,  // measure 2
0000
0000
0000
0000
,  // measure 3
0000
0000
0000
0000
,  // measure 4
2000
0000
0000
0000
,  // measure 5
3000
0000
0000
0000
,  // measure 6
0002
0000
0000
0000
,  // measure 7
0003
0000
0000
0000
,  // measure 8
0200
0000
0000
0000
,  // measure 9
0300
0000
0000
0000
,  // measure 10
0020
0000
0000
0000
,  // measure 11
0030
0000
0000
0000
,  // measure 12
2002
0000
0000
0000
,  // measure 13
3003
0000
0000
0000
,  // measure 14
0220
0000
0000
0000
,  // measure 15
0330
0000
0000
0000
,  // measure 16
1000
0000
1000
0000
,  // measure 17
1000
0000
0001
0000
,  // measure 18
0001
0000
0001
0000
,  // measure 19
0100
0000
0100
0000
,  // measure 20
0100
0000
0010
0000
,  // measure 21
0010
0000
0010
0000
,  // measure 22
1000
0000
0001
0000
,  // measure 23
1001
0000
0000
0000
,  // measure 24
0010
0010
0000
0000
,  // measure 25
0100
0100
0000
0000
,  // measure 26
0010
0010
0000
0000
,  // measure 27
0100
0100
0000
0000
,  // measure 28
0001
0001
0000
0000
,  // measure 29
1000
1000
0000
0000
,  // measure 30
0001
0001
0000
0000
,  // measure 31
1000
1000
0000
0000
,  // measure 32
0010
0010
0000
0000
,  // measure 33
0100
0100
0000
0000
,  // measure 34
0010
0010
0000
0000
,  // measure 35
0100
0100
0000
0000
,  // measure 36
0001
0001
0000
0000
,  // measure 37
1000
1000
0000
0000
,  // measure 38
0100
0000
0100
0000
,  // measure 39
1001
0000
0000
0000
;
