#TITLE:EYES ON ME;
#SUBTITLE:(Almighty Mix);
#ARTIST:王菲;
#TITLETRANSLIT:;
#SUBTITLETRANSLIT:;
#ARTISTTRANSLIT:Faye Wong;
#GENRE:Eurodance;
#CREDIT:;
#BANNER:Eyes On Me (Almighty Mix).png;
#BACKGROUND:Eyes On Me (Almighty Mix)-bg.png;
#LYRICSPATH:;
#CDTITLE:;
#MUSIC:Eyes On Me (Almighty Mix).ogg;
#OFFSET:-0.501427;
#SAMPLESTART:58.689079;
#SAMPLELENGTH:12.000000;
#SELECTABLE:YES;
#BPMS:0.000000=133.996994
;
#STOPS:
;
#BGCHANGES:;
#KEYSOUNDS:;
#ATTACKS:;

//---------------dance-single - ----------------
#NOTES:
     dance-single:
     :
     Hard:
     10:
     0.419555,0.393333,0.109449,0.063845,0.095768,322.000000,310.000000,12.000000,7.000000,0.000000,0.000000,0.419555,0.393333,0.109449,0.063845,0.095768,322.000000,310.000000,12.000000,7.000000,0.000000,0.000000:
0000
0000
0000
0000
,
0000
0000
0000
0000
,
0000
0000
0000
0000
,
0000
0000
0000
0000
,
1000
0000
0000
1000
0000
0000
1000
0000
0001
0000
0000
0000
0010
0000
0100
0000
,
1000
0000
1010
0000
0001
0000
0001
0100
,
1000
0000
0100
0001
0010
0100
1000
1000
,
0001
0000
0010
0100
0010
0001
1000
0000
,
1001
0000
0001
0100
0010
0000
0010
1000
,
0100
0000
0100
1000
0001
0000
0001
0010
,
1000
0000
1000
0010
0100
0000
0100
1000
,
0001
0000
0001
0010
0100
0000
1000
0010
,
0100
0000
0100
0001
1000
0000
1000
0010
,
0001
0000
0001
0010
0100
0000
0100
0001
,
1000
0000
1000
0100
0010
0000
0010
0001
,
1000
0000
0100
1000
0001
0000
0100
0010
,
2000
0000
0100
0000
0001
0000
3010
0010
,
1000
0110
1000
0110
,
0001
0010
0100
0000
1000
0000
1000
0100
,
0010
0001
0010
0000
0100
0000
1000
0010
,
0200
0000
0010
0000
0001
0000
0310
0010
,
0100
0000
0101
0000
1000
0000
1000
0010
,
0100
0001
0010
0000
0100
0010
0001
0010
,
0100
0000
0100
1000
0100
0010
0100
1000
,
1000
0000
0010
0100
0001
0000
0010
0100
,
1000
0001
1000
0000
0110
0000
0001
1000
,
0010
0000
0100
0001
1000
0000
0010
1000
,
0100
0010
0001
1000
0001
0000
0010
1000
,
0200
0000
0010
0000
1000
0000
0310
0010
,
0100
0000
0011
0000
1000
0100
0010
0001
,
2000
0100
0010
3001
,
0010
1002
0100
0010
,
1003
0000
0001
0000
1000
0000
0001
0000
1000
0000
0000
0010
0000
0000
0100
0000
,
0001
0000
0010
0100
1000
0000
0010
0100
,
0001
0000
0000
0000
1000
0000
0100
0000
0010
0000
0000
0001
0000
0000
0100
0000
,
0010
0000
1000
0100
0010
0000
0001
0100
,
0010
0000
1000
0100
0010
0001
1000
0001
,
0010
0000
0100
1000
0001
0000
0100
0001
,
1000
0000
0010
0000
0100
0001
0100
0010
,
1000
0000
0100
0100
0010
0000
0001
0000
,
0100
0000
0000
0000
0010
0000
1000
0000
0001
0000
0000
1000
0000
0000
0100
0000
,
0010
0000
0001
0100
0010
0000
1000
0100
,
0010
0000
0000
0000
0001
0000
0100
0000
0010
0000
0000
1000
0000
0000
0001
0000
,
0100
0000
0010
1000
0001
0000
0010
0001
,
1000
0000
0010
0100
0001
0000
1000
0100
,
0010
0100
0010
0000
1001
0000
0010
1000
,
0001
0000
0100
0010
0100
0001
0010
0100
,
1000
1010
0001
0011
,
1002
0100
1000
0013
,
0100
0000
0000
1000
0000
0000
0001
0000
0100
0000
0000
0010
0000
0000
1000
0000
,
0001
0000
0000
0010
0000
0000
0100
0000
1000
0000
0000
0001
0000
0000
0100
0000
,
1000
0000
0000
1000
0000
0000
0100
0000
0001
0000
0000
1000
0000
0000
0010
0000
,
0100
0000
0000
0001
0000
0000
0010
0000
0100
0000
0000
1000
0000
0000
0001
0000
,
0010
0000
0000
1000
0000
0000
0100
0000
0010
0000
0000
0001
0000
0000
0100
0000
,
0010
0000
0000
1000
0000
0000
0001
0000
0100
0000
0000
0010
0000
0000
1000
0000
,
0001
0000
0000
0010
0000
0000
0100
0000
1000
0000
0000
0001
0000
0000
0100
0000
,
0010
0000
0000
0001
0000
0000
0100
0000
0010
0000
0000
1000
0000
0000
0001
0000
,
0200
0000
0300
0000
;

//---------------dance-single - ----------------
#NOTES:
     dance-single:
     :
     Medium:
     8:
     0.291864,0.367111,0.063845,0.109449,0.000000,224.000000,217.000000,7.000000,12.000000,0.000000,0.000000,0.291864,0.367111,0.063845,0.109449,0.000000,224.000000,217.000000,7.000000,12.000000,0.000000,0.000000:
0000
0000
0000
0000
,
0000
0000
0000
0000
,
0000
0000
0000
0000
,
0000
0000
0000
0000
,
1000
0001
0010
0010
,
0001
0000
1000
0000
0010
0000
0010
0100
,
0001
1000
0100
0100
,
1000
0000
0001
0000
0010
0000
0010
0100
,
1000
0100
0010
0001
,
1000
0100
0010
0001
,
1000
0010
0100
0001
,
1000
0010
0100
0001
,
1100
0100
0010
0100
,
1000
0010
0100
0001
,
0101
0100
0010
0100
,
0001
1000
0100
0010
,
0002
0100
0010
1000
,
0103
0000
0100
0000
,
1000
0010
1000
0000
0100
0000
0000
0000
,
0001
0010
0001
0000
0100
0000
0000
0000
,
0002
0010
1000
0100
,
1003
0000
1000
0000
,
0010
0100
0010
0000
1000
0000
0000
0000
,
0100
0010
0100
0000
0010
0000
0000
0000
,
0002
0010
0013
0000
,
2000
0010
3010
0000
,
0001
0100
0010
1000
,
0100
0100
0100
0000
,
0010
0001
1000
0100
,
0010
0000
0010
0000
0100
0000
1000
0001
,
2000
3010
0002
0013
,
2000
0010
0100
0001
,
3002
0100
1000
0013
,
0011
0010
0100
1000
,
0010
0000
0100
0000
0001
0000
1000
1000
,
1000
0010
0100
0001
,
1000
0000
0100
0000
0010
0000
0001
0001
,
0001
0010
0100
1000
,
0001
0010
0100
1000
,
1100
1100
0011
0011
,
0002
0000
0100
0000
1000
0000
0013
0001
,
1000
0100
1000
0010
,
0100
0001
0100
0010
,
0010
1000
0100
0010
,
0001
0001
1000
1000
,
0010
0100
0010
0000
1000
0000
0001
0000
,
0010
0100
0010
0000
0001
0000
1000
0000
,
0200
0010
0010
0310
,
0002
1000
1000
0103
,
1000
0010
0001
0100
,
1000
0100
0001
0010
,
1000
0100
0010
0001
,
0100
0000
0010
0000
1000
0000
0100
0100
,
0100
0010
0001
0100
,
0001
1000
0100
0010
,
0010
0001
0100
0010
,
1000
0000
0001
0000
0100
0010
1000
0100
,
0020
0000
0030
0000
;

//---------------dance-single - ----------------
#NOTES:
     dance-single:
     :
     Easy:
     5:
     0.224110,0.262222,0.063845,0.200657,0.000000,172.000000,165.000000,7.000000,22.000000,0.000000,0.000000,0.224110,0.262222,0.063845,0.200657,0.000000,172.000000,165.000000,7.000000,22.000000,0.000000,0.000000:
0000
0000
0000
0000
,
0000
0000
0000
0000
,
0000
0000
0000
0000
,
0000
0000
0000
0000
,
0001
0001
0001
0000
,
1000
1000
1000
0000
,
0100
0100
0100
0000
,
0010
0010
0010
0000
,
0002
0100
0103
0000
,
2000
0100
3100
0000
,
0002
0010
0013
0000
,
2000
0010
3010
0000
,
0001
0100
0010
0000
,
1000
0100
0010
0000
,
0002
0100
1003
0000
,
2000
0100
3001
0000
,
1001
0001
0010
0100
,
1000
0000
1000
0000
,
0010
0100
0001
0000
,
0001
0100
0010
0000
,
0010
1000
0100
0010
,
0001
0000
1000
0100
,
0010
0000
0010
0100
,
1000
0000
1000
0001
,
0100
0100
0010
1000
,
0001
0000
0001
0000
,
1000
0100
0010
0001
,
1000
0000
1000
0000
,
0001
0100
0010
0100
,
0001
0000
1000
0100
,
0020
0030
0200
0300
,
2002
0000
0000
0000
,
3003
0000
1000
0010
,
0110
0100
0100
0000
,
1001
0001
0001
0010
,
0100
0100
0100
0000
,
1000
1000
1000
0100
,
0010
0001
0100
0000
,
0010
1000
0100
1000
,
0001
0001
0001
0000
,
0010
0100
1000
0010
,
0110
0010
0010
0000
,
0100
0001
1000
0010
,
0100
0100
0100
0000
,
1001
1000
1000
0000
,
0001
0010
0200
0300
,
1000
0010
0100
0001
,
2000
3000
0001
0010
,
0200
0300
0020
0030
,
0001
0100
0002
0003
,
1000
0100
2000
3000
,
0010
1000
0002
0003
,
0010
0001
2000
3000
,
0100
0100
0010
0001
,
0100
0010
2000
3000
,
1000
0010
0100
0001
,
1000
0100
0020
0030
,
2002
0000
3003
0000
;

//---------------dance-single - ----------------
#NOTES:
     dance-single:
     :
     Beginner:
     2:
     0.110752,0.155965,0.054725,0.109449,0.000000,85.000000,79.000000,6.000000,12.000000,0.000000,0.000000,0.110752,0.155965,0.054725,0.109449,0.000000,85.000000,79.000000,6.000000,12.000000,0.000000,0.000000:
// measure 0
0000
0000
0000
0000
,  // measure 1
0000
0000
0000
0000
,  // measure 2
0000
0000
0000
0000
,  // measure 3
0000
0000
0000
0000
,  // measure 4
1001
0000
0000
0000
,  // measure 5
1000
0000
0000
0000
,  // measure 6
0010
0000
0000
0000
,  // measure 7
0100
0000
0000
0000
,  // measure 8
0001
0000
0001
0000
,  // measure 9
0001
0000
0000
0000
,  // measure 10
0010
0000
0010
0000
,  // measure 11
0010
0000
0000
0000
,  // measure 12
0100
0000
0100
0000
,  // measure 13
0100
0000
0000
0000
,  // measure 14
1000
0000
1000
0000
,  // measure 15
1000
0000
0000
0000
,  // measure 16
0010
0000
0010
0000
,  // measure 17
0010
0000
0000
0000
,  // measure 18
0200
0000
0300
0000
,  // measure 19
0020
0000
0030
0000
,  // measure 20
1000
0000
1000
0000
,  // measure 21
1000
0000
0001
0000
,  // measure 22
0020
0000
0030
0000
,  // measure 23
0200
0000
0300
0000
,  // measure 24
0001
0000
0001
0000
,  // measure 25
0010
0000
0000
0000
,  // measure 26
1000
0000
1000
0000
,  // measure 27
0100
0000
0000
0000
,  // measure 28
1000
0000
0001
0000
,  // measure 29
1000
0000
0000
0000
,  // measure 30
0001
0000
1000
0000
,  // measure 31
0001
0000
0000
0000
,  // measure 32
0200
0000
0300
0000
,  // measure 33
1001
0000
1000
0000
,  // measure 34
1000
0000
0000
0000
,  // measure 35
1001
0000
0001
0000
,  // measure 36
0001
0000
0000
0000
,  // measure 37
0010
0000
0100
0000
,  // measure 38
1000
0000
0000
0000
,  // measure 39
0010
0000
0100
0000
,  // measure 40
0001
0000
0000
0000
,  // measure 41
1000
0000
1000
0000
,  // measure 42
2000
0000
3000
0000
,  // measure 43
0001
0000
0001
0000
,  // measure 44
0002
0000
0003
0000
,  // measure 45
0010
0000
0100
0000
,  // measure 46
0010
0000
0100
0000
,  // measure 47
1001
0000
0100
0000
,  // measure 48
0010
0000
0200
0300
,  // measure 49
0001
0000
0001
0000
,  // measure 50
0002
0000
0003
0000
,  // measure 51
1000
0000
1000
0000
,  // measure 52
2000
0000
3000
0000
,  // measure 53
0110
0000
0100
0000
,  // measure 54
0200
0000
0300
0000
,  // measure 55
0010
0000
0010
0000
,  // measure 56
0020
0000
0030
0000
,  // measure 57
1001
0000
0000
0000
;
