#VERSION:0.83;
#TITLE:EVERYBODY 2 THE SUN;
#SUBTITLE:(Scorccio Hot Edit);
#ARTIST:ULTIMATE HEIGHTS;
#TITLETRANSLIT:;
#SUBTITLETRANSLIT:;
#ARTISTTRANSLIT:;
#GENRE:;
#ORIGIN:;
#CREDIT:;
#BANNER:;
#BACKGROUND:DDR CD-bg.JPG;
#PREVIEWVID:;
#JACKET:Everybody 2 the sun-jacket.jpg;
#CDIMAGE:;
#DISCIMAGE:;
#LYRICSPATH:;
#CDTITLE:;
#MUSIC:Everybody 2 the sun.ogg;
#OFFSET:-0.100000;
#SAMPLESTART:7.619997;
#SAMPLELENGTH:15.000000;
#SELECTABLE:YES;
#BPMS:0.000=127.200;
#STOPS:;
#DELAYS:;
#WARPS:;
#TIMESIGNATURES:0.000=4=4;
#TICKCOUNTS:0.000=4;
#COMBOS:0.000=1;
#SPEEDS:0.000=1.000=0.000=0;
#SCROLLS:0.000=1.000;
#FAKES:;
#LABELS:0.000=Song Start;
#BGCHANGES:;
#KEYSOUNDS:;
#ATTACKS:
;

//---------------dance-single - ----------------
#NOTEDATA:;
#CHARTNAME:;
#STEPSTYPE:dance-single;
#DESCRIPTION:;
#CHARTSTYLE:;
#DIFFICULTY:Hard;
#METER:11;
#RADARVALUES:0.545751,0.466200,0.464042,0.000000,0.000000,354.000000,311.000000,43.000000,0.000000,0.000000,0.000000,0.000000,0.000000,0.000000,0.545751,0.466200,0.464042,0.000000,0.000000,354.000000,311.000000,43.000000,0.000000,0.000000,0.000000,0.000000,0.000000,0.000000;
#CREDIT:;
#NOTES:
// measure 0
0000
0000
0000
0000
,  // measure 1
0000
0000
0000
0000
,  // measure 2
0000
0000
0000
0000
,  // measure 3
0000
0000
0000
0000
,  // measure 4
1001
0000
0101
0000
0001
0100
0010
0100
,  // measure 5
1001
0000
1100
0000
0010
0100
0010
1000
,  // measure 6
1100
0000
0011
0000
0001
0010
0100
1000
,  // measure 7
1100
0000
1010
0000
0100
0001
0010
0001
,  // measure 8
0101
0000
0110
0000
0010
1000
0010
0100
,  // measure 9
0101
0000
1001
0000
1000
0100
1000
0010
,  // measure 10
0110
0000
0101
0000
0001
0100
1000
0100
,  // measure 11
0101
0000
0011
0000
0001
0010
0100
1000
,  // measure 12
1100
0011
0101
1010
,  // measure 13
1000
0001
0100
0010
0100
0001
0100
0010
,  // measure 14
1000
0100
1000
0010
0100
0001
0100
0010
,  // measure 15
1000
0100
0010
0001
1000
0001
1001
0000
,  // measure 16
1000
0100
1000
0100
0010
0001
0010
0100
,  // measure 17
1000
0100
1000
0100
0010
0001
0010
0100
,  // measure 18
1000
0100
1000
0100
0010
0001
0010
0100
,  // measure 19
1000
0100
1000
0100
0010
0001
0010
0100
,  // measure 20
1000
0100
0010
0001
0010
0001
0010
0100
,  // measure 21
1000
0100
0010
0001
0010
0001
0010
0100
,  // measure 22
1000
0100
0010
0001
0010
0001
0010
0100
,  // measure 23
1000
0100
0010
0001
0010
0001
0010
0001
,  // measure 24
1001
0000
0101
0000
0010
1000
0100
0001
,  // measure 25
1001
0000
0101
0000
0001
0010
0100
0010
,  // measure 26
0011
0000
0101
0000
0010
1000
0100
1000
,  // measure 27
1010
0000
0101
0000
0010
1000
0100
1000
,  // measure 28
1001
0000
0110
0000
0001
0100
0010
1000
,  // measure 29
1100
0000
1010
0000
0100
0001
0010
0001
,  // measure 30
0011
0000
0101
0000
0001
0100
0010
1000
,  // measure 31
1001
0000
0110
0000
1000
0001
0100
0010
,  // measure 32
1010
0101
0011
1100
,  // measure 33
1000
0001
0010
0100
1000
0010
1000
0100
,  // measure 34
1000
0001
0100
0010
1000
0001
0100
0010
,  // measure 35
1000
0100
0010
0001
1000
0010
0101
0000
,  // measure 36
1000
0100
1000
0100
0010
0001
0010
0100
,  // measure 37
1000
0100
1000
0100
0010
0001
0010
0100
,  // measure 38
1000
0100
1000
0100
0010
0001
0010
0100
,  // measure 39
1000
0100
1000
0100
0010
0001
0010
0100
,  // measure 40
1000
0100
0010
0001
0010
0001
0010
0100
,  // measure 41
1000
0100
0010
0001
0010
0001
0010
0100
,  // measure 42
1000
0100
0010
0001
0010
0001
0010
0100
,  // measure 43
1000
0100
0010
0001
0010
0001
0010
0100
,  // measure 44
1000
0100
1000
0100
0010
0001
0010
0100
,  // measure 45
1000
0100
1000
0100
0010
0001
0010
0100
,  // measure 46
1000
0100
1000
0100
0010
0001
0010
0100
,  // measure 47
1000
0100
1000
0100
0010
0001
0010
0100
,  // measure 48
1001
0000
0000
0000
;

//---------------dance-single - ----------------
#NOTEDATA:;
#CHARTNAME:;
#STEPSTYPE:dance-single;
#DESCRIPTION:;
#CHARTSTYLE:;
#DIFFICULTY:Medium;
#METER:8;
#RADARVALUES:0.346875,0.388500,0.280584,0.388500,0.000000,225.000000,199.000000,26.000000,36.000000,0.000000,0.000000,0.000000,0.000000,0.000000,0.346875,0.388500,0.280584,0.388500,0.000000,225.000000,199.000000,26.000000,36.000000,0.000000,0.000000,0.000000,0.000000,0.000000;
#CREDIT:;
#NOTES:
// measure 0
0000
0000
0000
0000
,  // measure 1
0000
0000
0000
0000
,  // measure 2
0000
0000
0000
0000
,  // measure 3
0000
0000
0000
0000
,  // measure 4
1001
0000
0100
0000
0010
0100
0010
0000
,  // measure 5
1000
0000
0100
0000
1000
0100
1000
0000
,  // measure 6
0010
0000
0001
0000
0010
0001
0010
0000
,  // measure 7
0001
0000
0100
0000
0010
0100
0001
0000
,  // measure 8
0100
0000
0010
0000
1000
0100
0010
0000
,  // measure 9
0100
0000
1000
0000
0100
0010
0100
0000
,  // measure 10
1000
0000
0010
0000
0100
0010
0100
0000
,  // measure 11
0001
0000
0100
0000
0010
0100
0001
0000
,  // measure 12
1000
0100
1000
0001
,  // measure 13
0100
0010
0100
0001
,  // measure 14
0100
0010
1000
0100
,  // measure 15
1000
0100
1000
0100
1000
0100
1000
0000
,  // measure 16
1001
0200
0302
1003
,  // measure 17
1001
2000
3200
0310
,  // measure 18
1001
0002
0023
0130
,  // measure 19
1001
0200
0302
0013
,  // measure 20
1001
0020
2030
3100
,  // measure 21
1001
0200
0320
1030
,  // measure 22
1001
0020
0230
0301
,  // measure 23
1001
0100
0001
0010
,  // measure 24
1000
0000
0100
0000
1000
0100
1000
0000
,  // measure 25
0010
0000
0100
0000
0001
0100
0001
0000
,  // measure 26
0010
0000
0001
0000
0100
0010
0100
0000
,  // measure 27
0010
0000
1000
0000
0100
1000
0100
0000
,  // measure 28
1000
0000
0010
0000
0100
0001
0100
0000
,  // measure 29
0010
0000
1000
0000
0100
1000
0100
0000
,  // measure 30
0010
0000
0001
0000
0100
0001
0100
0000
,  // measure 31
0010
0000
1000
0000
0100
1000
0100
0000
,  // measure 32
1001
0100
1000
0100
,  // measure 33
0001
0100
1000
0100
,  // measure 34
0001
0100
1000
0100
,  // measure 35
0001
0100
1000
0100
0001
0100
1000
0000
,  // measure 36
1001
0200
0302
1003
,  // measure 37
1001
2000
3200
0310
,  // measure 38
1001
0002
0023
0130
,  // measure 39
1001
0200
0302
0013
,  // measure 40
1001
0020
2030
3100
,  // measure 41
1001
0200
0320
1030
,  // measure 42
1001
0020
0230
0301
,  // measure 43
1001
0200
0302
1003
,  // measure 44
1001
2000
3200
0310
,  // measure 45
1001
0002
0023
0130
,  // measure 46
1001
0200
0302
0013
,  // measure 47
1001
0110
1001
0110
,  // measure 48
1001
0000
0000
0000
;

//---------------dance-single - ----------------
#NOTEDATA:;
#CHARTNAME:;
#STEPSTYPE:dance-single;
#DESCRIPTION:;
#CHARTSTYLE:;
#DIFFICULTY:Easy;
#METER:6;
#RADARVALUES:0.308334,0.336700,0.248209,0.000000,0.000000,200.000000,177.000000,23.000000,0.000000,0.000000,0.000000,0.000000,0.000000,0.000000,0.308334,0.336700,0.248209,0.000000,0.000000,200.000000,177.000000,23.000000,0.000000,0.000000,0.000000,0.000000,0.000000,0.000000;
#CREDIT:;
#NOTES:
0000
0000
0000
0000
,
0000
0000
0000
0000
,
0000
0000
0000
0000
,
0000
0000
0000
0000
,
1000
0100
1000
0100
,
0010
0100
1000
0100
,
0010
0001
0100
0001
,
0010
0001
0100
0010
,
1000
0100
1000
0010
,
0100
0001
0010
0100
,
1000
0100
1000
0010
,
0100
0001
0100
0010
,
1000
0001
0100
0001
,
0100
0010
1000
0010
,
1000
0100
1000
0010
,
0100
0001
0010
0100
,
0110
0100
1000
0100
,
0110
0010
0001
0010
,
0110
0100
1000
0010
,
0110
0100
0001
0010
,
1001
0100
0001
0100
,
0010
1000
0100
1000
,
1001
0100
0010
0100
,
0001
0010
0100
1000
,
1001
0100
1001
0100
,
1001
1000
0100
1000
,
0010
0100
0001
0100
,
0010
1000
0100
1000
,
0010
0100
0001
0100
,
0010
0100
0001
0010
,
0100
1000
0100
1000
,
0010
0100
0001
0100
,
0010
1000
0100
1000
,
0001
0100
0010
1000
,
0001
1000
0010
0100
,
0100
0100
0100
0100
,
1001
0100
1000
0010
,
1001
0100
0010
0100
,
0101
0010
1000
0100
,
1100
0100
1000
0010
,
0011
0001
0010
0100
,
1010
0100
1000
0010
,
0101
0010
1000
0100
,
1010
0100
0001
1000
,
1001
0100
0010
0100
,
0110
0001
1000
0100
,
1001
0100
0001
0010
,
1001
0010
1001
0010
,
1001
0000
0000
0000
;

//---------------dance-single - ----------------
#NOTEDATA:;
#CHARTNAME:;
#STEPSTYPE:dance-single;
#DESCRIPTION:;
#CHARTSTYLE:;
#DIFFICULTY:Beginner;
#METER:2;
#RADARVALUES:0.121792,0.155400,0.107917,0.021583,0.000000,79.000000,69.000000,10.000000,2.000000,0.000000,0.000000,0.000000,0.000000,0.000000,0.121792,0.155400,0.107917,0.021583,0.000000,79.000000,69.000000,10.000000,2.000000,0.000000,0.000000,0.000000,0.000000,0.000000;
#CREDIT:;
#NOTES:
0000
0000
0000
0000
,
0000
0000
0000
0000
,
0000
0000
0000
0000
,
0000
0000
0000
0000
,
0100
0100
0000
0000
,
0100
0100
0000
0000
,
0010
0010
0000
0000
,
0010
0010
0000
0000
,
0100
0100
0000
0000
,
0100
0100
0000
0000
,
0010
0010
0000
0000
,
0010
0010
0000
0000
,
1000
1000
0000
0000
,
0001
0001
0000
0000
,
1000
1000
0000
0000
,
0001
0001
0000
0000
,
1001
0000
0000
0000
,
1001
0000
0000
0000
,
1001
0000
0000
0000
,
1001
0000
0000
0000
,
0100
0000
0000
0000
,
0100
0000
0000
0000
,
0100
0000
0000
0000
,
0200
0000
0300
0000
,
1000
1000
0000
0000
,
0001
0001
0000
0000
,
0100
0100
0000
0000
,
0001
0001
0000
0000
,
0010
0010
0000
0000
,
0100
0100
0000
0000
,
1000
1000
0000
0000
,
0010
0010
0000
0000
,
0100
0100
0000
0000
,
0001
0001
0000
0000
,
1000
1000
0000
0000
,
0010
0010
0000
0000
,
1001
0000
0000
0000
,
1001
0000
0000
0000
,
1001
0000
0000
0000
,
1001
0000
0000
0000
,
0100
0000
0000
0000
,
0100
0000
0000
0000
,
0100
0000
0000
0000
,
0100
0000
0000
0000
,
1001
0000
0000
0000
,
0100
0000
0000
0000
,
1001
0000
0000
0000
,
0200
0000
0000
0300
,
0100
0000
0000
0000
;
