#TITLE:ECSTASY;
#SUBTITLE:(midnight blue mix);
#ARTIST:d-complex;
#TITLETRANSLIT:;
#SUBTITLETRANSLIT:;
#ARTISTTRANSLIT:;
#GENRE:Trance;
#CREDIT:;
#BANNER:ECSTASY (midnight blue mix).png;
#BACKGROUND:ECSTASY (midnight blue mix)-bg.png;
#LYRICSPATH:;
#CDTITLE:;
#MUSIC:ECSTASY (midnight blue mix).ogg;
#OFFSET:-0.013124;
#SAMPLESTART:28.094000;
#SAMPLELENGTH:15.000000;
#SELECTABLE:YES;
#DISPLAYBPM:145.000000;
#BPMS:0.000000=145.748993
,4.000000=145.268005
,180.000000=150.330002
;
#STOPS:
;
#BGCHANGES:;
#KEYSOUNDS:;
#ATTACKS:;

//---------------dance-single - ----------------
#NOTES:
     dance-single:
     :
     Hard:
     11:
     0.438475,0.517347,0.267363,0.074862,0.294099,287.000000,262.000000,25.000000,7.000000,0.000000,0.000000,0.438475,0.517347,0.267363,0.074862,0.294099,287.000000,262.000000,25.000000,7.000000,0.000000,0.000000:
0000
0000
0000
0000
,
0000
0000
0000
0000
,
0000
0000
0000
0000
,
0000
0000
0000
0000
,
1001
0000
0100
0010
0000
0000
1000
0001
,
0100
0000
0110
0000
0001
0000
1000
0100
,
0010
0000
0101
0000
0010
0000
0001
1000
,
0100
0000
1100
0000
0001
0000
0001
0010
,
1000
0000
0000
0000
1100
0000
0000
0000
0010
0000
0001
0000
0100
0000
0000
1000
,
0100
0000
0001
0000
0000
0000
0000
1000
0100
0000
0010
0000
0000
0000
0000
1000
,
0100
0000
0001
0000
0000
0000
0000
1000
0100
0000
0010
0000
0000
0000
0000
0001
,
0100
0000
1000
0000
0000
0000
0000
0001
0100
0000
0010
0000
0000
0000
0000
0001
,
0100
0000
1000
0000
0000
0000
0000
0001
0100
0000
0010
0000
0000
0000
0000
0010
,
1000
0000
0001
0000
0000
0000
0000
0001
0100
0000
0010
0000
0000
0000
0000
0010
,
1000
0000
0001
0000
0000
0000
0000
0001
0100
0000
0010
0000
0000
0000
0000
0010
,
0001
0000
1000
0000
0000
0000
0000
1000
0100
0000
0010
0000
0000
0000
0000
0010
,
0001
0000
1000
0000
0000
0000
0000
1000
0100
0000
0010
0000
0000
0000
0000
0000
,
1020
0000
0000
1000
0000
0000
1000
0000
1030
0000
0000
1000
0000
0000
1000
0000
,
2100
0000
0000
0100
0000
0000
0100
0000
3100
0000
0000
0100
0000
0000
0100
0000
,
0201
0000
0000
0001
0000
0000
0001
0000
0301
0000
0000
0001
0000
0000
0001
0000
,
0012
0000
0000
0010
0000
0000
0010
0000
0013
0000
0000
0010
0000
0000
0010
0000
,
1000
0000
0000
1000
0000
0000
1000
0000
0100
0000
0000
0100
0000
0000
0100
0000
,
0010
0000
0000
0010
0000
0000
0010
0000
0001
0000
0000
1000
0000
0000
0100
0000
,
0010
0000
0000
0010
0000
0000
0010
0000
0001
0000
0000
0001
0000
0000
0001
0000
,
1000
0000
0000
1000
0000
0000
1000
0000
0001
0000
0000
0010
0000
0000
1000
0000
,
1000
0000
0000
0010
0000
0000
0100
0000
0000
0000
0000
0000
0011
0000
0000
0000
,
0100
0000
0000
1000
0000
0000
0010
0000
0000
0000
1000
0000
0000
1000
0000
0000
,
0100
0000
0000
0001
0000
0000
1010
0000
0000
0000
0000
0000
1001
0000
0000
0000
,
0001
0000
0000
0100
0000
0000
0100
0000
0000
0000
0000
0000
1001
0000
0000
0000
,
0100
1001
0001
0110
,
0001
1010
0101
1000
,
0100
0001
0010
1100
,
0100
0010
1000
0110
,
2001
0100
0001
0100
,
0001
0100
0001
0100
,
0010
0000
0000
0010
0000
0000
0010
0000
0000
0000
0000
0000
0010
0000
0000
0000
,
0100
0000
0000
0100
0000
0000
0100
0000
0000
0000
0000
0000
3100
0000
0000
0100
,
1000
0000
0000
0000
0001
0000
0000
0100
1000
0000
0000
0000
0001
0000
0000
0001
,
1000
0000
0000
0000
0100
0000
0000
0001
1000
0000
0000
0000
0100
0000
0000
0010
,
0100
0000
0000
0000
0001
0000
0000
0010
0100
0000
0000
0000
0001
0000
0000
1000
,
0100
0000
0000
0000
0010
0000
0000
1000
0100
0000
0000
0000
0010
0000
0000
0100
,
1000
0000
0001
0000
0000
0000
0000
0100
1000
0000
0001
0000
0000
0000
0000
0001
,
1000
0000
0100
0000
0000
0000
0000
0001
1000
0000
0100
0000
0000
0000
0000
0010
,
0100
0000
0001
0000
0000
0000
0000
0010
0100
0000
0001
0000
0000
0000
0000
1000
,
0100
0000
0010
0000
0000
0000
0000
1000
0100
0000
0010
0000
0000
0000
0000
0000
,
1000
0000
0100
0000
,
0001
0000
0100
0000
,
1010
0000
0100
0000
0010
0001
0100
0010
,
1001
0000
0100
0000
0010
0001
1000
0100
,
0110
0000
1000
0000
0001
0010
0100
1000
,
1001
0000
0010
0000
0001
1000
0100
0010
,
0001
0010
0100
1000
0100
1000
0001
1000
,
0010
0100
0001
0010
0001
1000
0010
0220
,
0000
0000
0000
0330
;

//---------------dance-single - ----------------
#NOTES:
     dance-single:
     :
     Challenge:
     14:
     0.594309,0.635253,0.171112,0.245974,0.770004,389.000000,373.000000,16.000000,23.000000,0.000000,0.000000,0.594309,0.635253,0.171112,0.245974,0.770004,389.000000,373.000000,16.000000,23.000000,0.000000,0.000000:
0000
0000
0000
0000
,
0000
0000
0000
0000
,
0000
0000
0000
0000
,
0000
0000
0000
0000
,
0102
0000
0000
1000
0000
0000
0013
0000
0000
0000
0001
0000
0000
1000
0000
0000
,
0110
0000
0000
0001
0000
0000
0001
0000
0000
0000
0100
0000
0010
0100
0000
0000
,
0110
0000
0000
1000
0000
0000
1000
0000
0000
0000
0100
0000
0010
0100
0000
0000
,
2100
0000
0000
0001
0000
0000
3010
0000
0000
0000
0001
0000
0100
0010
0000
0000
,
2010
0000
0000
0001
0000
0000
0100
0000
0000
0000
3001
0000
0000
0100
0000
0100
,
0010
0000
1000
0000
0000
0100
0000
0100
0010
0000
0001
0000
0000
1000
0000
1000
,
0100
0000
0001
0000
0000
0100
0000
0100
1000
0000
0010
0000
0000
0001
0000
0001
,
0010
0000
1000
0000
0000
0001
0000
0001
0100
0000
0010
0000
0000
1000
0000
1000
,
0100
0000
0010
0000
0000
0001
0000
0001
0100
0000
0010
0000
0000
1000
0000
1000
,
0100
0000
0010
0000
0000
0001
0000
0001
0100
0000
0010
0000
0000
1000
0000
1000
,
0100
0000
0001
0000
0000
0100
0000
0100
1000
0000
0001
0000
0000
0010
0000
0010
,
0100
0000
1000
0000
0000
0001
0000
0001
0100
0000
1000
0000
0000
0100
0000
0100
,
0001
0000
1000
0000
0000
0010
0000
0010
0100
0000
0001
0000
0000
0010
0000
0010
,
0100
0000
0001
0000
0100
1000
0000
0100
1000
0000
0001
0000
0100
1000
0000
0100
,
1000
0000
0100
0000
0001
1000
0000
0001
1000
0000
0100
0000
1000
0001
0000
1000
,
0001
0000
0010
0000
0001
0100
0000
0001
0100
0000
0010
0000
1000
0100
0000
1000
,
0100
0000
0010
0000
0001
1000
0000
0001
1000
0000
0100
0000
1000
0010
0000
1000
,
0010
0000
0100
0000
0001
0100
0000
0001
0100
0000
1000
0000
0100
1000
0000
0100
,
1000
0000
0010
0000
1000
0010
0000
1000
0010
0000
0001
0000
0010
0001
0000
0010
,
0001
0000
0100
0000
0001
0100
0000
0001
0100
0000
0001
0000
1000
0100
0000
1000
,
0100
0000
0010
0000
0001
0100
0000
0001
0100
0000
0010
0000
1000
0100
0000
1000
,
0200
0000
0000
0010
0000
0000
0310
0000
0000
0000
0000
0000
0000
0001
0000
0000
,
0100
0000
0000
1000
0000
0000
0010
0000
0000
0000
0100
0000
0000
0100
0000
0000
,
0002
0000
0000
0100
0000
0000
1003
0000
0000
0000
0000
0000
0000
0100
0000
0000
,
1000
0000
0000
0100
0000
0000
0001
0000
0000
0000
0010
0000
0000
0010
0000
0000
,
2100
0000
0000
0000
0010
0000
0000
0000
0010
0000
0000
0000
0010
3000
0000
0000
,
0102
0000
0000
0000
0010
0000
0000
0000
0010
0000
0000
0000
0010
0003
0000
0000
,
2001
0000
0000
0000
0100
0000
0000
0000
0010
0000
0000
0000
0001
3000
0000
0000
,
1002
0000
0000
0000
0100
0000
0000
0000
0010
0000
0000
0000
1000
0003
0000
0000
,
2100
0001
0000
0100
0000
0001
0000
3100
,
0010
0001
0000
0100
0010
1000
0000
0001
,
0002
0100
0000
1000
0000
0100
0000
1003
,
0100
0000
0010
0000
0000
0000
0001
0000
0100
0000
0010
0000
0000
0000
1000
0100
,
0000
1000
0100
0000
0010
0000
0001
0100
0000
0001
0100
0000
0010
0000
1000
0100
,
0000
0100
1000
0000
0010
0000
0100
0001
0000
0001
0100
0000
0001
0000
0010
1000
,
0000
1000
0010
0000
0001
0000
0100
1000
0000
1000
0100
0000
0001
0000
0010
1000
,
0000
1000
0010
0000
0001
0000
0100
1000
0000
1000
0100
0000
0001
0000
1000
0001
,
0000
0000
1001
0000
0000
2000
3001
0100
0000
0001
0100
0000
0000
0002
1003
0100
,
0000
1000
0200
0300
0000
0010
0001
1000
0000
0001
2000
3000
0000
0010
1000
0002
,
0003
1000
0001
0000
0000
0200
0301
1000
0000
0001
1000
0000
0000
0100
1000
0001
,
0000
1000
0002
0003
0000
0010
0100
1000
0000
0100
2000
3000
0000
0001
0100
0001
,
0200
0000
0000
0000
0000
0000
0010
0000
0310
0000
1000
0001
0010
0100
2000
0000
,
0000
0000
0000
0000
0000
0000
0001
0000
0001
0000
0000
0001
3000
0000
0001
0000
,
0100
0000
0100
0001
0000
0100
0001
0000
0010
0000
0100
1000
0001
0100
0010
0000
,
1000
0000
0001
1000
0000
0001
1000
0000
0100
0000
0010
0000
0001
1000
0000
0000
,
0100
0000
0100
1000
0000
0100
1000
0000
0010
0000
0100
0001
1000
0100
0010
0000
,
0001
0000
1000
0001
0000
1000
0001
0000
0100
0000
0010
0000
1000
0001
0000
0000
,
0101
0000
0000
0100
0000
0000
0010
0000
1100
0000
0000
0010
0000
0000
0001
0000
,
1001
0000
0000
1000
0000
0000
0010
0000
0110
0000
0000
0100
0000
0000
2002
0000
,
0000
0000
0000
0000
,
3003
0000
0000
0000
;

//---------------dance-single - ----------------
#NOTES:
     dance-single:
     :
     Medium:
     8:
     0.255140,0.375377,0.085556,0.288752,0.000000,167.000000,159.000000,8.000000,27.000000,0.000000,0.000000,0.255140,0.375377,0.085556,0.288752,0.000000,167.000000,159.000000,8.000000,27.000000,0.000000,0.000000:
0000
0000
0000
0000
,
0000
0000
0000
0000
,
0000
0000
0000
0000
,
0000
0000
0000
0000
,
0010
0000
0100
0010
0000
0000
0000
0000
,
1000
0100
0001
0000
,
0001
0100
1000
0000
,
1000
0010
0001
0000
,
0001
0010
1000
0000
,
0100
0000
0100
0010
,
0001
0000
0100
0010
,
1000
0000
0000
0000
0001
1000
0001
0000
,
0100
0000
0000
0000
1000
0001
1000
0000
,
0100
0000
0000
0000
0001
0010
0001
0000
,
0100
0000
0000
0000
1000
0010
1000
0000
,
0100
0000
0000
0000
0001
1000
0001
0000
,
0010
0000
0000
0000
0100
0010
0100
0000
,
2000
3000
0020
0030
,
0200
0300
0002
0003
,
2000
3000
0200
0300
,
0002
0000
0003
0000
0010
0000
0100
1000
,
0002
0003
0200
0300
,
0020
0030
2000
3000
,
0002
0003
0020
0030
,
0200
0300
2000
3000
,
0001
0000
0000
0001
0000
0000
0000
0000
,
1000
0000
0000
1000
0000
0000
0000
0000
,
0010
0000
0000
0010
0000
0000
0000
0000
,
0100
0000
0000
0100
0000
0000
0000
0000
,
1001
0001
0010
1000
,
1001
1000
0010
0001
,
1001
0001
0100
1000
,
1001
1000
0100
0001
,
0020
0100
0130
0000
,
1000
0001
1000
0000
,
0020
0100
0130
0000
,
0001
1000
0001
0000
,
0101
1000
0101
0001
,
1100
0001
1100
0001
,
0010
0100
0010
0000
0001
1000
0001
0000
,
0100
0001
0100
0000
0010
1000
0010
0000
,
2000
3000
0200
0300
,
0020
0030
0002
0003
,
0200
0300
0002
0003
,
2000
3000
0200
0300
,
0020
0000
0000
0000
,
0000
0000
0000
0000
,
0130
0000
1000
0000
0001
1000
0001
0000
,
0100
0000
0010
0000
1000
0001
1000
0000
,
0100
0000
0010
0000
0001
1000
0001
0000
,
0100
0000
0010
0000
1000
0001
1000
0000
,
0100
0000
0010
0000
0001
1000
0001
0000
,
0100
0000
0010
0000
1000
0001
1000
0200
,
0000
0000
0000
0000
,
0300
0000
0000
0000
;

//---------------dance-single - ----------------
#NOTES:
     dance-single:
     :
     Easy:
     5:
     0.203196,0.288752,0.106945,0.278057,0.000000,133.000000,123.000000,10.000000,26.000000,0.000000,0.000000,0.203196,0.288752,0.106945,0.278057,0.000000,133.000000,123.000000,10.000000,26.000000,0.000000,0.000000:
0000
0000
0000
0000
,
0000
0000
0000
0000
,
0000
0000
0000
0000
,
0000
0000
0000
0000
,
0220
0000
0330
0000
,
1000
0100
0001
0000
,
0001
0100
1000
0000
,
1000
0010
0001
0000
,
0001
0010
1000
0000
,
0200
0300
0020
0030
,
0002
0003
0200
0300
,
2000
3000
0020
0030
,
0200
0300
0002
0003
,
2000
3000
2000
3000
,
0002
0003
0002
0003
,
0020
0030
0020
0030
,
0200
0300
0200
0300
,
1000
1000
1000
0000
,
0001
0001
0001
0000
,
0100
0100
0100
0000
,
0010
0010
0010
0000
,
1000
0100
0100
0000
,
0001
0100
0100
0000
,
0001
0010
0010
0000
,
1000
0010
0010
0000
,
2002
0000
0000
0000
,
3003
0000
0000
0000
,
0020
0000
0030
0000
,
0200
0000
0300
0000
,
1000
0100
1000
0100
,
0001
0100
0001
0100
,
1000
0010
1000
0010
,
0001
0010
0001
0010
,
0200
0000
0000
0000
,
0000
0000
0000
0000
,
0020
0000
0000
0000
,
0330
0000
0000
0000
,
0001
0001
0001
0001
,
0001
0001
0001
0001
,
1000
1000
1000
1000
,
1000
1000
1000
1000
,
0110
0000
0110
0000
,
1001
0000
1001
0000
,
0110
0000
0110
0000
,
1001
0000
1001
0000
,
0200
0000
0000
0000
,
0300
0000
0000
0000
,
0010
0010
0010
0010
,
1000
1000
1000
1000
,
0100
0100
0100
0100
,
0001
0001
0001
0001
,
0010
0001
0100
1000
,
0010
0100
0001
0020
,
0000
0000
0000
0000
,
0030
0000
0000
0000
;

//---------------dance-single - ----------------
#NOTES:
     dance-single:
     :
     Beginner:
     3:
     0.135973,0.286078,0.117640,0.106945,0.000000,89.000000,78.000000,11.000000,10.000000,0.000000,0.000000,0.135973,0.286078,0.117640,0.106945,0.000000,89.000000,78.000000,11.000000,10.000000,0.000000,0.000000:
0000
0000
0000
0000
,
0000
0000
0000
0000
,
0000
0000
0000
0000
,
0000
0000
0000
0000
,
2000
0000
3000
0000
,
0001
0000
0001
0000
,
0001
0000
0000
0000
,
0010
0000
0010
0000
,
0010
0000
0000
0000
,
0100
0000
0100
0000
,
0100
0000
0100
0000
,
0100
0000
0100
0000
,
0100
0000
0100
0000
,
0010
0000
0010
0000
,
0010
0000
0010
0000
,
0010
0000
0010
0000
,
0010
0000
0010
0000
,
1000
0000
1000
0000
,
1000
0000
1000
0000
,
0001
0000
0001
0000
,
0001
0000
0001
0000
,
0110
0000
0100
0000
,
0100
0000
0100
0000
,
0010
0000
0010
0000
,
0010
0000
0010
0000
,
2000
0000
0000
0000
,
3000
0000
0000
0000
,
0002
0000
0000
0000
,
0003
0000
0000
0000
,
0110
0000
1000
0000
,
0100
0000
0001
0000
,
0110
0000
0001
0000
,
0100
0000
1000
0000
,
0002
0000
0000
0000
,
0003
0000
0000
0000
,
2000
0000
0000
0000
,
3000
0000
0000
0000
,
0010
0000
0010
0000
,
0100
0000
0100
0000
,
0001
0000
0001
0000
,
1000
0000
1000
0000
,
1001
0000
0110
0000
,
1001
0000
0110
0000
,
1001
0000
0110
0000
,
1001
0000
0110
0000
,
0001
0000
0000
0000
,
1000
0000
0000
0000
,
0200
0000
0300
0000
,
0020
0000
0030
0000
,
0002
0000
0003
0000
,
2000
0000
3000
0000
,
0010
0000
0010
0000
,
0100
0000
0100
0000
,
0020
0000
0030
0000
;
