#VERSION:0.83;
#TITLE:Drifting Away;
#SUBTITLE:;
#ARTIST:Filo Bedo;
#TITLETRANSLIT:;
#SUBTITLETRANSLIT:;
#ARTISTTRANSLIT:;
#GENRE:;
#ORIGIN:;
#CREDIT:;
#BANNER:;
#BACKGROUND:DDR CD-bg.JPG;
#PREVIEWVID:;
#JACKET:Drifting Away-jacket.jpg;
#CDIMAGE:;
#DISCIMAGE:;
#LYRICSPATH:;
#CDTITLE:;
#MUSIC:Drifting Away.ogg;
#OFFSET:-0.920000;
#SAMPLESTART:73.980026;
#SAMPLELENGTH:14.999994;
#SELECTABLE:YES;
#BPMS:0.000=143.000;
#STOPS:;
#DELAYS:;
#WARPS:;
#TIMESIGNATURES:0.000=4=4;
#TICKCOUNTS:0.000=4;
#COMBOS:0.000=1;
#SPEEDS:0.000=1.000=0.000=0;
#SCROLLS:0.000=1.000;
#FAKES:;
#LABELS:0.000=Song Start;
#BGCHANGES:;
#KEYSOUNDS:;
#ATTACKS:
;

//---------------dance-single - ----------------
#NOTEDATA:;
#CHARTNAME:;
#STEPSTYPE:dance-single;
#DESCRIPTION:;
#CHARTSTYLE:;
#DIFFICULTY:Hard;
#METER:12;
#RADARVALUES:0.535982,0.612806,0.072953,0.291813,0.125063,360.000000,353.000000,7.000000,28.000000,0.000000,0.000000,0.000000,0.000000,0.000000,0.535982,0.612806,0.072953,0.291813,0.125063,360.000000,353.000000,7.000000,28.000000,0.000000,0.000000,0.000000,0.000000,0.000000;
#CREDIT:;
#NOTES:
0000
0000
0000
0000
,
0000
0000
0000
0000
,
0000
0000
0000
0000
,
0000
0000
0000
0000
0000
0000
0000
0000
0010
0000
0000
0010
0000
0000
0100
0000
,
0001
1000
0001
1000
0001
0100
0010
0100
,
0001
0100
0010
0100
0001
1000
0100
1000
,
0010
0100
0001
0100
0010
1000
0100
1000
,
0010
0100
0001
0100
0010
0100
0001
1000
,
1001
1000
0100
1000
0010
0100
0001
0100
,
0010
0100
0001
1000
0100
1000
0010
0100
,
0001
1000
0100
1000
0001
0100
0001
1000
,
0100
1000
0001
0100
0001
1000
0100
2000
,
3020
0230
0301
0100
0010
1000
0001
0200
,
0302
0023
0032
2003
0010
3010
0100
0001
,
0100
0010
2000
3200
2300
3010
0100
0001
,
0100
0010
1000
0001
0100
0001
1001
0000
,
1000
0100
1000
0000
0010
0000
0100
0001
0000
0100
0001
0000
0100
0000
0010
0000
,
1000
0100
1000
0000
0010
0000
0100
0001
0000
0100
0001
0000
0100
0000
0010
0000
,
1000
0100
1000
0000
0010
0000
0100
0010
0000
1000
0010
0000
0100
0000
0001
0000
,
1000
0100
1000
0000
0001
0000
0100
0001
2000
0000
0000
3002
0000
0000
0203
0000
,
0301
1000
0010
1000
0100
1000
0100
1000
,
0010
0100
0001
0100
0010
0100
0001
0100
,
0010
1000
0100
1000
0010
0100
0001
0100
,
0010
1000
0100
1000
0001
0100
0001
1000
,
0100
1000
0001
0100
0001
1000
0100
1000
,
0001
0000
0100
0000
0001
0000
1000
0000
0200
0000
0000
0320
0000
0000
0032
0000
,
1003
0010
0100
0001
1000
0010
0100
0001
,
1000
0001
0100
0010
1000
0001
0100
0010
,
1001
0002
0203
0310
,
1000
0000
1000
0000
1000
0000
2000
0000
0000
3001
0000
0000
,
0001
0000
0000
0100
0000
0000
0010
0000
0100
0000
0000
0001
0000
0000
0100
0000
,
0010
0000
0000
0100
0000
0000
0001
0000
0200
0000
0000
0000
0310
0000
0010
0000
,
1000
0000
0000
1000
0000
0000
1000
0000
0001
0000
0000
0001
0000
0000
0001
0000
,
0100
0000
0000
0100
0000
0000
0100
0000
0010
0000
0000
0010
0000
0000
0010
0000
,
0200
0000
0000
0000
,
0020
0000
0000
0000
0330
0000
0000
0100
,
1001
0010
0100
0010
0100
0010
1000
0000
,
0010
0100
0001
0100
0001
0100
0010
0000
,
1000
0010
0100
0010
0100
0010
1000
0000
,
1000
0000
0001
0000
0100
0000
0010
0000
1000
0000
0000
0100
0000
0000
1000
0000
,
0200
0000
0000
0000
,
2300
0000
0000
0000
,
0002
0000
0000
0000
,
3003
0000
0000
0000
1000
0100
0010
0001
,
1001
0001
0100
0010
1000
0010
1000
0100
,
1000
0001
0100
0001
1000
0100
1000
0010
,
0100
0001
0100
0010
1000
0100
1000
0001
,
0100
0001
0100
0010
1000
0100
1000
0010
,
0100
0001
0100
0001
0100
0010
0100
0010
,
0100
0001
1000
0100
1000
0010
1000
0010
,
0100
0010
1000
0010
0100
0010
1000
0100
,
1000
1000
0001
0001
0100
0100
0010
0010
,
0100
0001
0100
0010
0100
0001
0100
0010
,
1000
0100
1000
0010
0100
0001
0010
0001
,
0220
0000
0000
0000
,
0000
0000
0000
0330
,
1001
0000
0000
0000
;

//---------------dance-single - ----------------
#NOTEDATA:;
#CHARTNAME:;
#STEPSTYPE:dance-single;
#DESCRIPTION:;
#CHARTSTYLE:;
#DIFFICULTY:Medium;
#METER:8;
#RADARVALUES:0.324567,0.408538,0.093797,0.239703,0.010422,218.000000,209.000000,9.000000,23.000000,0.000000,0.000000,0.000000,0.000000,0.000000,0.324567,0.408538,0.093797,0.239703,0.010422,218.000000,209.000000,9.000000,23.000000,0.000000,0.000000,0.000000,0.000000,0.000000;
#CREDIT:;
#NOTES:
0000
0000
0000
0000
,
0000
0000
0000
0000
,
0000
0000
0000
0000
,
0000
0000
0000
0000
0000
0000
0000
0000
1000
0000
0000
1000
0000
0000
1000
0000
,
1000
0000
0001
0000
0100
0000
0001
1000
,
0100
0000
1000
0010
0100
0001
0000
0001
,
0001
1000
0010
0100
,
0010
0000
1000
0000
0100
1000
0100
1000
,
0100
1000
0010
0100
,
0001
0000
0100
0000
0010
1000
0010
2000
,
0000
0100
0000
0100
0000
0100
3000
0200
,
0000
0320
0000
0032
0023
0032
1000
2003
,
0000
0000
3010
0100
0000
0001
0000
2000
,
0000
0000
3000
0100
0000
0010
0001
0200
,
0000
0310
1000
0200
0000
0000
0000
0000
,
0000
0300
0000
0000
,
1000
0100
1000
0000
0100
1000
0100
0000
,
0010
0001
0010
0000
0001
0100
0001
0000
,
0100
0010
0100
0000
0010
1000
0010
0000
,
1000
0000
0100
0000
1000
0000
0000
0000
0010
0000
0000
0010
0000
0000
0010
0000
,
0020
0000
0000
0030
,
0200
0000
0000
0300
,
0002
0000
0000
0003
,
2000
0000
0000
3000
,
0001
0100
0001
0000
1000
0100
1000
0000
,
0001
0100
0001
0000
1000
0100
1000
0000
,
0010
0100
0010
0000
1000
0100
1000
0000
,
0001
0100
0001
0000
0010
0001
0010
0000
,
0101
0010
1000
0100
,
1000
0010
0100
0001
,
0100
0010
1000
0100
,
1000
0001
0100
0001
,
1000
0100
0010
0001
,
0010
0100
1000
0100
,
0010
0001
0010
0100
,
2002
0000
0000
3003
,
1001
0100
0100
0010
,
1001
0010
0010
0100
,
1100
0100
1000
0100
,
0011
0001
0100
0001
,
2002
0000
0000
0000
,
3003
0000
0000
0000
,
0220
0000
0000
0000
,
0330
0000
0000
0000
1000
0001
1000
0001
,
0100
0001
0100
0010
,
1000
0000
0100
0000
1000
0000
0001
0100
,
0010
1000
0100
1000
,
0010
0000
0100
0000
0001
0100
0001
0100
,
0010
0001
1000
0100
,
1000
0000
0010
0000
1000
0010
1000
0010
,
0100
0000
0001
0000
0100
0000
0010
1000
,
0100
0000
1000
0000
0010
0100
0010
0100
,
0001
0000
1000
0001
0000
0100
0000
0020
,
0000
0000
0000
2030
0000
0001
0001
0001
,
0002
0000
0000
0000
,
0000
0000
0000
3003
,
0110
0000
0000
0000
;

//---------------dance-single - ----------------
#NOTEDATA:;
#CHARTNAME:;
#STEPSTYPE:dance-single;
#DESCRIPTION:;
#CHARTSTYLE:;
#DIFFICULTY:Easy;
#METER:4;
#RADARVALUES:0.233748,0.291813,0.072953,0.145906,0.000000,157.000000,150.000000,7.000000,14.000000,0.000000,0.000000,0.000000,0.000000,0.000000,0.233748,0.291813,0.072953,0.145906,0.000000,157.000000,150.000000,7.000000,14.000000,0.000000,0.000000,0.000000,0.000000,0.000000;
#CREDIT:;
#NOTES:
// measure 0
0000
0000
0000
0000
,  // measure 1
0000
0000
0000
0000
,  // measure 2
0000
0000
0000
0000
,  // measure 3
0000
0000
0000
0000
,  // measure 4
2000
0000
0000
3000
,  // measure 5
0002
0000
0000
0003
,  // measure 6
0200
0000
0000
0000
,  // measure 7
0000
0000
0000
0300
,  // measure 8
0010
0010
0010
0010
,  // measure 9
1000
1000
1000
1000
,  // measure 10
0001
0001
0001
0001
,  // measure 11
0100
0100
0100
0100
,  // measure 12
0010
0010
1000
1000
,  // measure 13
0001
0001
0100
0100
,  // measure 14
0002
0000
2003
0000
,  // measure 15
3001
0100
0001
0100
,  // measure 16
0010
0010
0010
1000
,  // measure 17
0100
0100
0100
1000
,  // measure 18
0001
0001
0001
0100
,  // measure 19
0010
0010
0020
0000
,  // measure 20
0130
0001
0100
0001
,  // measure 21
1000
0010
1000
0100
,  // measure 22
1000
0010
0100
0001
,  // measure 23
0100
0001
1000
0100
,  // measure 24
1000
0010
0100
0001
,  // measure 25
0100
0010
1000
0001
,  // measure 26
0100
0100
0100
0100
,  // measure 27
0100
0100
0100
0100
,  // measure 28
1001
0000
0100
0000
,  // measure 29
0001
0100
0001
0000
,  // measure 30
1000
0000
0010
0000
,  // measure 31
1000
0010
1000
0000
,  // measure 32
0001
0000
0100
0000
,  // measure 33
0010
1000
0100
1000
,  // measure 34
0020
0000
0000
0000
,  // measure 35
0230
0000
0000
0300
,  // measure 36
1001
0000
0100
0000
,  // measure 37
0001
0000
0100
0000
,  // measure 38
1001
0000
0100
0000
,  // measure 39
1000
0000
0100
0000
,  // measure 40
2002
0000
0000
0000
,  // measure 41
3003
0000
0000
0000
,  // measure 42
0220
0000
0000
0000
,  // measure 43
0330
0000
0000
0000
,  // measure 44
1000
0100
1000
0010
,  // measure 45
0100
0001
0100
0010
,  // measure 46
1000
0100
1000
0001
,  // measure 47
0100
0001
1000
0100
,  // measure 48
1000
0100
0010
0001
,  // measure 49
1000
0100
0010
0001
,  // measure 50
1000
0100
0010
0001
,  // measure 51
1000
0100
0010
0001
,  // measure 52
1000
1000
0001
0001
,  // measure 53
1000
1000
0001
0001
,  // measure 54
0220
0000
0000
0000
,  // measure 55
0000
0000
0000
0330
,  // measure 56
1001
0000
0000
0000
;

//---------------dance-single - ----------------
#NOTEDATA:;
#CHARTNAME:;
#STEPSTYPE:dance-single;
#DESCRIPTION:;
#CHARTSTYLE:;
#DIFFICULTY:Beginner;
#METER:1;
#RADARVALUES:0.107196,0.204269,0.041688,0.145906,0.000000,72.000000,68.000000,4.000000,14.000000,0.000000,0.000000,0.000000,0.000000,0.000000,0.107196,0.204269,0.041688,0.145906,0.000000,72.000000,68.000000,4.000000,14.000000,0.000000,0.000000,0.000000,0.000000,0.000000;
#CREDIT:;
#NOTES:
// measure 0
0000
0000
0000
0000
,  // measure 1
0000
0000
0000
0000
,  // measure 2
0000
0000
0000
0000
,  // measure 3
0000
0000
0000
0000
,  // measure 4
1000
0000
1000
0000
,  // measure 5
0001
0000
0001
0000
,  // measure 6
0200
0000
0000
0000
,  // measure 7
0300
0000
0000
0000
,  // measure 8
0001
0000
0001
0000
,  // measure 9
1000
0000
1000
0000
,  // measure 10
0002
0000
0003
0000
,  // measure 11
2000
0000
3000
0000
,  // measure 12
0010
0000
0010
0000
,  // measure 13
0100
0000
0100
0000
,  // measure 14
0020
0000
0030
0000
,  // measure 15
0200
0000
0300
0000
,  // measure 16
0001
0001
0000
0000
,  // measure 17
1000
1000
0000
0000
,  // measure 18
0010
0010
0000
0000
,  // measure 19
0100
0100
0100
0100
,  // measure 20
0200
0000
0000
0000
,  // measure 21
0300
0000
0000
0000
,  // measure 22
0200
0000
0000
0000
,  // measure 23
0300
0000
0000
0000
,  // measure 24
0020
0000
0000
0000
,  // measure 25
0030
0000
0010
0010
,  // measure 26
0020
0000
0000
0000
,  // measure 27
0030
0000
0000
0000
,  // measure 28
1001
0000
0000
0000
,  // measure 29
0100
0000
0000
0000
,  // measure 30
0001
0000
0000
0000
,  // measure 31
0100
0000
0000
0000
,  // measure 32
0010
0000
0000
0000
,  // measure 33
1000
0000
0000
0000
,  // measure 34
0200
0000
0300
0000
,  // measure 35
0200
0000
0300
0000
,  // measure 36
1001
0000
0000
0000
,  // measure 37
0100
0000
0000
0000
,  // measure 38
0010
0000
0000
0000
,  // measure 39
0100
0000
0000
0000
,  // measure 40
0020
0000
0000
0000
,  // measure 41
0030
0000
0000
0000
,  // measure 42
0200
0000
0000
0000
,  // measure 43
0300
0000
0000
0000
,  // measure 44
1001
0000
0000
0000
,  // measure 45
1000
0000
1000
0000
,  // measure 46
1000
0000
0001
0000
,  // measure 47
0001
0000
0100
0000
,  // measure 48
0010
0000
1000
0000
,  // measure 49
0100
0000
1000
0000
,  // measure 50
0001
0000
0100
0000
,  // measure 51
0001
0000
1000
0000
,  // measure 52
0100
0000
1000
0000
,  // measure 53
0010
0000
0100
0000
,  // measure 54
0200
0000
0000
0000
,  // measure 55
0300
0000
0000
0000
,  // measure 56
1001
0000
0000
0000
;
