#TITLE:Dreamin' in Burnistead Road;
#SUBTITLE:;
#ARTIST:X-SAMPLE;
#TITLETRANSLIT:;
#SUBTITLETRANSLIT:;
#ARTISTTRANSLIT:;
#GENRE:;
#CREDIT:;
#BANNER:;
#BACKGROUND:;
#LYRICSPATH:;
#CDTITLE:;
#MUSIC:X-Sample Dreamin_in_Burnistead_Road.ogg;
#OFFSET:0.000000;
#SAMPLESTART:71.240234;
#SAMPLELENGTH:15.000002;
#SELECTABLE:YES;
#BPMS:0.000000=124.640053
;
#STOPS:
;
#BGCHANGES:;
#KEYSOUNDS:;
#ATTACKS:;

//---------------dance-single - ----------------
#NOTES:
     dance-single:
     :
     Hard:
     11:
     0.465262,0.420008,0.144037,0.024006,0.064016,407.000000,389.000000,18.000000,3.000000,0.000000,0.000000,0.465262,0.420008,0.144037,0.024006,0.064016,407.000000,389.000000,18.000000,3.000000,0.000000,0.000000:
0000
0000
0000
0000
,
0000
0000
0000
0000
,
0000
0000
0000
0000
,
0000
0000
0000
0000
,
1000
0100
0010
0001
0010
0100
1000
0100
,
1000
0010
0100
0001
0100
0010
1000
0010
,
1000
0100
0010
0001
0010
0100
1000
0100
,
1000
0010
0100
0001
0100
0010
1000
0010
,
1000
0100
0010
0001
0010
0100
1000
0100
,
1000
0010
0100
0001
0100
0010
1000
0010
,
1000
0100
0010
0001
0010
0100
1000
0100
,
1000
0010
0100
0001
0100
0010
1000
0100
,
1000
0100
0000
0000
1000
0000
0000
0000
1001
0000
0000
0000
0100
0000
0000
0000
,
0001
0100
0000
0000
0001
0000
0000
0000
1001
0000
0000
0000
0100
0000
0000
0000
,
1000
0100
0000
0000
1000
0000
0000
0000
1001
0000
0000
0000
0100
0000
0000
0000
,
0001
0100
0000
0000
0001
0000
0000
0000
1001
0000
0000
0000
0100
0000
0000
0000
,
1000
0010
0000
0000
0100
0000
0000
0000
1010
0000
0000
0000
0100
0000
0000
0000
,
0001
0100
0000
0000
0010
0000
0000
0000
0101
0000
0000
0000
0010
0000
0000
0000
,
1000
0010
0000
0000
0100
0000
0000
0000
1010
0000
0000
0000
0100
0000
0000
0000
,
0001
0100
0000
0000
0010
0000
0000
0000
0101
0000
0000
0000
0010
0000
0000
0000
,
1000
0100
1000
0100
1000
1000
1000
0000
,
0001
0100
0001
0100
0001
0001
0001
0000
,
1000
0100
0010
0100
1000
1000
1000
0000
,
0001
0010
0100
0010
0001
0001
0001
0000
,
1000
0010
1000
0010
1000
1000
1000
0000
,
0001
0010
0001
0010
0001
0001
0001
0000
,
1000
0010
0100
0010
1000
1000
1000
0000
,
0001
0100
0010
0100
0001
0001
0001
0000
,
1000
0100
0010
0001
0010
0100
1000
0000
,
0001
0010
0100
1000
0100
0010
0001
0000
,
1000
0010
0100
0001
0100
0010
1000
0000
,
0001
0100
0010
1000
0010
0100
0001
0000
,
1000
0001
0100
0001
1000
1000
1000
0000
,
0001
1000
0100
1000
0001
0001
0001
0000
,
1000
0010
1000
0001
0100
0100
0100
0000
,
0001
0010
0001
1000
0010
0010
0010
0000
,
1002
0100
0100
0103
,
1000
0100
0010
0001
0010
0100
1000
0100
,
1000
0010
0100
0001
0100
0010
1000
0010
,
1000
0100
0010
0001
0010
0100
1000
0100
,
1000
0010
0100
0001
0100
0010
1000
0010
,
1000
0100
0010
0001
0010
0100
1000
0100
,
1000
0010
0100
0001
0100
0010
1000
0010
,
1000
0100
0010
0001
0010
0100
1000
0100
,
1000
0010
0100
0001
0100
0010
1000
0100
,
1000
0100
0010
0001
0010
0100
1000
0100
,
1000
0010
0100
0001
0100
0010
1000
0010
,
1000
0100
0010
0001
0010
0100
1000
0100
,
1000
0010
0100
0001
0100
0010
1000
0010
,
1000
0100
0010
0001
0010
0100
1000
0100
,
1000
0010
0100
0001
0100
0010
1000
0010
,
1000
0100
0010
0001
0010
0100
1000
0100
,
1000
0010
0100
0001
0100
0010
1000
0100
,
1000
0100
0000
0000
1000
0000
0000
0000
1001
0000
0000
0000
0100
0000
0000
0000
,
0001
0100
0000
0000
0001
0000
0000
0000
1001
0000
0000
0000
0100
0000
0000
0000
,
1000
0100
0000
0000
1000
0000
0000
0000
1001
0000
0000
0000
0100
0000
0000
0000
,
0001
0100
0000
0000
0001
0000
0000
0000
1001
0000
0000
0000
0100
0000
0000
0000
,
1000
0010
0000
0000
0100
0000
0000
0000
1010
0000
0000
0000
0100
0000
0000
0000
,
0001
0100
0000
0000
0010
0000
0000
0000
0101
0000
0000
0000
0010
0000
0000
0000
,
1000
0010
0000
0000
0100
0000
0000
0000
1010
0000
0000
0000
0100
0000
0000
0000
,
0001
0100
0000
0000
0010
0000
0000
0000
0101
0000
0000
0000
0010
0000
0000
0000
,
2002
0000
0000
3003
;

//---------------dance-single - ----------------
#NOTES:
     dance-single:
     :
     Medium:
     8:
     0.388671,0.345889,0.272070,0.032008,0.000000,340.000000,306.000000,34.000000,4.000000,0.000000,0.000000,0.388671,0.345889,0.272070,0.032008,0.000000,340.000000,306.000000,34.000000,4.000000,0.000000,0.000000:
0000
0000
0000
0000
,
0000
0000
0000
0000
,
0000
0000
0000
0000
,
0000
0000
0000
0000
,
1000
0100
0010
0000
0010
0001
1000
0000
,
1000
0010
0100
0000
0100
0001
1000
0000
,
1000
0100
0010
0000
0010
0001
1000
0000
,
1000
0010
0100
0000
0100
0001
1000
0000
,
1000
0100
0010
0000
0010
0001
1000
0000
,
1000
0010
0100
0000
0100
0001
1000
0000
,
1000
0100
0010
0000
0010
0001
1000
0000
,
1000
0010
0100
0000
0100
0001
1000
0000
,
1001
1000
1001
0100
,
1001
0001
1001
0100
,
1001
1000
1001
0100
,
1001
0001
1001
0100
,
1001
0100
1010
0100
,
1001
0010
0101
0010
,
1001
0100
1010
0100
,
1001
0010
0101
0010
,
1000
0100
1000
0100
1000
0000
1000
0000
,
0001
0100
0001
0100
0001
0000
0001
0000
,
1000
0100
0010
0100
1000
0000
1000
0000
,
0001
0010
0100
0010
0001
0000
0001
0000
,
1000
0010
1000
0010
1000
0000
1000
0000
,
0001
0010
0001
0010
0001
0000
0001
0000
,
1000
0010
0100
0010
1000
0000
1000
0000
,
0001
0100
0010
0100
0001
0000
0001
0000
,
1000
0100
0010
0001
0010
0000
0001
0000
,
0001
0010
0100
1000
0100
0000
0100
0000
,
1000
0010
0100
0001
0100
0000
0100
0000
,
0001
0100
0010
1000
0010
0000
0010
0000
,
1000
0001
0100
0001
1000
0000
1000
0000
,
0001
1000
0100
1000
0001
0000
0001
0000
,
1000
0010
1000
0001
0100
0000
0100
0000
,
0001
0010
0001
1000
0010
0000
0010
0000
,
2002
0000
0000
3003
,
1000
0100
0010
0000
0010
0001
1000
0000
,
1000
0010
0100
0000
0100
0001
1000
0000
,
1000
0100
0010
0000
0010
0001
1000
0000
,
1000
0010
0100
0000
0100
0001
1000
0000
,
1000
0100
0010
0000
0010
0001
1000
0000
,
1000
0010
0100
0000
0100
0001
1000
0000
,
1000
0100
0010
0000
0010
0001
1000
0000
,
1000
0010
0100
0000
0100
0001
1000
0000
,
1000
0100
0010
0000
0010
0001
1000
0000
,
1000
0010
0100
0000
0100
0001
1000
0000
,
1000
0100
0010
0000
0010
0001
1000
0000
,
1000
0010
0100
0000
0100
0001
1000
0000
,
1000
0100
0010
0000
0010
0001
1000
0000
,
1000
0010
0100
0000
0100
0001
1000
0000
,
1000
0100
0010
0000
0010
0001
1000
0000
,
1000
0010
0100
0000
0100
0001
1000
0000
,
1001
1000
1001
0100
,
1001
0001
1001
0100
,
1001
1000
1001
0100
,
1001
0001
1001
0100
,
1001
0100
1010
0100
,
1001
0010
0101
0010
,
1001
0100
1010
0100
,
1001
0010
0101
0010
,
2002
0000
0000
3003
;

//---------------dance-single - ----------------
#NOTES:
     dance-single:
     :
     Easy:
     6:
     0.306364,0.296476,0.336086,0.032008,0.000000,268.000000,226.000000,42.000000,4.000000,0.000000,0.000000,0.306364,0.296476,0.336086,0.032008,0.000000,268.000000,226.000000,42.000000,4.000000,0.000000,0.000000:
0000
0000
0000
0000
,
0000
0000
0000
0000
,
0000
0000
0000
0000
,
0000
0000
0000
0000
,
1000
0100
1100
0100
,
1000
0001
0101
0001
,
1000
0100
1100
0100
,
1000
0001
0101
0100
,
0001
0100
0110
0010
,
1000
0100
1001
0100
,
1000
0010
0101
0010
,
1000
0001
0101
0001
,
1000
1000
1001
0100
,
0001
0001
1001
0100
,
1000
1000
1001
0100
,
0001
0001
1001
0100
,
1000
0100
1010
0100
,
0001
0010
0101
0010
,
1000
0100
1010
0100
,
0001
0010
0101
0010
,
1000
1000
1000
1000
,
0001
0001
0001
0001
,
1000
0010
1000
1000
,
0001
0100
0001
0001
,
1000
1000
1000
1000
,
0001
0001
0001
0001
,
1000
0100
1000
1000
,
0001
0010
0001
0001
,
1000
0010
0010
0001
,
0001
0100
0100
0100
,
1000
0100
0100
0100
,
0001
0010
0010
0010
,
1000
0100
1000
1000
,
0001
0100
0001
0001
,
1000
1000
0100
0100
,
0001
0001
0010
0010
,
2002
0000
0000
3003
,
1000
0100
1100
0100
,
1000
0001
0101
0001
,
1000
0100
1100
0100
,
1000
0001
0101
0100
,
0001
0100
0110
0010
,
1000
0100
1001
0100
,
1000
0010
0101
0010
,
1000
0001
0101
0001
,
1000
1000
1001
0100
,
0001
0001
1001
0100
,
1000
1000
1001
0100
,
0001
0001
1001
0100
,
1000
0100
1010
0100
,
0001
0010
0101
0010
,
1000
0100
1010
0100
,
0001
0010
0101
0010
,
1001
1000
1000
0100
,
1001
0001
0001
0100
,
1001
1000
1000
0100
,
1001
0001
0001
0100
,
1001
0100
1000
0100
,
1001
0010
0001
0010
,
1001
0100
1000
0100
,
1001
0010
0001
0010
,
2002
0000
0000
3003
;

//---------------dance-single - ----------------
#NOTES:
     dance-single:
     :
     Beginner:
     3:
     0.168043,0.170844,0.008002,0.000000,0.000000,147.000000,146.000000,1.000000,0.000000,0.000000,0.000000,0.168043,0.170844,0.008002,0.000000,0.000000,147.000000,146.000000,1.000000,0.000000,0.000000,0.000000:
// measure 0
0000
0000
0000
0000
,  // measure 1
0000
0000
0000
0000
,  // measure 2
0000
0000
0000
0000
,  // measure 3
0000
0000
0000
0000
,  // measure 4
1000
1000
1000
0000
,  // measure 5
0001
0001
0001
0000
,  // measure 6
1000
1000
1000
0000
,  // measure 7
0001
0001
0001
0000
,  // measure 8
0100
0100
0100
0000
,  // measure 9
0010
0010
0010
0000
,  // measure 10
0100
0100
0100
0000
,  // measure 11
0010
0010
0010
0000
,  // measure 12
1000
1000
1000
0000
,  // measure 13
0001
0001
0001
0000
,  // measure 14
1000
1000
1000
0000
,  // measure 15
0001
0001
0001
0000
,  // measure 16
1000
0000
1000
0000
,  // measure 17
0001
0000
0001
0000
,  // measure 18
1000
0000
1000
0000
,  // measure 19
0001
0000
0001
0000
,  // measure 20
1000
1000
1000
0000
,  // measure 21
0001
0001
0001
0000
,  // measure 22
1000
0000
1000
0000
,  // measure 23
0001
0000
0001
0000
,  // measure 24
1000
1000
1000
0000
,  // measure 25
0001
0001
0001
0000
,  // measure 26
1000
0000
1000
0000
,  // measure 27
0001
0000
0001
0000
,  // measure 28
1000
0000
0010
0000
,  // measure 29
0001
0000
0100
0000
,  // measure 30
1000
0000
0100
0000
,  // measure 31
0001
0000
0010
0000
,  // measure 32
1000
0000
1000
0000
,  // measure 33
0001
0000
0001
0000
,  // measure 34
1000
0000
0100
0000
,  // measure 35
0001
0000
0010
0000
,  // measure 36
0100
0000
0000
0000
,  // measure 37
1000
1000
1000
0000
,  // measure 38
0001
0001
0001
0000
,  // measure 39
1000
1000
1000
0000
,  // measure 40
0001
0001
0001
0000
,  // measure 41
0100
0100
0100
0000
,  // measure 42
0010
0010
0010
0000
,  // measure 43
0100
0100
0100
0000
,  // measure 44
0010
0010
0010
0000
,  // measure 45
1000
1000
1000
0000
,  // measure 46
0001
0001
0001
0000
,  // measure 47
1000
1000
1000
0000
,  // measure 48
0001
0001
0001
0000
,  // measure 49
0100
0100
0100
0000
,  // measure 50
0010
0010
0010
0000
,  // measure 51
0100
0100
0100
0000
,  // measure 52
0010
0010
0010
0000
,  // measure 53
1000
0000
1000
0000
,  // measure 54
0001
0000
0001
0000
,  // measure 55
1000
0000
1000
0000
,  // measure 56
0001
0000
0001
0000
,  // measure 57
0100
0000
0100
0000
,  // measure 58
0010
0000
0010
0000
,  // measure 59
0100
0000
0100
0000
,  // measure 60
0010
0000
0010
0000
,  // measure 61
1001
0000
0000
0000
;
