#TITLE:Dreamin' Of You;
#SUBTITLE:;
#ARTIST:SARINA PARIS;
#TITLETRANSLIT:;
#SUBTITLETRANSLIT:;
#ARTISTTRANSLIT:;
#GENRE:;
#CREDIT:;
#BANNER:Dreamin' Of You.png;
#BACKGROUND:Dreamin' Of You-bg.png;
#LYRICSPATH:;
#CDTITLE:;
#MUSIC:Dreamin' Of You.mp3;
#OFFSET:-0.200000;
#SAMPLESTART:51.814999;
#SAMPLELENGTH:12.000000;
#SELECTABLE:YES;
#BPMS:0.000000=132.000000
;
#STOPS:
;
#BGCHANGES:164.000=Dreamin' Of You-bg.jpg=1.000=0=0=1=====,
99999=-nosongbg-=1.000=0=0=0 // don't automatically add -songbackground-
;
#KEYSOUNDS:;
#ATTACKS:;

//---------------dance-single - ----------------
#NOTES:
     dance-single:
     :
     Easy:
     5:
     0.240039,0.269107,0.039381,0.052509,0.000000,128.000000,125.000000,3.000000,4.000000,0.000000,0.000000,0.240039,0.269107,0.039381,0.052509,0.000000,128.000000,125.000000,3.000000,4.000000,0.000000,0.000000:
0000
0000
0000
0000
,
0000
0000
0000
0000
,
0000
0000
0000
0000
,
0000
0000
0000
0000
,
1000
0000
0001
0000
,
1000
0000
0001
0000
,
0010
0000
0100
0000
,
0010
0000
0100
0000
,
2002
0000
0000
3003
,
1000
0100
1000
0100
,
0010
0100
0010
0100
,
0001
0100
0001
0100
,
0100
0100
0010
0010
,
1000
0100
0001
0010
,
0001
0100
1000
0010
,
0001
0010
1000
0100
,
0010
1000
0100
0001
,
0001
0010
1000
0100
,
1000
0010
0001
0100
,
1000
0010
0001
0100
,
0001
0010
1000
0100
,
0010
0010
0010
0010
,
1000
0100
0010
0001
,
0100
0100
0100
0100
,
0001
0010
1000
0100
,
1000
0100
1000
0010
,
0100
0001
0010
0100
,
0010
1000
0001
0100
,
2002
0000
0000
3003
,
0001
0010
0100
0000
,
0010
0100
0001
0000
,
0100
1000
0010
0000
,
0001
0010
0100
0100
,
1000
0010
0100
0000
,
0010
0100
1000
0000
,
0100
0001
0010
0000
,
1000
0010
0100
0100
,
0001
0001
0001
0000
,
0100
0100
0100
0000
,
1000
1000
1000
0000
,
0010
0010
0010
0000
,
1001
0000
0000
0000
;

//---------------dance-single - ----------------
#NOTES:
     dance-single:
     :
     Medium:
     8:
     0.316927,0.376749,0.052509,0.144399,0.000000,169.000000,165.000000,4.000000,11.000000,0.000000,0.000000,0.316927,0.376749,0.052509,0.144399,0.000000,169.000000,165.000000,4.000000,11.000000,0.000000,0.000000:
// measure 0
0000
0000
0000
0000
,  // measure 1
0000
0000
0000
0000
,  // measure 2
0000
0000
0000
0000
,  // measure 3
0000
0000
0000
0000
,  // measure 4
0010
1000
0100
0010
,  // measure 5
0001
0100
0001
0010
,  // measure 6
0001
0100
1000
0000
0100
0001
0000
0010
,  // measure 7
0010
0001
1000
0001
,  // measure 8
2002
0000
0000
3003
,  // measure 9
1000
0100
0010
0001
,  // measure 10
0100
0000
0001
0000
0010
0100
0010
0000
,  // measure 11
0001
0100
0010
1000
,  // measure 12
0100
0100
0100
1001
,  // measure 13
0001
0001
1000
1000
,  // measure 14
0100
1000
0010
0100
,  // measure 15
0001
0001
0100
0000
1000
0100
1000
0000
,  // measure 16
0020
0130
0002
1003
,  // measure 17
1000
0010
0100
0001
,  // measure 18
0020
0130
2000
3001
,  // measure 19
1000
0100
1000
0000
0010
0100
0010
0000
,  // measure 20
0001
1000
0010
0100
0001
1000
0000
0000
,  // measure 21
0010
1000
0020
0230
,  // measure 22
0301
0001
0010
0000
0100
0000
1000
0000
,  // measure 23
0010
0100
0001
0000
2000
0100
0000
0010
,  // measure 24
0000
3001
0001
0000
1000
0000
0010
0000
,  // measure 25
1000
0100
0010
0100
,  // measure 26
1000
0010
0100
0010
,  // measure 27
1000
0001
0100
0000
0010
0100
0001
0000
,  // measure 28
2002
0000
0000
3003
,  // measure 29
1000
1000
1000
0100
,  // measure 30
0001
0001
0001
0100
,  // measure 31
1000
0100
0001
0100
,  // measure 32
1000
0100
0001
0100
,  // measure 33
1000
1000
1000
0010
,  // measure 34
0001
0001
0001
0010
,  // measure 35
1000
0010
0001
0010
,  // measure 36
1000
0010
0001
0010
,  // measure 37
1000
0000
0100
0000
1000
0010
1000
0100
,  // measure 38
1000
0000
0001
0000
0010
0100
0010
0001
,  // measure 39
1000
0000
0010
0000
0100
0010
1000
0010
,  // measure 40
0100
0000
0001
0000
0010
0100
1000
0100
,  // measure 41
1001
0000
0000
0000
;

//---------------dance-single - ----------------
#NOTES:
     dance-single:
     :
     Hard:
     11:
     0.427570,0.457481,0.236289,0.065636,0.000000,228.000000,210.000000,18.000000,5.000000,0.000000,0.000000,0.427570,0.457481,0.236289,0.065636,0.000000,228.000000,210.000000,18.000000,5.000000,0.000000,0.000000:
0000
0000
0000
0000
,
0000
0000
0000
0000
,
0000
0000
0000
0000
,
0000
0000
0000
0000
,
1000
0001
1000
0001
0100
0010
0100
0010
,
1000
0100
0001
0100
1000
0100
0001
0100
,
1000
1000
0001
0001
,
1000
0001
1000
0001
,
2002
0000
0000
3003
,
1001
0000
1000
0000
0100
1000
0010
0100
,
1001
0000
0010
0000
0100
1000
0010
1000
,
1001
0000
0010
0000
0001
0100
0001
0010
,
1001
1000
0110
0101
,
1000
1000
1000
0000
0100
0000
0010
0000
,
0001
0001
0001
0000
1000
0000
0100
0000
,
1000
1000
1000
0000
0001
0100
0000
1000
,
0001
0001
0001
0000
0100
0000
1001
0000
,
1000
1000
1000
0000
0010
0000
0100
0000
,
0001
0001
0001
0000
0000
0001
0100
0010
,
1000
1000
1000
0000
0001
0010
0000
0100
,
0001
0001
0001
0100
0001
0001
0000
0000
,
1000
0100
1000
0100
1000
0010
0100
0001
,
0010
0100
1000
0100
1000
0010
0100
0001
,
0100
0010
0100
0010
1000
0010
0100
0001
,
0100
0010
1000
0100
0010
0001
0100
0010
,
1000
0100
0010
0100
1000
0100
1000
0010
,
0100
0001
0010
0100
1000
0010
0100
0001
,
1000
0100
1000
0001
0010
0100
1000
0100
,
0010
0002
2000
0000
0000
0000
3003
0000
,
1001
0000
0100
0000
0010
0001
0010
0000
,
1001
0000
1000
0000
0100
0010
0100
0000
,
1001
0000
0010
0000
1000
0100
1000
0000
,
1001
0000
0100
0000
0020
0000
0000
0030
,
1001
0000
0010
0000
0001
0100
0010
0000
,
1001
0000
0100
0000
0010
0001
0010
0000
,
1001
0000
0010
0000
0100
1000
0100
0000
,
1001
0000
1001
0000
1000
0001
1000
0001
,
0100
0000
0100
0000
1000
1000
1000
0000
,
0010
0000
0010
0000
0001
0001
0001
0000
,
0100
0000
0100
0000
1000
1000
1000
0000
,
0010
0000
0010
0000
0001
0001
0001
0000
,
1001
0000
0000
0000
;

//---------------dance-single - ----------------
#NOTES:
     dance-single:
     :
     Beginner:
     2:
     0.138773,0.161464,0.013127,0.026254,0.000000,74.000000,73.000000,1.000000,2.000000,0.000000,0.000000,0.138773,0.161464,0.013127,0.026254,0.000000,74.000000,73.000000,1.000000,2.000000,0.000000,0.000000:
0000
0000
0000
0000
,
0000
0000
0000
0000
,
0000
0000
0000
0000
,
0000
0000
0000
0000
,
0001
0000
0001
0000
,
1000
0000
1000
0000
,
0001
0000
0100
0000
,
0010
0000
1000
0000
,
0200
0000
0300
0000
,
0100
0000
1000
0000
,
0010
0000
0010
0000
,
0001
0000
0001
0000
,
0100
0000
0010
0000
,
1000
0000
0001
0000
,
0001
0000
1000
0000
,
0001
0000
1000
0000
,
0010
0000
0100
0000
,
0001
0000
1000
0000
,
1000
0000
0001
0000
,
1000
0000
1000
0000
,
0001
0000
0001
0000
,
0010
0000
1000
0000
,
1000
0000
0010
0000
,
0000
0100
0000
0100
,
0000
0010
0000
0010
,
0010
0000
1000
0000
,
0100
0000
0010
0000
,
0000
1000
0000
0001
,
0002
0000
0003
0000
,
0001
0000
0100
0000
,
0010
0000
0001
0000
,
0100
0000
0010
0000
,
0001
0000
0100
0000
,
1000
0000
0100
0000
,
0010
0000
1000
0000
,
0100
0000
0010
0000
,
1000
0000
0100
0000
,
0001
0000
0001
0000
,
0100
0000
0100
0000
,
1000
0000
1000
0000
,
0001
0000
0001
0000
,
1001
0000
0000
0000
;
