#TITLE:Dragon Flyer;
#SUBTITLE:;
#ARTIST:NAOKI underground;
#TITLETRANSLIT:;
#SUBTITLETRANSLIT:;
#ARTISTTRANSLIT:;
#GENRE:;
#CREDIT:;
#BANNER:Dragon Flyer-bn.png;
#BACKGROUND:Dragon Flyer-bg.png;
#LYRICSPATH:;
#CDTITLE:;
#MUSIC:Dragon Flyer.ogg;
#OFFSET:-2.004000;
#SAMPLESTART:38.889000;
#SAMPLELENGTH:12.000000;
#SELECTABLE:YES;
#BPMS:0.000000=130.000000
;
#STOPS:
;
#BGCHANGES:;
#KEYSOUNDS:;
#ATTACKS:;

//---------------dance-single - ----------------
#NOTES:
     dance-single:
     :
     Hard:
     12:
     0.396290,0.444130,0.228003,0.247003,0.275503,292.000000,268.000000,24.000000,26.000000,0.000000,0.000000,0.396290,0.444130,0.228003,0.247003,0.275503,292.000000,268.000000,24.000000,26.000000,0.000000,0.000000:
// measure 0
0000
0000
0000
0000
,  // measure 1
0000
0000
0000
0000
,  // measure 2
0000
0000
0000
0000
,  // measure 3
0000
0000
0000
0000
,  // measure 4
0000
0000
0000
0000
,  // measure 5
2000
0000
3000
0000
,  // measure 6
0002
0000
0003
0000
,  // measure 7
0020
0000
0030
0000
,  // measure 8
0200
0000
0300
0000
1000
0002
2000
3003
,  // measure 9
0001
0000
0100
0000
0010
0000
0000
1000
0000
1000
0000
0000
0010
0000
0100
0000
,  // measure 10
0001
0000
0010
0000
0100
0000
0000
1000
0000
0001
0000
0000
1000
0000
0100
0000
,  // measure 11
1000
0000
0001
0000
0010
0000
0000
0100
0000
0100
0000
0000
0010
0000
0001
0000
,  // measure 12
1000
0000
0010
0000
0100
0000
0000
0010
0000
1000
0000
0000
0010
0000
0100
0000
,  // measure 13
0102
0013
2100
3010
,  // measure 14
1002
0000
0103
0000
1000
0000
0010
0100
,  // measure 15
0102
1000
0010
1003
,  // measure 16
2010
0000
0000
0000
0001
0000
0000
0000
0100
0000
0000
0000
3001
0000
0000
1000
,  // measure 17
0001
0000
0000
0000
0010
0000
0000
0000
0100
0000
0000
1000
0001
0000
1000
0000
,  // measure 18
1010
1000
0011
0001
,  // measure 19
0110
0000
1001
0000
0100
0010
0110
0000
,  // measure 20
1001
0000
0000
0000
0001
0000
0000
0000
1000
0100
0000
0000
1000
0000
0001
0000
,  // measure 21
1000
0000
0000
0000
0010
0000
0000
0000
0100
0000
0000
0001
0000
0000
0010
0000
,  // measure 22
0000
0000
0001
0000
0000
1000
0100
1000
0000
0000
0001
0000
0000
1000
0010
1000
,  // measure 23
0010
0000
0000
0000
0100
0001
0000
0001
0010
0000
0000
0001
0000
0000
1000
0000
,  // measure 24
0000
0000
0100
0000
0000
0001
0000
0000
0000
0010
0000
0000
1000
0000
0100
0000
,  // measure 25
1000
0000
0000
0000
0010
0000
0000
0000
0100
0000
0000
0100
0000
0000
0010
0000
,  // measure 26
0000
0000
1000
0000
0000
0001
0100
0001
0000
0000
1000
0000
0000
0001
0010
0001
,  // measure 27
0010
0000
0000
0000
0100
1000
0000
1000
0010
0000
0000
0100
0000
0000
0001
0000
,  // measure 28
1000
0000
1100
0000
0001
0010
0100
0000
,  // measure 29
0001
0000
0000
0000
0101
0000
0000
0000
1000
0010
0000
0000
0100
0000
0000
0000
,  // measure 30
1000
0000
0000
0000
0110
0000
0000
0000
0001
0000
0000
0010
0000
0000
0100
0000
,  // measure 31
1000
0001
0110
1000
,  // measure 32
1010
0000
0001
0000
0100
1000
0100
0000
,  // measure 33
0001
0000
0000
0000
1000
0000
0000
0000
0100
0001
0000
0000
0100
0000
0000
0000
,  // measure 34
0011
0000
0000
0000
1000
0000
0000
0000
0100
0000
0000
0010
0000
0000
0001
0000
,  // measure 35
0100
0010
1000
0100
0002
0000
0003
0000
,  // measure 36
1100
0000
0000
0100
0000
0000
0001
0000
0000
0100
0000
0000
1000
0000
0010
0000
,  // measure 37
0001
0000
0000
0010
0000
0000
1000
0000
0000
1000
0000
0000
0001
0000
0100
0000
,  // measure 38
1000
0000
0000
0100
0000
0000
0001
0000
0000
0010
0000
0000
1000
0000
0010
0000
,  // measure 39
0001
0000
0000
0100
0000
0000
0010
0000
0000
0010
0000
0000
1000
0000
0001
0000
,  // measure 40
0010
0000
0000
0100
0000
0000
1000
0000
0001
1000
0000
0000
1000
0000
0001
0000
,  // measure 41
0100
0000
0000
0010
0000
0000
1000
0000
0001
0010
0000
0000
0001
0000
0100
0000
,  // measure 42
0010
0000
0000
1000
0000
0000
0001
0000
0100
0010
0000
0000
0010
0000
1000
0000
,  // measure 43
0001
0000
0000
1000
0000
0000
0100
0000
0010
0001
0000
0000
0010
0000
0100
0000
,  // measure 44
2001
0000
0000
0000
0010
0000
0000
0000
0100
0000
0000
0000
3001
0000
1000
0001
,  // measure 45
2000
0000
3020
0000
0130
0000
0001
0010
,  // measure 46
0012
0000
1000
0000
0100
0000
0013
0001
,  // measure 47
1000
0100
1000
0000
0001
0000
0000
0010
0100
0000
0100
0000
1000
0001
1000
0000
,  // measure 48
0020
0000
0000
0000
0100
0000
0000
0000
0001
0000
0000
0000
0130
0000
0010
0100
,  // measure 49
0020
0000
2030
0000
3002
0000
0203
1000
,  // measure 50
1300
0000
0000
0100
0000
0000
0001
0000
1000
0000
0000
0000
0100
0000
0000
0000
,  // measure 51
0012
1003
2010
3001
,  // measure 52
0210
0000
0000
0000
0310
0000
0000
0000
0110
0000
0000
1000
0000
0000
0001
0000
,  // measure 53
0010
0000
0000
0001
0000
0000
1000
0000
0010
0000
0000
0100
0000
0000
0020
0000
,  // measure 54
0002
0000
0000
0000
,  // measure 55
0033
0000
0000
0000
;

//---------------dance-single - ----------------
#NOTES:
     dance-single:
     :
     Medium:
     9:
     0.336575,0.365754,0.123501,0.066501,0.009500,248.000000,235.000000,13.000000,7.000000,0.000000,0.000000,0.336575,0.365754,0.123501,0.066501,0.009500,248.000000,235.000000,13.000000,7.000000,0.000000,0.000000:
0000
0000
0000
0000
,
0000
0000
0000
0000
,
0000
0000
0000
0000
,
0000
0000
0000
0000
,
0000
0000
0000
0000
,
1000
1000
1000
0000
0000
0000
0000
0000
,
0001
0001
0001
0000
0000
0000
0000
0000
,
0100
0100
0100
0000
0000
0000
0000
0000
,
0010
0010
0010
0000
0000
0000
0000
0000
,
1000
0000
0001
0000
0100
0001
0100
0000
,
0010
0000
1000
0000
0100
1000
0100
0000
,
1000
0000
0010
0000
0100
0001
0100
0000
,
0010
0000
1000
0000
0001
0100
0001
0000
,
1000
0000
0100
0000
1000
0100
1000
0000
,
0001
0000
0010
0000
0001
0010
0001
0000
,
1000
0000
0010
0000
0100
0010
0100
0000
,
0001
0000
0100
0000
0010
0100
0010
0000
,
1000
0000
0100
0000
0010
0001
0010
0000
,
0001
0000
0010
0000
0100
1000
0100
1000
,
0200
0000
0000
0300
,
1000
1000
1000
0000
0001
0000
0001
0000
,
0100
0100
0100
0000
0010
0000
0010
0000
,
0010
0010
0010
0000
0100
0000
0100
0000
,
0001
0001
0001
0000
1000
0000
1000
0000
,
1000
0010
1000
0000
0001
0100
0001
0000
,
0100
0010
0100
0000
0010
1000
0010
0000
,
1000
0100
1000
0000
0001
0100
0001
0000
,
1000
0100
1000
0000
0001
0100
0001
0000
,
2000
0000
0010
0010
0010
0000
3010
0000
,
0002
0000
0100
0100
0100
0000
0103
0000
,
2000
0000
0001
0001
0001
0000
3001
0000
,
0002
0000
1000
1000
1000
0000
1003
0000
,
0010
0000
0100
0010
0100
0010
0100
0000
,
0001
0000
1000
0001
1000
0001
1000
0000
,
0100
0000
0010
0100
1000
0100
0010
0000
,
0100
0000
1000
0100
0010
0100
1000
0000
,
1001
0000
0010
0100
0000
0001
0000
0100
,
0000
0010
0000
1000
0000
0100
0000
1000
,
0000
0001
0000
0100
0000
0010
0000
1000
,
0000
0100
0000
0010
0000
0001
0000
0100
,
0010
0100
0000
0010
0000
1000
0000
0001
,
0000
0100
0000
0001
0000
1000
0000
0100
,
0000
1000
0000
0010
0000
0100
0000
0001
,
0000
1000
0000
0010
0000
1000
0000
0100
,
1001
0000
0100
0000
0001
0100
0001
0000
,
1001
0000
0010
0000
1000
0010
1000
0000
,
1001
0000
0100
0000
1000
0100
1000
0000
,
1001
0000
0100
0000
0010
0100
0001
0000
,
1001
0000
1000
0000
0001
0010
0100
0000
,
1001
0000
0001
0000
1000
0100
0010
0000
,
1001
1000
0100
0010
,
1001
0100
1001
0100
,
1001
0100
1001
0100
,
0100
0000
0000
0100
0000
0000
0100
0000
0010
0000
0000
0010
0000
0000
0010
0000
,
2002
0000
0000
0000
,
3003
0000
0000
0000
;

//---------------dance-single - ----------------
#NOTES:
     dance-single:
     :
     Easy:
     4:
     0.234788,0.261253,0.057001,0.190002,0.000000,173.000000,167.000000,6.000000,20.000000,0.000000,0.000000,0.234788,0.261253,0.057001,0.190002,0.000000,173.000000,167.000000,6.000000,20.000000,0.000000,0.000000:
0000
0000
0000
0000
,
0000
0000
0000
0000
,
0000
0000
0000
0000
,
0000
0000
0000
0000
,
0000
0000
0000
0000
,
2000
0000
3000
0000
,
0002
0000
0003
0000
,
0200
0000
0300
0000
,
0020
0000
0030
0100
,
1001
0100
0010
0100
,
0001
1000
0010
1000
,
0100
1000
0010
0100
,
0001
0100
0001
0001
,
1000
1000
0010
0100
,
0002
0003
2000
3000
,
1001
0100
0100
0010
,
0100
0001
0100
0010
,
1000
1000
0001
0001
,
0200
0000
0000
0300
,
0020
0000
0000
0030
,
1001
0100
0001
0100
,
0010
1000
0100
1000
,
0001
0100
0100
0100
,
0002
0003
2000
3000
,
0100
1000
0010
0100
,
0001
0100
0010
1000
,
0200
0300
2000
3000
,
1000
0001
0010
0100
,
1000
1001
0100
0001
,
0100
0010
1000
0010
,
0200
0300
0002
0003
,
1000
0001
1000
0010
,
0100
0000
0100
0010
,
0100
0001
0100
0010
,
1000
1000
1000
0100
,
2000
3000
0002
0003
,
1001
0100
0100
0100
,
0100
0100
0100
0100
,
0010
0010
0010
0010
,
0010
0010
0010
0010
,
1000
1000
1000
1000
,
0001
0001
0001
0001
,
1000
1000
0001
0001
,
1000
0001
1000
0001
,
0100
0010
0100
0001
,
1000
0010
0100
0001
,
1000
0100
1000
1000
,
0001
0100
0010
0010
,
1000
0100
1000
0010
,
0100
0001
0100
0010
,
1000
1000
0001
0100
,
0001
0001
0100
0010
,
1000
0100
1000
0001
,
2000
3000
0002
0003
,
2002
0000
0000
0000
,
3003
0000
0000
0000
;

//---------------dance-single - ----------------
#NOTES:
     dance-single:
     :
     Beginner:
     3:
     0.137073,0.182877,0.028500,0.047501,0.000000,101.000000,98.000000,3.000000,5.000000,0.000000,0.000000,0.137073,0.182877,0.028500,0.047501,0.000000,101.000000,98.000000,3.000000,5.000000,0.000000,0.000000:
0000
0000
0000
0000
,
0000
0000
0000
0000
,
0000
0000
0000
0000
,
0000
0000
0000
0000
,
0000
0000
0000
0000
,
2000
0000
3000
0000
,
0002
0000
0003
0000
,
0200
0000
0300
0000
,
0020
0000
0030
0000
,
1001
0000
0010
0000
,
0001
0000
0010
0000
,
0100
0000
0010
0000
,
0001
0000
0001
0000
,
1000
0000
0010
0000
,
0001
0000
1000
0000
,
1001
0000
0100
0000
,
0100
0000
0100
0000
,
1000
1000
0000
0000
,
0100
0000
0000
0000
,
0010
0000
0000
0000
,
1001
0000
0001
0000
,
0010
0000
0100
0000
,
0001
0000
0100
0000
,
0001
0000
1000
0000
,
0100
0000
0010
0000
,
0001
0000
0010
0000
,
0100
0000
1000
0000
,
1000
0000
0010
0000
,
1000
0000
0100
0000
,
0100
0000
1000
0000
,
0100
0000
0001
0000
,
1000
0000
1000
0000
,
0100
0000
0100
0000
,
0100
0000
0100
0000
,
1000
1000
1000
0000
,
1000
0000
0001
0000
,
0100
0100
0100
0100
,
0100
0000
0000
0000
,
0010
0010
0010
0010
,
0010
0000
0000
0000
,
1000
1000
1000
0000
,
0001
0001
0001
0000
,
1000
0000
0001
0000
,
1000
0000
1000
0000
,
0100
0000
0100
0000
,
1000
0000
0100
0000
,
1000
0000
1000
0000
,
0001
0000
0010
0000
,
1000
0000
1000
0000
,
0100
0000
0100
0000
,
1000
0000
0001
0000
,
0001
0000
0100
0000
,
1000
0000
1000
0000
,
1000
0000
1000
0000
,
2000
0000
0000
0000
,
3000
0000
0000
0000
;
