#TITLE:Don't stop till you get enough;
#SUBTITLE:;
#ARTIST:Housemaster;
#TITLETRANSLIT:;
#SUBTITLETRANSLIT:;
#ARTISTTRANSLIT:;
#GENRE:;
#CREDIT:;
#BANNER:;
#BACKGROUND:;
#LYRICSPATH:;
#CDTITLE:;
#MUSIC:01_-_Housemaster_-_Dont_Stop_Till_You_Get_Enough.ogg;
#OFFSET:0.000000;
#SAMPLESTART:45.739964;
#SAMPLELENGTH:12.000000;
#SELECTABLE:YES;
#BPMS:0.000000=125.900146
;
#STOPS:
;
#BGCHANGES:;
#KEYSOUNDS:;
#ATTACKS:;

//---------------dance-single - ----------------
#NOTES:
     dance-single:
     :
     Hard:
     12:
     0.515138,0.517071,0.227403,0.043315,0.167845,333.000000,312.000000,21.000000,4.000000,0.000000,0.000000,0.515138,0.517071,0.227403,0.043315,0.167845,333.000000,312.000000,21.000000,4.000000,0.000000,0.000000:
0000
0000
0000
0000
,
0000
0000
0000
0000
,
0000
0000
0000
0000
,
0000
0000
0000
0000
,
1000
0000
0000
1000
0000
0000
2000
0000
0000
0000
0000
0000
3000
0000
0000
0000
,
0010
0000
0000
0010
0000
0000
0020
0000
0000
0000
0000
0000
0030
0000
0000
0000
,
0100
0000
0000
0100
0000
0000
0200
0000
0000
0000
0000
0000
0300
0000
0000
0000
,
0001
0000
0000
0001
0000
0000
0002
0000
0000
0000
0000
0000
0003
0000
0000
0000
,
1001
0000
0000
0100
0001
0000
0100
0000
0010
0000
1000
0000
0100
0000
1000
0000
,
0010
0000
0000
0100
0001
0000
0010
0000
0100
0000
1000
0000
0010
0000
0100
0000
,
0100
0000
0000
0001
0100
0000
0010
0000
1000
0000
0100
0000
1000
0000
0010
0000
,
1000
0000
0000
0100
1000
0000
1000
0000
0010
0000
0100
0000
0001
0000
0001
0000
,
0100
0000
0000
0010
1000
0000
0100
0000
1000
0000
0010
0000
0100
0000
0001
0000
,
0100
0000
0000
0010
1000
0000
0010
0000
0100
0000
0010
0000
0001
0000
0010
0000
,
0100
0000
0000
0001
1000
0000
0100
0000
1000
0000
0100
0000
0010
0000
0001
0000
,
1001
0110
1001
0110
,
1001
0000
0000
0100
1000
0000
0100
0000
1000
0000
0010
0000
0100
0000
0001
0000
,
0100
0010
1000
0100
0100
1000
0010
0100
,
0101
0000
0000
0001
0010
0000
0001
0000
0100
0000
0010
0000
1000
0000
0100
0000
,
1000
0010
0100
0001
0010
0100
1000
0100
,
1100
0000
0000
0010
0001
0000
0100
0000
0010
0000
1000
0000
0010
0000
0100
0000
,
0001
0100
0010
1000
0100
0010
0001
0010
,
1001
0000
0000
0010
0100
0000
0010
0000
0100
0000
0010
0000
0001
0000
0010
0000
,
0100
0010
1000
0010
0100
0010
0001
0010
,
1001
0100
1000
0010
0100
0001
0100
0010
,
1000
0000
0100
0000
1000
0000
0010
0100
0001
0000
0100
0010
0100
0000
0001
0000
,
0100
0010
1000
0100
1000
0010
0100
0001
,
0010
0000
0100
0000
1000
0000
0010
0100
0001
0000
0100
0010
1000
0000
0010
0000
,
0100
0001
0100
0010
1000
0100
1000
0010
,
0100
0000
0010
0000
1000
0000
0010
0100
0001
0000
0001
0100
0010
0000
0010
0000
,
1000
0100
1000
0010
0100
0001
0010
0001
,
0100
0000
0001
0000
0010
0000
0001
0100
0001
0000
0010
0001
0010
0000
0100
0000
,
1001
1000
0001
0100
0001
0100
0010
1000
,
0100
0000
1000
0000
0010
0000
0100
0001
0100
0000
0010
0100
0010
0000
1000
0000
,
0100
1000
0010
0100
0001
0100
0010
1000
,
0100
0000
1000
0000
0010
0000
0100
0001
0100
0000
0001
0010
0001
0000
0100
0000
,
0010
1000
0100
1000
0010
0100
0010
0100
,
0001
0000
0010
0000
0001
0000
0100
0010
0100
0000
0010
1000
0100
0000
1000
0000
,
0010
0100
0001
0010
0100
1000
0100
0010
,
0001
0000
0010
0000
0100
0000
1000
0100
0010
0000
0001
0010
0100
0000
1000
0000
,
1001
0100
0100
0100
,
0100
0100
0100
0100
,
1001
0010
0010
0010
,
0010
0010
0010
0010
,
1001
0100
0100
0100
,
1001
0010
0010
0010
,
1001
0100
1001
0010
,
1001
0110
0110
1001
;

//---------------dance-single - ----------------
#NOTES:
     dance-single:
     :
     Medium:
     9:
     0.386740,0.413657,0.530607,0.054144,0.021657,250.000000,201.000000,49.000000,5.000000,0.000000,0.000000,0.386740,0.413657,0.530607,0.054144,0.021657,250.000000,201.000000,49.000000,5.000000,0.000000,0.000000:
0000
0000
0000
0000
,
0000
0000
0000
0000
,
0000
0000
0000
0000
,
0000
0000
0000
0000
,
1000
0000
0000
1000
0000
0000
2000
0000
0000
0000
0000
0000
3000
0000
0000
0000
,
0010
0000
0000
0010
0000
0000
0020
0000
0000
0000
0000
0000
0030
0000
0000
0000
,
0100
0000
0000
0100
0000
0000
0200
0000
0000
0000
0000
0000
0300
0000
0000
0000
,
0001
0000
0000
0001
0000
0000
0002
0000
0000
0000
0000
0000
0003
0000
0000
0000
,
1000
0000
0001
1000
0001
1000
0001
0000
,
1000
0000
0001
1000
0001
1000
0001
0000
,
0100
0000
0010
0100
0010
0100
0010
0000
,
0100
0000
0010
0100
0010
0100
0010
0000
,
1000
0000
0100
1000
0100
1000
0100
0000
,
0010
0000
0001
0010
0001
0010
0001
0000
,
1000
0000
0100
1000
0100
1000
0100
0000
,
1000
0000
0010
1000
0010
1000
0010
0000
,
1001
0100
0001
0100
,
0010
1000
0100
1000
,
1001
1000
0010
0100
,
0001
1000
0010
1000
,
1001
0100
0010
0100
,
0001
0100
0010
1000
,
1001
1000
0100
1000
,
0010
0100
0001
0100
,
1001
0000
0100
0000
0001
0001
0001
0000
,
1001
0000
0100
0000
1000
1000
1000
0000
,
1001
0000
0100
0000
0001
0001
0001
0000
,
1001
0000
0100
0000
1000
1000
2000
3000
,
1001
0000
0101
0000
0001
0100
0001
0000
,
1001
0000
1100
0000
1000
0100
1000
0000
,
1001
0000
0101
0000
0001
0100
0001
0000
,
1001
0000
1100
0000
1000
0100
1000
0000
,
1001
0000
0100
0100
0100
0000
0100
0000
,
1001
0000
0010
0010
0010
0000
0010
0000
,
1001
0000
0100
0100
0100
0000
0100
0000
,
1001
0000
0010
0010
0010
0000
0010
0000
,
1001
0000
1000
0100
0010
0001
0010
0000
,
1001
0000
0001
0010
0100
1000
0100
0000
,
1001
0000
1000
0100
0010
0001
0010
0000
,
1001
0000
0001
0010
0100
1000
0100
0000
,
1001
1001
1001
0000
,
0110
0110
0110
0000
,
1001
1001
1001
0000
,
1010
1010
1010
0000
,
1100
1100
1100
0000
,
0011
0011
0011
0000
,
0101
0101
0101
0000
,
0110
0110
0110
0110
;

//---------------dance-single - ----------------
#NOTES:
     dance-single:
     :
     Easy:
     5:
     0.250608,0.284389,0.129945,0.324862,0.000000,162.000000,150.000000,12.000000,30.000000,0.000000,0.000000,0.250608,0.284389,0.129945,0.324862,0.000000,162.000000,150.000000,12.000000,30.000000,0.000000,0.000000:
// measure 0
0000
0000
0000
0000
,  // measure 1
0000
0000
0000
0000
,  // measure 2
0000
0000
0000
0000
,  // measure 3
0000
0000
0000
0000
,  // measure 4
0002
0000
0000
0000
,  // measure 5
0203
0000
0000
0000
,  // measure 6
0320
0000
0000
0000
,  // measure 7
2030
0000
0000
0000
,  // measure 8
3200
0000
2300
0000
,  // measure 9
3020
0000
0230
0000
,  // measure 10
0302
0000
0023
0000
,  // measure 11
0032
0000
0203
0000
,  // measure 12
0320
0000
2030
0000
,  // measure 13
3200
0000
2300
0000
,  // measure 14
3020
0000
0230
0000
,  // measure 15
0302
0203
0320
2030
,  // measure 16
3001
0101
0010
1000
,  // measure 17
0100
1000
0010
0100
,  // measure 18
0010
1100
1000
0001
,  // measure 19
0100
0010
1000
0100
,  // measure 20
1000
0101
0001
0100
,  // measure 21
0010
1000
0100
1000
,  // measure 22
0010
1100
0001
0100
,  // measure 23
0010
1000
0100
0010
,  // measure 24
1001
0100
0010
0100
,  // measure 25
1000
0100
0001
0010
,  // measure 26
1001
0100
0001
1000
,  // measure 27
1000
0100
0001
0010
,  // measure 28
1001
0001
0010
0100
,  // measure 29
1000
0100
0001
0010
,  // measure 30
1001
0001
0100
0010
,  // measure 31
1000
0100
0001
0010
,  // measure 32
1001
0100
0001
0010
,  // measure 33
1000
0100
0001
0010
,  // measure 34
1001
0100
0001
0010
,  // measure 35
1000
0100
0001
0010
,  // measure 36
1001
0100
0001
0010
,  // measure 37
1000
0100
0001
0010
,  // measure 38
1001
0100
0001
0010
,  // measure 39
1000
0100
0001
0010
,  // measure 40
2000
0100
0100
3100
,  // measure 41
0002
0100
0100
0103
,  // measure 42
2000
0010
0010
3010
,  // measure 43
0002
0100
0100
0103
,  // measure 44
2000
0010
0010
3010
,  // measure 45
0200
0001
0001
0301
,  // measure 46
0002
0010
0010
0013
,  // measure 47
0200
1000
1000
1300
;

//---------------dance-single - ----------------
#NOTES:
     dance-single:
     :
     Beginner:
     2:
     0.156243,0.206829,0.000000,0.000000,0.000000,101.000000,101.000000,0.000000,0.000000,0.000000,0.000000,0.156243,0.206829,0.000000,0.000000,0.000000,101.000000,101.000000,0.000000,0.000000,0.000000,0.000000:
// measure 0
0000
0000
0000
0000
,  // measure 1
0000
0000
0000
0000
,  // measure 2
0000
0000
0000
0000
,  // measure 3
0000
0000
0000
0000
,  // measure 4
0100
0100
0100
0000
,  // measure 5
0100
0000
0100
0000
,  // measure 6
0100
0100
0100
0000
,  // measure 7
0100
0000
0100
0000
,  // measure 8
0010
0010
0010
0000
,  // measure 9
0010
0000
0010
0000
,  // measure 10
0001
0001
0001
0000
,  // measure 11
0001
0000
0001
0000
,  // measure 12
1000
1000
1000
0000
,  // measure 13
1000
0000
1000
0000
,  // measure 14
0010
0010
0010
0000
,  // measure 15
0010
0010
0010
0010
,  // measure 16
0010
0000
1000
0000
,  // measure 17
0001
0000
0100
0000
,  // measure 18
0010
0000
1000
0000
,  // measure 19
0100
0000
1000
0000
,  // measure 20
0010
0000
0100
0000
,  // measure 21
0001
0000
0010
0000
,  // measure 22
0001
0000
0100
0000
,  // measure 23
0001
0000
0100
0000
,  // measure 24
0010
0000
1000
0000
,  // measure 25
0100
0000
1000
0000
,  // measure 26
0010
0000
1000
0000
,  // measure 27
0100
0000
1000
0000
,  // measure 28
0001
0000
0100
0000
,  // measure 29
0010
0000
0100
0000
,  // measure 30
0001
0000
0010
0000
,  // measure 31
0100
0000
1000
0000
,  // measure 32
0001
0000
0100
0000
,  // measure 33
0010
0000
1000
0000
,  // measure 34
0100
0000
1000
0000
,  // measure 35
0010
0000
0100
0000
,  // measure 36
0001
0000
0100
0000
,  // measure 37
0010
0000
1000
0000
,  // measure 38
0100
0000
1000
0000
,  // measure 39
0010
0000
0100
0000
,  // measure 40
0001
0001
0001
0000
,  // measure 41
0001
0000
0001
0000
,  // measure 42
1000
1000
1000
0000
,  // measure 43
1000
0000
1000
0000
,  // measure 44
0010
0010
0010
0000
,  // measure 45
0010
0000
0010
0000
,  // measure 46
0100
0000
0100
0000
,  // measure 47
0100
0100
0100
0100
;
