#TITLE:Do It Right;
#SUBTITLE:(80's Electro Mix);
#ARTIST:SOTA feat.Ebony Fay;
#TITLETRANSLIT:;
#SUBTITLETRANSLIT:;
#ARTISTTRANSLIT:;
#GENRE:Electro House;
#CREDIT:;
#BANNER:Do It Right (80's Electro Mix).png;
#BACKGROUND:Do It Right (80's Electro Mix)-bg.png;
#LYRICSPATH:;
#CDTITLE:;
#MUSIC:Do It Right (80's Electro Mix).ogg;
#OFFSET:-0.046797;
#SAMPLESTART:42.259998;
#SAMPLELENGTH:12.000000;
#SELECTABLE:YES;
#DISPLAYBPM:135.000000;
#BPMS:0.000000=135.000000
;
#STOPS:
;
#BGCHANGES:;
#KEYSOUNDS:;
#ATTACKS:;

//---------------dance-single - ----------------
#NOTES:
     dance-single:
     :
     Hard:
     11:
     0.481154,0.657105,0.308190,0.077048,0.022014,306.000000,278.000000,28.000000,7.000000,0.000000,0.000000,0.481154,0.657105,0.308190,0.077048,0.022014,306.000000,278.000000,28.000000,7.000000,0.000000,0.000000:
0000
0000
0000
0000
,
0000
0000
0000
0000
,
0000
0000
0000
0000
,
0000
0000
0000
0000
,
1000
0001
1000
0010
1000
0001
1000
1000
,
0001
1000
0001
0100
0001
1000
0001
0001
,
1000
0001
1000
0010
1000
0001
1000
1000
,
0001
1000
0001
0100
0001
1000
0101
0000
,
0020
1000
0100
0001
,
0100
1030
0001
0001
,
0200
1000
0010
0001
,
0010
1300
0010
0010
,
0001
1000
0100
0000
1000
0001
1000
0100
,
1000
0000
0110
0000
0001
0100
0010
1000
,
0001
0010
0100
1000
0001
1000
0001
0000
,
0010
1000
0001
0000
0100
0001
1100
0000
,
0020
0001
0100
1000
,
0100
0031
1000
1000
,
0200
0001
0010
1000
,
0010
0301
0010
0010
,
1000
0001
0100
0000
0001
1000
0001
0100
,
0001
0000
0110
0000
1000
0100
0010
0001
,
1000
0010
0100
0001
1000
0001
1000
0000
,
0010
0000
0001
0000
1000
0000
0000
0000
0100
0000
0000
0000
1000
0001
0100
0001
,
1000
0000
1001
0000
0001
1000
0001
0000
,
0010
0101
1000
0101
,
1000
0000
0010
0100
0001
1000
0001
0000
,
1000
0101
1000
0101
,
0100
0000
0100
0010
1000
0001
1000
0000
,
1001
0110
1001
0110
,
0010
0000
0010
0100
0001
1000
0010
1000
,
0100
0000
1000
0000
0010
0000
0100
0000
0001
0000
0100
0000
0001
1000
0001
1000
,
0100
0000
1001
0000
0001
1000
0001
0000
,
0010
0001
0100
0000
1000
0001
0100
0000
,
1000
0000
0010
0100
0001
1000
0001
0000
,
1000
0001
0101
0000
0001
1000
1100
0000
,
0100
0000
0100
0010
1000
0001
1000
0000
,
1001
1001
0110
0110
1001
1001
0110
0110
,
0010
0000
0010
0100
1000
0001
0010
0001
,
0100
0001
0010
0100
1000
0100
0010
0100
,
1000
0001
1000
0010
1000
0001
1000
1000
,
0001
1000
0001
0100
0001
1000
0001
0001
,
1000
0001
1000
0010
1000
0001
1000
1000
,
0001
1000
0001
0000
1001
0000
0110
0000
,
1000
0001
1000
0010
1000
0001
1000
1000
,
0001
1000
0001
0100
0001
1000
0001
0001
,
1000
0001
1000
0010
1000
0001
1000
1000
,
0001
1000
0001
0000
0110
0000
0100
0010
,
0120
0000
0200
0300
,
0100
0000
0200
0330
;

//---------------dance-single - ----------------
#NOTES:
     dance-single:
     :
     Challenge:
     13:
     0.498450,0.510406,0.176109,0.044027,0.324700,317.000000,301.000000,16.000000,4.000000,0.000000,0.000000,0.498450,0.510406,0.176109,0.044027,0.324700,317.000000,301.000000,16.000000,4.000000,0.000000,0.000000:
0000
0000
0000
0000
,
0000
0000
0000
0000
,
0000
0000
0000
0000
,
0000
0000
0000
0000
,
1000
0100
0000
0000
0010
0000
0001
0100
0000
0010
0000
1000
0000
0001
1000
0000
,
0100
0010
0000
0000
0100
1000
0000
0001
0000
0100
0000
0010
0000
1000
0001
0000
,
0100
0010
0000
0000
0100
0001
0000
1000
0000
0100
0000
0010
0000
0001
1000
0000
,
0100
1000
0000
0000
0001
0000
0000
0000
0110
0000
1000
0000
0001
0000
0000
0000
,
1000
0000
1010
0100
0001
0000
1010
0100
,
0001
0000
1000
0100
0001
0000
1000
0100
,
0001
0000
1000
0100
0010
0001
0010
0100
,
1000
0000
0001
0000
0100
0000
0010
0000
1000
0000
0000
1000
0000
0000
0010
0000
,
0000
0000
0011
0100
1000
0000
0011
0100
,
1000
0000
0001
0100
1000
0000
0001
0100
,
1000
0000
0010
1000
0001
1000
0100
0010
,
0001
0000
0100
0000
0010
0000
1000
0000
0100
0000
0000
0100
0000
0000
0010
0000
,
0000
0000
1001
1000
0100
0000
1001
0001
,
0100
0000
1001
1000
0100
0000
1001
0001
,
0100
0010
1000
0010
0100
0001
0010
1000
,
0010
0000
0100
0000
1000
0000
0001
0000
0100
0000
0000
0010
0000
0000
1001
0000
,
0000
0000
1001
0001
0010
0000
1001
1000
,
0010
0000
1001
0001
0010
0000
1001
1000
,
0010
0000
1000
0100
0010
0000
0001
0010
,
0200
0000
0000
0000
0000
0000
0020
0000
0330
0000
0000
1000
0001
0010
0100
0010
,
0001
0000
0000
0100
0000
0100
0010
1000
,
0001
0000
0000
0000
0010
0000
0010
0100
0000
0000
0000
0000
1000
0000
0001
1000
,
0000
0000
0000
0000
0010
0000
1000
0010
0000
0000
0100
0000
0001
0000
0010
0000
,
0001
0000
0000
0100
0000
0000
2000
0000
0000
0000
0000
0000
3001
0000
1000
0000
,
0100
0000
0000
0000
0010
0001
0000
0001
0000
0000
0000
0000
0000
0000
1000
0010
,
0100
0000
0000
0010
0000
0000
1000
0000
0001
0000
0000
0000
0010
0000
0100
0000
,
1000
0000
0010
0100
0001
0100
0010
1000
,
0001
0000
0100
0000
0010
0000
1000
0000
0100
0000
0000
0001
1000
0010
0100
0010
,
1000
0000
0000
0100
0000
0100
0010
0001
,
1000
0000
0010
0000
0100
0010
0000
0100
0000
0000
0000
0000
0001
0000
1000
0001
,
0000
0000
0000
0000
0010
0000
0001
0010
0000
0000
0100
0000
1000
0000
0010
0000
,
1000
0000
0000
0100
0000
0100
0002
0000
0000
0000
0000
0000
1003
0000
0001
0000
,
0100
0000
0000
0000
0010
1000
0000
1000
0000
0000
0000
0000
0000
0000
0001
0010
,
0100
0000
0000
0010
0000
0000
0001
0000
1000
0000
0000
0000
0010
0000
0100
0000
,
0001
0001
0010
0000
0100
1000
0100
0010
,
0001
0000
0000
1000
0000
0000
0010
0000
0000
0000
0000
0000
0100
0000
0001
1000
,
0000
0000
0010
0000
0010
0000
1000
0000
1000
0000
0100
1000
0000
0000
0000
0000
,
0001
0000
0001
0000
0100
0000
0100
0010
0000
0000
1000
0000
1001
0000
0000
0000
,
0010
0000
0001
0000
0001
0000
1000
0000
1000
0000
0100
0010
0000
0000
0100
0000
,
1000
0001
1000
0010
0100
0000
0001
1000
,
0000
0000
1000
0000
0001
0000
0010
0000
0100
0000
1000
0001
0000
0000
0000
0000
,
0010
0000
0010
0000
0001
0000
1000
0100
0000
0000
0010
0000
0110
0000
0000
0000
,
0001
0000
0100
0000
1000
0000
0100
0000
0001
0000
1000
0010
0000
0000
1000
0100
,
1000
0100
1000
0000
0001
0000
0010
0000
0100
0000
0000
0000
0010
0000
0001
0000
,
1000
0001
0000
0001
0000
0000
0000
0000
1000
0000
0010
0100
0000
0100
0000
0000
;

//---------------dance-single - ----------------
#NOTES:
     dance-single:
     :
     Medium:
     8:
     0.317625,0.373681,0.187115,0.022014,0.016510,202.000000,185.000000,17.000000,2.000000,0.000000,0.000000,0.317625,0.373681,0.187115,0.022014,0.016510,202.000000,185.000000,17.000000,2.000000,0.000000,0.000000:
0000
0000
0000
0000
,
0000
0000
0000
0000
,
0000
0000
0000
0000
,
0000
0000
0000
0000
,
1000
0010
0001
0100
,
1000
0100
0010
0001
1000
0000
0000
0000
,
0001
0010
1000
0100
,
0001
0100
0010
1000
0001
1000
0001
0000
,
0000
0011
1000
0011
,
0001
1010
0001
1010
,
0100
0000
0001
0010
0100
0000
1000
0010
,
0100
0000
0000
0000
0001
0000
0000
0000
0010
0000
0000
0010
0000
0000
0010
0000
,
0000
1100
0001
0101
,
1000
1010
0001
0011
,
1000
0110
0001
0110
,
1000
0000
0100
0000
1000
0000
0000
0000
0001
0000
0000
0001
0000
0000
0001
0000
,
0000
0010
0100
1000
,
0010
0100
0001
1000
,
0010
0010
1000
0001
,
0010
0000
0000
0000
0100
0000
0000
0000
0001
0000
0000
0001
0000
0000
0001
0000
,
0000
1000
0010
0100
,
0010
1000
0100
0010
,
0002
0000
0003
0000
,
1000
0000
0000
0001
0000
0000
0100
0010
,
1001
0000
0000
1000
0000
1000
0100
1000
,
0100
0010
0001
0100
,
0010
0010
0001
1000
,
0010
0000
0100
0001
1000
0000
0001
0000
,
0010
0010
0100
0000
,
0001
0001
1000
0000
,
0010
0100
0001
1000
,
0100
0000
0010
0000
0001
0000
0010
0100
,
1001
0000
0000
0001
0000
0001
0100
0000
,
0010
1000
0100
1000
,
0001
0010
0100
0100
,
0010
0000
1000
0010
0100
0000
0001
0000
,
1000
1000
0010
0000
,
0001
0001
0100
0010
,
1000
0100
1000
0001
,
0010
0100
0010
0000
0001
0000
1000
0000
,
0100
0000
0100
0000
0010
0001
0010
0000
,
0100
1001
0100
1001
,
0010
1001
0100
1010
,
0100
0000
0011
0000
1000
0000
0001
0100
,
0001
1000
0010
0001
,
0001
0010
1000
1000
,
0100
0010
0001
1000
,
0010
0000
0100
0000
0010
0000
1000
0001
,
2000
0000
3000
0000
;

//---------------dance-single - ----------------
#NOTES:
     dance-single:
     :
     Easy:
     5:
     0.272025,0.373681,0.209129,0.132081,0.000000,173.000000,154.000000,19.000000,12.000000,0.000000,0.000000,0.272025,0.373681,0.209129,0.132081,0.000000,173.000000,154.000000,19.000000,12.000000,0.000000,0.000000:
0000
0000
0000
0000
,
0000
0000
0000
0000
,
0000
0000
0000
0000
,
0000
0000
0000
0000
,
1000
0010
0001
0000
,
0001
0010
1000
0000
,
1000
0100
0001
0000
,
0001
0100
0010
0010
,
1000
0100
0000
0100
,
1000
0001
0000
0001
,
0010
0100
0000
0100
,
0010
0001
0100
0110
,
0000
1000
0001
0100
,
0000
0100
0010
1000
,
0000
1000
0100
0010
,
0001
0001
0010
0100
,
2002
3003
0001
0100
,
0002
0003
1000
0100
,
2000
3000
0001
0010
,
0100
1000
0010
0010
,
0020
0030
0100
0001
,
0010
0000
0100
1000
,
0001
0000
1000
0100
,
0001
0000
0001
0000
,
1100
0001
0010
0100
,
0101
1000
0010
0100
,
0101
0001
1000
0100
,
1100
1000
0001
0100
,
0010
0010
0110
0000
,
1000
1000
1001
0000
,
0001
0010
0100
1000
,
0001
0001
0010
0100
,
2002
3003
1000
0010
,
0100
0100
0001
1000
,
1000
0001
0001
0010
,
0100
1000
0020
0030
,
1000
0001
0200
0300
,
0010
1000
0200
0300
,
0010
0001
1000
1000
,
0001
0010
0100
1000
,
0001
0001
0001
0001
,
0010
0010
0010
0110
,
0100
1100
1000
1001
,
0001
0101
0100
0110
,
0001
0100
0010
0110
,
1000
0100
0010
0110
,
1000
0001
0010
0011
,
0001
1000
0010
0101
,
2020
0000
3030
0000
;

//---------------dance-single - ----------------
#NOTES:
     dance-single:
     :
     Beginner:
     1:
     0.070758,0.160149,0.066041,0.110068,0.000000,45.000000,39.000000,6.000000,10.000000,0.000000,0.000000,0.070758,0.160149,0.066041,0.110068,0.000000,45.000000,39.000000,6.000000,10.000000,0.000000,0.000000:
0000
0000
0000
0000
,
0000
0000
0000
0000
,
0000
0000
0000
0000
,
0000
0000
0000
0000
,
1000
0000
0000
0000
,
1000
0000
0000
0000
,
0001
0000
0000
0000
,
0001
0000
0000
0000
,
0020
0000
0030
0000
,
0000
0000
0000
0000
,
0200
0000
0300
0000
,
0000
0000
0000
0000
,
2000
0000
3000
0000
,
0000
0000
0000
0000
,
0002
0000
0003
0000
,
0000
0000
0000
0000
,
0100
0000
0000
0000
,
0100
0000
0000
0000
,
0010
0000
0000
0000
,
0010
0000
0000
0000
,
1001
0000
0000
0000
,
0000
0000
0000
0000
,
0110
0000
0000
0000
,
0000
0000
0000
0000
,
0001
0000
0000
0000
,
0002
0000
0003
0000
,
1000
0000
0000
0000
,
2000
0000
3000
0000
,
0010
0000
0000
0000
,
0020
0000
0030
0000
,
0100
0000
0000
0000
,
0200
0000
0300
0000
,
1001
0000
0000
0000
,
0001
0000
0000
0000
,
1000
0000
0000
0000
,
0100
0000
0000
0000
,
0110
0000
0000
0000
,
1001
0000
0000
0000
,
0110
0000
0000
0000
,
2000
0000
3000
0000
,
0001
0000
0000
0000
,
0001
0000
0000
0000
,
1000
0000
0000
0000
,
1000
0000
0000
0000
,
0100
0000
0000
0000
,
0100
0000
0000
0000
,
0010
0000
0000
0000
,
0010
0000
0000
0000
,
0200
0000
0300
0000
;
