#TITLE:Depend On You;
#SUBTITLE:(Svenson & Gielen Remix);
#ARTIST:浜崎あゆみ;
#TITLETRANSLIT:;
#SUBTITLETRANSLIT:;
#ARTISTTRANSLIT:Ayumi Hamasaki;
#GENRE:Trance;
#CREDIT:;
#BANNER:Depend On You-bn.png;
#BACKGROUND:Depend On You-bg.png;
#LYRICSPATH:;
#CDTITLE:;
#MUSIC:Ayumi Hamasaki - Depend On You (Svenson & Gielen Remix).mp3;
#OFFSET:-0.816000;
#SAMPLESTART:73.180000;
#SAMPLELENGTH:12.000000;
#SELECTABLE:YES;
#BPMS:0.000000=137.979996
;
#STOPS:
;
#BGCHANGES:-2.400=Da.avi=1.000=1=0=0=StretchNoLoop==CrossFade==,
236.000=Depend On You-bg.png=1.000=0=0=1=====,
99999=-nosongbg-=1.000=0=0=0 // don't automatically add -songbackground-
;
#KEYSOUNDS:;
#ATTACKS:;

//---------------dance-single - ----------------
#NOTES:
     dance-single:
     :
     Hard:
     11:
     0.470057,0.554668,0.065808,0.112814,0.347842,350.000000,343.000000,7.000000,12.000000,0.000000,0.000000,0.470057,0.554668,0.065808,0.112814,0.347842,350.000000,343.000000,7.000000,12.000000,0.000000,0.000000:
// measure 0
0000
0000
0000
0000
,  // measure 1
0000
0000
0000
0000
,  // measure 2
0000
0000
0000
0000
,  // measure 3
0000
0000
0000
0000
0000
0000
0000
1000
,  // measure 4
0100
0000
0001
0100
0000
0000
0000
0010
,  // measure 5
1000
0000
0010
0001
0000
0000
0000
0000
,  // measure 6
1000
0000
0000
0000
0001
0000
0100
1000
,  // measure 7
0100
0001
0100
0001
0010
0100
0010
0100
,  // measure 8
1000
0010
0001
0010
1000
0100
0001
0100
,  // measure 9
1000
0010
0000
0010
0000
0000
0100
0000
0001
0010
0000
0010
0000
0000
0100
0000
,  // measure 10
1000
0001
0000
0001
0000
0000
0100
0000
0001
1000
0000
1000
0000
0000
0100
0000
,  // measure 11
0010
0001
0000
0001
0000
0000
1000
0000
0010
1000
0000
1000
0000
0000
0001
0000
,  // measure 12
0100
1000
0000
1000
0000
0000
0100
0000
0001
0010
0000
0010
0000
0000
0100
0000
,  // measure 13
1000
0001
0000
1000
0000
0000
0010
0000
1000
0001
0000
1000
0000
0000
0100
0000
,  // measure 14
1000
0001
0000
0001
0000
0000
0100
0000
0010
1000
0000
1000
0000
0000
0001
0000
,  // measure 15
0100
0010
0000
1000
0000
0000
0010
0000
0100
0001
0000
0100
0000
0000
0010
0000
,  // measure 16
1000
0001
0000
0010
0000
0000
0001
0000
1000
0100
0000
1000
0000
0000
0001
0000
,  // measure 17
0100
0000
0010
1000
0000
0010
0000
0100
,  // measure 18
0001
0000
1000
0100
0000
0010
0001
0010
,  // measure 19
0100
0000
1000
0001
0000
1000
0010
1000
,  // measure 20
0001
0000
0000
0100
0000
0000
1000
0000
0100
0000
0000
0001
0000
0000
0010
0000
,  // measure 21
0100
0000
1000
0001
0000
1000
0000
0010
,  // measure 22
1000
0000
0001
0010
0000
0100
1000
0100
,  // measure 23
0010
0000
0001
1000
0000
0010
1000
0001
,  // measure 24
0100
0000
0000
0010
0000
0000
0010
0000
1000
0000
0000
0001
0000
0000
0001
0000
,  // measure 25
0010
0000
0100
1000
0000
0001
0000
1000
,  // measure 26
0010
0000
1000
0001
0000
0010
0100
1000
,  // measure 27
0100
0000
0010
0001
0000
1000
0010
1000
,  // measure 28
0001
0000
0000
1000
0000
0000
0010
0000
0100
0000
0000
0001
0000
0000
1000
0000
,  // measure 29
0100
0000
0010
0001
0000
0010
0100
0010
,  // measure 30
0000
0001
0000
1000
0010
0100
0001
1000
,  // measure 31
0010
1000
0001
1000
0010
1000
0001
0100
,  // measure 32
0001
1000
0001
0100
0001
0000
1000
0000
,  // measure 33
0010
0000
1000
0001
0000
0100
0001
0010
,  // measure 34
0200
1300
0002
0013
,  // measure 35
2000
0000
3010
0000
0100
0001
0000
0100
,  // measure 36
0020
0000
0000
0000
1030
0000
0000
0000
0010
0000
0000
0100
0000
0000
0001
0000
,  // measure 37
1000
0000
0100
0010
0100
0000
1000
0010
,  // measure 38
0100
0000
0000
0001
0000
0000
1000
0000
0100
0000
0000
0000
1000
0000
0001
0000
,  // measure 39
0100
0000
0000
0010
0000
0000
1000
0000
0001
0000
0000
0100
0000
0000
0001
0000
,  // measure 40
1000
0010
0100
0001
1000
0010
0100
0001
,  // measure 41
2002
0000
0000
3003
0000
0010
0100
0010
,  // measure 42
0100
0000
0001
1000
0100
0000
0010
0001
,  // measure 43
0000
0001
1000
0010
0000
0010
0100
0001
,  // measure 44
1000
0000
0100
0010
0001
0000
0010
0100
,  // measure 45
0000
1000
0010
0000
0100
0001
0100
0010
,  // measure 46
1000
0000
0001
0100
0000
0010
1000
0100
,  // measure 47
0010
0000
0001
1000
0000
0010
1000
0000
,  // measure 48
0012
0000
0103
0000
2010
0000
3100
0010
,  // measure 49
2002
0000
0000
3003
,  // measure 50
0001
1000
0000
1000
0000
0000
0010
0000
1000
0001
0000
0001
0000
0000
0100
0000
,  // measure 51
0001
0010
0000
0010
0000
0000
0100
0000
1000
0010
0000
0010
0000
0000
1000
0000
,  // measure 52
0001
0100
0000
0010
0000
0000
1000
0000
0100
0010
0000
0100
0000
0000
1000
0000
,  // measure 53
0001
0100
0000
0001
0000
0000
0010
0000
0001
1000
0000
0010
0000
0000
1000
0000
,  // measure 54
0001
0100
0000
0100
0000
0000
0010
0000
1000
0100
0000
0100
0000
0000
0010
0000
,  // measure 55
0001
1000
0000
1000
0000
0000
0010
0000
1000
0001
0000
0001
0000
0000
0100
0000
,  // measure 56
0010
1000
0000
1000
0000
0000
0100
0000
0010
0001
0000
0001
0000
0000
0010
0000
,  // measure 57
0100
1000
0000
1100
0000
0000
1000
0000
0001
0100
0000
0101
0000
0000
0001
0000
,  // measure 58
0220
0000
0000
0000
,  // measure 59
0330
0000
0000
0000
;

//---------------dance-single - ----------------
#NOTES:
     dance-single:
     :
     Medium:
     6:
     0.265918,0.332801,0.037605,0.188023,0.000000,198.000000,194.000000,4.000000,20.000000,0.000000,0.000000,0.265918,0.332801,0.037605,0.188023,0.000000,198.000000,194.000000,4.000000,20.000000,0.000000,0.000000:
// measure 0
0000
0000
0000
0000
,  // measure 1
0000
0000
0000
0000
,  // measure 2
0000
0000
0000
0000
,  // measure 3
0000
0000
0000
0000
,  // measure 4
1000
0000
1000
0000
,  // measure 5
0001
0000
0001
0000
,  // measure 6
0100
0000
0010
0000
,  // measure 7
2002
0000
0000
0000
,  // measure 8
0000
0000
0000
3003
,  // measure 9
0010
0010
0100
0100
,  // measure 10
0001
0000
0001
0000
1000
1000
1000
0000
,  // measure 11
0100
0100
0010
0010
,  // measure 12
0002
0003
0002
0003
,  // measure 13
1000
1000
0010
0010
,  // measure 14
0100
0000
0100
0000
1000
1000
1000
0000
,  // measure 15
0001
0001
0010
0010
,  // measure 16
0200
0300
0020
0030
,  // measure 17
0001
1000
0001
1000
,  // measure 18
0010
0100
0010
0100
,  // measure 19
0001
0010
1000
0010
,  // measure 20
0001
0001
1000
1000
,  // measure 21
0010
0100
0001
1000
,  // measure 22
0100
0010
0001
1000
,  // measure 23
0010
0100
0001
1000
,  // measure 24
0010
0010
0100
0100
,  // measure 25
1000
0100
0010
0001
,  // measure 26
1000
0001
1000
0001
,  // measure 27
0100
0100
0010
0010
,  // measure 28
1000
0100
1000
0100
,  // measure 29
0010
0010
0001
0001
,  // measure 30
1000
0000
0010
0010
,  // measure 31
0100
0001
0010
1000
,  // measure 32
0100
1000
0010
0001
,  // measure 33
0100
0010
0100
0010
,  // measure 34
2020
3030
0100
0010
,  // measure 35
0001
1000
0001
1000
,  // measure 36
0202
0303
0100
0010
,  // measure 37
1000
1000
2000
3000
,  // measure 38
0001
0001
0002
0003
,  // measure 39
0100
0010
1000
0001
,  // measure 40
0010
0000
0010
0000
0100
0000
0100
0100
,  // measure 41
0200
0000
1300
0001
,  // measure 42
0010
0000
0000
0100
1000
0000
0000
0001
,  // measure 43
0100
0010
1000
0001
,  // measure 44
0010
0000
0000
0100
0010
0000
0001
0000
,  // measure 45
1000
0010
0010
0000
,  // measure 46
0100
0001
0200
0300
,  // measure 47
0010
1000
0020
0030
,  // measure 48
1000
0000
0001
0000
1000
0000
0100
0010
,  // measure 49
0200
0000
0000
0000
,  // measure 50
1300
1000
0001
0001
,  // measure 51
0100
0010
1000
0001
,  // measure 52
0010
0010
0100
0100
,  // measure 53
1000
0001
1000
0001
,  // measure 54
0100
0100
0100
0000
0010
0000
1000
0000
,  // measure 55
0001
0001
0010
0000
0100
0000
1000
0000
,  // measure 56
0001
0001
0001
0000
0100
0000
0010
0010
,  // measure 57
2000
3000
0002
0003
,  // measure 58
0220
0000
0000
0000
,  // measure 59
0330
0000
0000
0000
;

//---------------dance-single - ----------------
#NOTES:
     dance-single:
     :
     Easy:
     4:
     0.231000,0.277334,0.065808,0.075209,0.000000,172.000000,165.000000,7.000000,8.000000,0.000000,0.000000,0.231000,0.277334,0.065808,0.075209,0.000000,172.000000,165.000000,7.000000,8.000000,0.000000,0.000000:
// measure 0
0000
0000
0000
0000
,  // measure 1
0000
0000
0000
0000
,  // measure 2
0000
0000
0000
0000
,  // measure 3
0000
0000
0000
0000
,  // measure 4
1000
0000
1000
0000
,  // measure 5
0001
0000
0001
0000
,  // measure 6
0200
0000
0020
0330
,  // measure 7
2002
0000
0000
0000
,  // measure 8
0000
0000
0000
3003
,  // measure 9
1000
0001
0100
0010
,  // measure 10
1000
0000
0001
0000
,  // measure 11
0010
0100
1000
0001
,  // measure 12
0100
0000
0100
0000
,  // measure 13
0010
1000
0001
0010
,  // measure 14
0100
0000
0010
0000
,  // measure 15
0001
1000
0010
0100
,  // measure 16
0001
0000
1000
0000
,  // measure 17
0001
0100
0010
1000
,  // measure 18
0100
0100
0100
0000
,  // measure 19
0010
0001
1000
0010
,  // measure 20
0100
0000
0001
0000
,  // measure 21
1000
0100
0010
0001
,  // measure 22
1000
1000
1000
0000
,  // measure 23
0010
0100
0001
1000
,  // measure 24
0100
0000
0010
0000
,  // measure 25
0001
1000
0010
1000
,  // measure 26
0001
0100
0010
1000
,  // measure 27
0001
0010
0100
1000
,  // measure 28
0001
0001
1000
1000
,  // measure 29
0010
0100
0010
1000
,  // measure 30
0001
0010
0100
1000
,  // measure 31
0001
0001
0100
0100
,  // measure 32
0010
0010
1000
1000
,  // measure 33
0001
0000
0001
1000
,  // measure 34
0010
0000
0100
0001
,  // measure 35
0100
0000
0010
1000
,  // measure 36
0001
0000
1000
1000
,  // measure 37
0100
0000
1000
0100
,  // measure 38
0001
0000
1000
0010
,  // measure 39
0001
0100
0010
1000
,  // measure 40
0001
0001
1000
1000
,  // measure 41
2002
0000
0000
3003
,  // measure 42
1001
0000
0010
0000
,  // measure 43
0001
0100
0010
0000
,  // measure 44
1001
0000
1000
0000
,  // measure 45
0100
0010
0100
0000
,  // measure 46
1000
0001
0100
0000
,  // measure 47
0001
1000
0100
0000
,  // measure 48
0010
0001
0010
0001
,  // measure 49
1000
1000
1000
1000
,  // measure 50
0010
0100
0010
0100
,  // measure 51
0001
0000
0001
0000
,  // measure 52
1000
0100
1000
0100
,  // measure 53
0010
0000
0010
0000
,  // measure 54
0001
1000
0001
1000
,  // measure 55
0010
0000
0010
0000
,  // measure 56
0100
0001
0100
0001
,  // measure 57
1001
0000
1001
0000
,  // measure 58
0220
0000
0000
0000
,  // measure 59
0330
0000
0000
0000
;

//---------------dance-single - ----------------
#NOTES:
     dance-single:
     :
     Beginner:
     1:
     0.104756,0.136317,0.047006,0.000000,0.000000,78.000000,73.000000,5.000000,0.000000,0.000000,0.000000,0.104756,0.136317,0.047006,0.000000,0.000000,78.000000,73.000000,5.000000,0.000000,0.000000,0.000000:
// measure 0
0000
0000
0000
0000
,  // measure 1
0000
0000
0000
0000
,  // measure 2
0000
0000
0000
0000
,  // measure 3
0000
0000
0000
0000
,  // measure 4
0010
0000
0000
0000
,  // measure 5
0100
0000
0000
0000
,  // measure 6
0001
0000
1000
0000
,  // measure 7
1001
0000
0000
0000
,  // measure 8
0000
0000
0000
0000
,  // measure 9
0010
0000
0010
0000
,  // measure 10
0010
0000
0000
0000
,  // measure 11
0100
0000
0100
0000
,  // measure 12
0001
0000
0000
0000
,  // measure 13
1000
0000
1000
0000
,  // measure 14
1000
0000
0000
0000
,  // measure 15
0100
0000
0100
0000
,  // measure 16
0010
0000
0000
0000
,  // measure 17
0001
0000
0001
0000
,  // measure 18
0001
0000
0001
0000
,  // measure 19
1000
0000
1000
0000
,  // measure 20
1000
0000
1000
0000
,  // measure 21
0010
0000
0010
0000
,  // measure 22
0010
0000
0010
0000
,  // measure 23
0100
0000
0100
0000
,  // measure 24
0100
0000
0000
0000
,  // measure 25
1001
0000
0000
0000
,  // measure 26
0010
0000
0000
0000
,  // measure 27
0001
0000
0001
0000
,  // measure 28
0001
0000
0000
0000
,  // measure 29
1000
0000
0000
0000
,  // measure 30
0100
0000
0000
0000
,  // measure 31
0010
0000
0010
0000
,  // measure 32
0100
0000
0000
0000
,  // measure 33
1000
0000
0000
0000
,  // measure 34
1000
0000
0000
0000
,  // measure 35
0001
0000
0000
0000
,  // measure 36
0001
0000
0000
0000
,  // measure 37
0110
0000
0000
0000
,  // measure 38
1000
0000
0000
0000
,  // measure 39
0001
0000
0000
0000
,  // measure 40
0010
0000
0000
0000
,  // measure 41
0110
0000
0000
0000
,  // measure 42
1000
0000
1000
0000
,  // measure 43
1000
0000
0000
0000
,  // measure 44
0001
0000
0001
0000
,  // measure 45
0001
0000
0000
0000
,  // measure 46
0100
0000
0000
0000
,  // measure 47
0010
0000
0000
0000
,  // measure 48
1000
0000
0001
0000
,  // measure 49
0100
0000
0000
0000
,  // measure 50
0010
0000
0000
0000
,  // measure 51
1000
0000
0000
0000
,  // measure 52
0001
0000
0000
0000
,  // measure 53
0010
0000
0010
0000
,  // measure 54
0100
0000
0000
0000
,  // measure 55
1000
0000
0000
0000
,  // measure 56
0001
0000
0000
0000
,  // measure 57
0100
0000
0100
0000
,  // measure 58
1001
0000
0000
0000
;

//---------------dance-double - ----------------
#NOTES:
     dance-double:
     :
     Hard:
     8:
     0.463342,0.526934,0.047006,0.056407,0.333741,345.000000,340.000000,5.000000,6.000000,0.000000,0.000000,0.463342,0.526934,0.047006,0.056407,0.333741,345.000000,340.000000,5.000000,6.000000,0.000000,0.000000:
00000000
00000000
00000000
00000000
,
00000000
00000000
00000000
00000000
,
00000000
00000000
00000000
00000000
,
00000000
00000000
00000000
00000000
00000000
00000000
00000000
10000000
,
01000000
00000000
00100000
00010000
00000000
00000000
00000000
01000000
,
00001000
00000000
00000010
00000001
00000000
00000000
00000000
00000000
,
00000100
00000000
00000000
00000000
00000010
00000000
00001000
00000100
,
00010000
00100000
10000000
01000000
00010000
01000000
10000000
00010000
,
01000000
00001000
00010000
00000100
00000010
00000001
00000100
00000010
,
00001000
00000100
00000000
00000100
00000000
00000000
00001000
00000000
00000010
00000100
00000000
00000100
00000000
00000000
00000001
00000000
,
00001000
00000100
00000000
00000100
00000000
00000000
00010000
00000000
00001000
01000000
00000000
01000000
00000000
00000000
00100000
00000000
,
10000000
01000000
00000000
10000000
00000000
00000000
00010000
00000000
00100000
00001000
00000000
01000000
00000000
00000000
00001000
00000000
,
00000010
00000100
00000000
00001000
00000000
00000000
00000001
00000000
00000100
00000010
00000000
00000001
00000000
00000000
00000010
00000000
,
00001000
00000100
00000000
00000100
00000000
00000000
00010000
00000000
00001000
01000000
00000000
01000000
00000000
00000000
00100000
00000000
,
10000000
00010000
00000000
00010000
00000000
00000000
01000000
00000000
00001000
00010000
00000000
00010000
00000000
00000000
00001000
00000000
,
00000100
00000010
00000000
00001000
00000000
00000000
00000100
00000000
00010000
00001000
00000000
00100000
00000000
00000000
00001000
00000000
,
01000000
00100000
00000000
10000000
00000000
00000000
00010000
00000000
01000000
00001000
00000000
00100000
00000000
00000000
00001000
00000000
,
01000000
00000000
00100000
10000000
00000000
01000000
00000000
00010000
,
00001000
00000000
00000010
00000001
00000000
00000100
00000010
00000100
,
00000001
00000000
00001000
00000100
00000000
00010000
00000000
00001000
,
01000000
00000000
00100000
10000000
01000000
00000000
00100000
00010000
,
01000000
00000000
00001000
00010000
00000000
00001000
00000000
01000000
,
00100000
00000000
01000000
00001000
00000000
00010000
00000100
00000010
,
00000001
00000000
00000100
00000010
00000000
00000100
00000000
00000001
,
00001000
00000100
00001000
00000000
00000010
00001000
00000100
00010000
,
00001000
00000000
01000000
00100000
00000000
10000000
00000000
00010000
,
01000000
00000000
00100000
01000000
00000000
00010000
00100000
00001000
,
01000000
00000000
00001000
00000010
00000000
00000001
00000000
00000100
,
00000010
00000000
00000000
00001000
00000000
00000000
00001000
00000000
00000100
00000000
00000000
00010000
00000000
00000000
00010000
00000000
,
00001000
00000000
01000000
00010000
00000000
10000000
01000000
00100000
,
00000000
00010000
00000000
01000000
00100000
01000000
00001000
00010000
,
00001000
00000010
00000001
00000010
00001000
00010000
00100000
10000000
,
00100000
01000000
00010000
00100000
10000000
00000000
00010000
00000000
,
01010000
00000000
01000000
00001000
00000000
00001000
00010000
00000100
,
00000000
00000010
00000000
00000001
00000100
00000000
00000010
00000000
,
00001000
00000000
00000100
00000000
00010000
00001000
00000000
00001000
,
00010000
00000000
00000000
00000000
01000000
00000000
00000000
00000000
00100000
00000000
00000000
10000000
00000000
00000000
00100000
00000000
,
01000000
00000000
00000000
00010000
00000000
00000000
00100000
00000000
01000000
00000000
00000000
00000000
00100000
00000000
00010000
00000000
,
01000000
00000000
00000000
00001000
00000000
00000000
00010000
00000000
00001000
00000000
00000000
00000000
00000010
00000000
00000001
00000000
,
00000100
00000000
00000000
00000100
00000000
00000000
00000010
00000000
00001000
00000000
00000000
00001000
00000000
00000000
00000100
00000000
,
00010000
00000000
01000000
00010000
01000000
00000000
10000000
00010000
,
02002000
00000000
00000000
00000000
03003000
10000000
00010000
01000000
,
00100000
00000000
10000000
01000000
00100000
00000000
00100000
00010000
,
00000000
00010000
01000000
00001000
00000000
00010000
00001000
01000000
,
00100000
00000000
01000000
00001000
00010000
00000000
00001000
00000010
,
00000000
00000010
00000001
00000000
00000100
00000000
00000010
00000001
,
00000010
00000000
00000010
00001000
00000000
00000100
00010000
00001000
,
01000000
00000000
01000000
00100000
00000000
10000000
01000000
10000000
,
00010000
00000000
01000000
00100000
01000000
00000000
00001000
00010000
,
00022000
00000000
00033000
00000000
,
00001000
00000010
00000000
00000010
00000000
00000000
00000001
00000000
00000100
00000010
00000000
00000010
00000000
00000000
00001000
00000000
,
00000100
00010000
00000000
00010000
00000000
00000000
00001000
00000000
01000000
00100000
00000000
00100000
00000000
00000000
10000000
00000000
,
00010000
01000000
00000000
00010000
00000000
00000000
01000000
00000000
00001000
00010000
00000000
00000100
00000000
00000000
00010000
00000000
,
00000010
00001000
00000000
00000100
00000000
00000000
00010000
00000000
00000100
00000010
00000000
00000001
00000000
00000000
00000100
00000000
,
00000010
00001000
00000000
00001000
00000000
00000000
00000100
00000000
00010000
00001000
00000000
00001000
00000000
00000000
01000000
00000000
,
00100000
10000000
00000000
10000000
00000000
00000000
00010000
00000000
00100000
01000000
00000000
01000000
00000000
00000000
10000000
00000000
,
00010000
01000000
00000000
00001000
00000000
00000000
00010000
00000000
00000100
00000010
00000000
00000010
00000000
00000000
00000001
00000000
,
00000100
00000010
00000000
00001000
00000000
00000000
00000100
00000000
00010000
00001000
00000000
01000000
00000000
00000000
00011000
00000000
,
02002000
00000000
00000000
00000000
,
03003000
00000000
00000000
00000000
;

//---------------dance-double - ----------------
#NOTES:
     dance-double:
     :
     Medium:
     5:
     0.265918,0.277334,0.094011,0.112814,0.000000,198.000000,188.000000,10.000000,12.000000,0.000000,0.000000,0.265918,0.277334,0.094011,0.112814,0.000000,198.000000,188.000000,10.000000,12.000000,0.000000,0.000000:
00000000
00000000
00000000
00000000
,
00000000
00000000
00000000
00000000
,
00000000
00000000
00000000
00000000
,
00000000
00000000
00000000
00000000
,
00100000
00000000
00010000
00000000
,
01000000
00000000
00001000
00000000
,
00000010
00000000
00000001
00000000
,
00002020
00000000
00000000
00000000
,
00003030
00000000
00000000
00000000
,
00001000
00000100
00001000
00000000
00000010
00000000
00000100
00000000
,
00000001
00001000
00000100
00010000
,
00001000
00010000
00001000
00000000
01000000
00000000
00100000
00000000
,
10000000
00010000
00100000
10000000
,
00100000
00010000
00100000
00000000
00010000
00000000
01000000
00000000
,
10000000
00100000
00001000
01000000
,
00001000
00010000
00001000
00000000
00000100
00000000
00000010
00000000
,
00000001
00000100
00001000
00000010
,
00010000
00001000
01000000
00100000
,
10000000
01000000
00010000
01000000
,
00100000
00001000
01000000
00001000
,
00010000
00000000
00010000
00000000
,
00001000
00000010
00000001
00001000
,
00000010
00010000
00001000
01000000
,
00100000
10000000
01000000
00100000
,
00010000
00000000
00010000
00000000
,
01010000
00100000
01000000
00001000
,
00010000
00000100
00000010
00000001
,
00000100
00000010
00001000
00000100
,
00000110
00000000
00001001
00000000
,
00001010
00010000
00001000
01000000
,
00100000
10000000
00010000
00100000
,
00001000
00001000
00010000
00010000
,
00020200
00030300
00000100
00000010
,
00000001
00000001
00001000
00000010
,
00001000
00000000
00000100
00010000
,
00001000
00000000
01000000
00000000
00100000
00000000
10000000
00010000
,
10000000
00000000
00100000
01000000
,
00010000
00010000
00010000
00000000
,
00100000
00100000
00100000
00000000
,
00010000
01000000
00001000
00000010
,
00000001
00000100
00000010
00001000
,
00020020
00000000
00030030
00000000
,
00001100
00000000
00000000
00000100
00001000
00000000
00000000
00000000
,
00000010
00000100
00000001
00001000
,
00000100
00000000
00000000
00010000
00001000
00000000
01000000
00000000
,
00100000
10000000
00010000
00000000
,
01000000
00100000
10000000
00000000
,
00010000
01000000
00001000
00000000
,
00020000
00030000
00002000
00003000
,
00000220
00000000
00000330
00000000
,
00001000
00000100
00001000
00000000
00000010
00000000
00001000
00000000
,
00010000
00100000
10000000
01000000
,
00010000
01000000
00010000
00000000
00100000
00000000
00010000
00000000
,
01000000
00010000
00001000
00000010
,
00000001
00000100
00000001
00000000
00001000
00000000
00000100
00000000
,
00000010
00001000
00010000
00100000
,
10000000
01000000
10000000
00000000
00010000
00000000
01000000
00000000
,
00010000
00000000
00100000
00000000
,
00202000
00000000
00000000
00000000
,
00303000
00000000
00000000
00000000
;

//---------------dance-double - ----------------
#NOTES:
     dance-double:
     :
     Easy:
     1:
     0.000000,0.000000,0.000000,0.000000,0.000000,0.000000,0.000000,0.000000,0.000000,0.000000,0.000000,0.000000,0.000000,0.000000,0.000000,0.000000,0.000000,0.000000,0.000000,0.000000,0.000000,0.000000:
00000000
00000000
00000000
00000000
;
