#TITLE:DAM DARIRAM;
#SUBTITLE:(B4 ZA BEAT MIX);
#ARTIST:JOGA;
#TITLETRANSLIT:;
#SUBTITLETRANSLIT:;
#ARTISTTRANSLIT:;
#GENRE:Eurobeat;
#CREDIT:;
#BANNER:Dam Dariram (B4 Za Beat Mix)-bn.png;
#BACKGROUND:Dam Dariram (B4 Za Beat Mix)-bg.png;
#LYRICSPATH:;
#CDTITLE:;
#MUSIC:Joga - Dam Dariram (B4 Za Beat Mix).ogg;
#OFFSET:-1.396651;
#SAMPLESTART:52.225559;
#SAMPLELENGTH:12.000000;
#SELECTABLE:YES;
#BPMS:0.000000=154.000000
;
#STOPS:
;
#BGCHANGES:
;
#KEYSOUNDS:;
#ATTACKS:;

//---------------dance-single - ----------------
#NOTES:
     dance-single:
     :
     Hard:
     12:
     0.471672,0.540278,0.173166,0.000000,0.259749,286.000000,271.000000,15.000000,0.000000,0.000000,0.000000,0.471672,0.540278,0.173166,0.000000,0.259749,286.000000,271.000000,15.000000,0.000000,0.000000,0.000000:
0000
0000
0000
0000
,
0000
0000
0000
0000
,
0000
0000
0000
0000
,
0000
0000
0000
0000
,
0000
0000
1000
0000
0000
0010
0000
0000
0100
0000
0000
0001
0000
0000
1000
0000
,
0000
0000
0001
0000
0000
0010
0000
0000
0100
0000
0000
1000
0000
0000
0001
0000
,
0000
0000
1000
0000
0000
0010
0000
0000
0100
0000
0000
0010
0000
0000
1000
0000
,
1001
0000
0000
0000
,
0001
0000
0000
0010
0000
0000
0100
0000
0000
1000
0000
0000
0001
0000
0100
0000
,
0010
0000
0000
1000
0000
0000
0100
0000
0000
0010
0000
0000
0100
0000
1000
0000
,
0001
0000
0000
0100
0000
0000
0010
0000
0000
1000
0000
0000
0100
0000
1000
0000
,
0001
0000
0000
0001
0000
0000
1000
0000
0000
1000
0000
0000
0010
0000
0100
0000
,
0001
0000
0000
0100
0000
0000
0010
0000
0000
1000
0000
0000
0100
0000
0010
0000
,
0001
0000
0000
0010
0000
0000
0100
0000
0000
1000
0000
0000
0001
0000
0100
0000
,
0010
0000
0000
1000
0000
0000
0001
0000
0000
0100
0000
0000
0010
0000
0100
0000
,
0001
0000
0000
0010
0000
0000
0100
0000
0000
1000
0000
0000
0001
0000
0010
0000
,
0100
0010
0000
0010
0000
0001
0100
0001
,
0000
1000
0100
1000
0000
0010
0100
0001
,
0001
1000
0000
1000
0000
0010
1000
0100
,
0000
0010
0001
0100
0000
0010
1000
0100
,
0100
0010
0000
0010
0000
0100
1000
0001
,
0000
0010
0100
0001
0000
1000
0100
0010
,
0010
0001
0000
1000
0010
0100
0000
0100
,
0001
1000
0100
1000
0001
0100
0001
1000
,
0010
0000
1000
0100
0001
0100
1000
0001
,
0000
0000
0001
0100
1000
0100
0001
1000
,
0000
0000
0010
0100
0000
0001
0000
1000
,
0000
0000
0100
0010
0000
0100
0010
0000
0001
0000
0000
1000
0000
0000
0100
0000
,
1000
0000
0001
0100
0010
1000
0100
0010
,
0000
0000
1000
0100
0010
0001
0100
0010
,
0000
1100
0000
0101
0000
1001
0000
0110
,
0000
0101
1100
0000
0000
0000
0000
0000
,
0011
0000
0000
1010
0000
0110
0001
0010
,
0100
0000
1000
0010
0100
0000
0001
0010
,
0100
0000
1000
0010
0100
0001
0010
0100
,
1000
0000
0001
0100
0010
1000
0000
1100
,
0000
0000
0000
0000
0000
0010
0001
0100
,
0010
0000
1000
0100
0010
0000
0001
0100
,
0010
0000
1000
0100
0010
0001
0100
0010
,
1000
0000
0100
0010
0001
0100
0000
0101
,
0000
0000
1000
0001
1000
0100
0010
0001
,
0100
0000
0000
0010
0000
0000
1000
0000
0100
0000
0000
0010
0000
0000
0001
0000
,
1001
0000
0000
0000
,
1000
0000
0000
0010
0000
0000
0100
0000
0000
0001
0000
0000
1000
0000
0100
0000
,
0010
0000
0000
0001
0000
0000
0100
0000
0000
0010
0000
0000
0100
0000
0001
0000
,
1000
0000
0000
0100
0000
0000
0010
0000
0000
0001
0000
0000
0100
0000
0001
0000
,
1000
0000
0000
1000
0000
0000
0001
0000
0000
0001
0000
0000
0010
0000
0100
0000
,
1000
0000
0000
0100
0000
0000
0010
0000
0000
0001
0000
0000
0100
0000
0010
0000
,
1000
0000
0000
0010
0000
0000
0100
0000
0000
0001
0000
0000
1000
0000
0100
0000
,
0010
0000
0000
0001
0000
0000
1000
0000
0000
0100
0000
0000
0010
0000
0100
0000
,
1000
0000
0000
0010
0000
0000
0100
0000
0000
0001
0000
0000
1000
0000
0010
0000
,
0100
0000
0000
0010
0000
0000
1000
0000
1100
0000
0000
0010
0000
0000
0001
0000
,
0101
0000
0000
0000
;

//---------------dance-single - ----------------
#NOTES:
     dance-single:
     :
     Medium:
     9:
     0.377667,0.540278,0.265521,0.069266,0.000000,229.000000,206.000000,23.000000,6.000000,0.000000,0.000000,0.377667,0.540278,0.265521,0.069266,0.000000,229.000000,206.000000,23.000000,6.000000,0.000000,0.000000:
0000
0000
0000
0000
,
0000
0000
0000
0000
,
0000
0000
0000
0000
,
0000
0000
0000
0000
,
1000
0100
0000
1000
0100
0000
0010
0000
,
0001
0100
0000
0001
0100
0000
0010
0000
,
0001
1000
0000
0001
1000
0000
0100
0000
,
2002
0000
3003
0000
,
1000
0000
0010
0000
0001
0100
0001
0000
,
0001
0000
0010
0000
1000
0100
1000
0000
,
1000
0000
0010
0000
0001
0100
0001
0000
,
0010
0100
1000
0001
,
0100
0000
0010
0000
0001
0100
0001
0000
,
0100
0000
0010
0000
1000
0100
1000
0000
,
0100
0000
0010
0000
1000
0100
1000
0000
,
0001
0001
1000
1000
,
0001
0010
0000
0010
0000
0100
0000
0100
,
0000
0001
0000
0001
0000
1000
0000
1000
,
0000
0010
0000
0010
0000
0100
0000
0100
,
0000
1000
0000
1000
0000
0001
0000
0001
,
0000
0100
0000
0100
0000
0010
0000
0010
,
0000
1000
0000
1000
0000
0001
0000
0001
,
0000
0010
0000
0010
0000
0100
0000
0100
,
0000
1000
0000
1000
0000
0001
0000
0001
,
1000
0000
0010
1000
0010
1000
0010
0000
,
0000
0000
0100
0001
0100
0001
0100
0000
,
0000
0000
0001
1000
0000
0100
0000
0010
,
0000
0001
1000
0000
1100
0000
0011
0000
,
0000
0000
0010
0001
0010
0001
0010
0000
,
0000
0000
0100
1000
0100
1000
0100
0000
,
0000
0000
1000
0001
0000
0100
0000
0010
,
0000
1000
0001
0000
0000
0000
0000
0000
,
1001
0000
0000
1001
0000
0000
0000
0000
,
1100
0001
1100
0001
,
1100
0000
1000
0000
0101
0000
0010
0100
,
0010
0010
0100
0100
,
0020
0030
0000
0000
,
0101
1000
0101
1000
,
0101
0000
0001
0000
1100
0000
0010
0100
,
0010
0010
0100
0100
,
0020
0030
0001
1000
,
0100
0001
0010
1000
,
0220
0000
0330
0000
,
1000
0000
1000
0100
1000
0000
0010
0000
,
0001
0000
0001
0100
0001
0000
0010
0000
,
1000
0000
1000
0100
1000
0000
0010
0000
,
0101
0101
1100
1100
,
0010
0000
0001
0000
0100
0010
0100
0000
,
0010
0000
1000
0000
0100
0010
0100
0000
,
0010
0000
0001
0000
0100
0010
0100
0000
,
1010
1010
0011
0011
,
1001
1000
0100
0010
0001
0100
0010
1000
,
0001
0000
0000
0000
;

//---------------dance-single - ----------------
#NOTES:
     dance-single:
     :
     Easy:
     5:
     0.310050,0.540278,0.277066,0.115444,0.000000,188.000000,164.000000,24.000000,10.000000,0.000000,0.000000,0.310050,0.540278,0.277066,0.115444,0.000000,188.000000,164.000000,24.000000,10.000000,0.000000,0.000000:
0000
0000
0000
0000
,
0000
0000
0000
0000
,
0000
0000
0000
0000
,
0000
0000
0000
0000
,
0000
1000
1000
1000
,
0000
0001
0001
0001
,
0000
0010
0010
0010
,
0220
0000
0330
0000
,
0001
0001
1000
1000
,
0001
0001
1000
1000
,
0001
0010
1000
0100
,
0001
0100
1000
0010
,
0100
0100
0010
0010
,
0100
0100
0010
0010
,
1000
0100
0001
0010
,
0001
0100
1000
0010
,
1000
0100
1000
0100
,
0010
0001
1000
0100
,
1000
0100
1000
0100
,
0010
0001
1000
0100
,
1001
0100
0001
0100
,
0010
0100
0001
1000
,
0010
0010
0100
0100
,
0002
2003
3002
1003
,
0100
0100
0010
0110
,
0000
1000
0001
1001
,
0000
0001
0001
0100
,
1000
0010
0100
0100
,
0110
0001
0001
1000
,
0000
0110
1000
0001
,
1000
1000
0100
0100
,
0001
0010
0100
1000
,
0020
0000
0030
0000
,
1001
0000
1001
0000
,
1001
0000
1001
0000
,
0010
0010
0010
0010
,
0020
0030
0000
0000
,
0110
0000
0110
0000
,
0110
0000
0110
0000
,
1000
1000
1000
1000
,
2000
3000
0000
0000
,
0001
0001
1000
1000
,
0220
0000
0330
0000
,
0001
0100
1000
0010
,
1000
0100
0001
0010
,
0100
0100
0010
0010
,
0001
0100
0001
0100
,
0010
0010
1000
1000
,
0001
0001
0010
0010
,
1000
0100
0001
0010
,
1100
1100
0101
0101
,
1001
1010
0011
0101
,
1001
0000
0000
0000
;

//---------------dance-single - ----------------
#NOTES:
     dance-single:
     :
     Beginner:
     3:
     0.143481,0.210108,0.150077,0.057722,0.000000,87.000000,74.000000,13.000000,5.000000,0.000000,0.000000,0.143481,0.210108,0.150077,0.057722,0.000000,87.000000,74.000000,13.000000,5.000000,0.000000,0.000000:
// measure 0
0000
0000
0000
0000
,  // measure 1
0000
0000
0000
0000
,  // measure 2
0000
0000
0000
0000
,  // measure 3
0000
0000
0000
0000
,  // measure 4
1001
0000
0000
0000
,  // measure 5
0010
0000
0000
0000
,  // measure 6
0100
0000
0000
0000
,  // measure 7
1001
0000
0000
0000
,  // measure 8
1000
0000
1000
0000
,  // measure 9
1000
0000
0000
0000
,  // measure 10
0001
0000
0001
0000
,  // measure 11
0001
0000
0000
0000
,  // measure 12
0100
0000
0100
0000
,  // measure 13
0100
0000
0000
0000
,  // measure 14
0010
0000
0010
0000
,  // measure 15
0010
0000
0000
0000
,  // measure 16
1000
0000
0001
0000
,  // measure 17
1000
0000
0001
0000
,  // measure 18
1001
0000
0010
0000
,  // measure 19
0100
0000
0010
0000
,  // measure 20
0110
0000
0001
0000
,  // measure 21
0100
0000
0001
0000
,  // measure 22
0110
0000
1000
0000
,  // measure 23
0200
0000
0300
0000
,  // measure 24
0010
0000
0000
0000
,  // measure 25
0100
0000
0000
0000
,  // measure 26
1001
0000
0000
0000
,  // measure 27
0010
0020
0030
0000
,  // measure 28
0100
0000
0000
0000
,  // measure 29
0100
0000
0000
0000
,  // measure 30
0001
0000
1000
0000
,  // measure 31
0100
0200
0300
0000
,  // measure 32
0020
0000
0030
0000
,  // measure 33
1001
0000
0001
0000
,  // measure 34
1000
0000
0001
0000
,  // measure 35
0110
0000
0100
0000
,  // measure 36
0110
0000
0000
0000
,  // measure 37
0110
0000
0010
0000
,  // measure 38
0100
0000
0010
0000
,  // measure 39
1001
0000
0001
0000
,  // measure 40
1000
0000
0000
0000
,  // measure 41
0100
0000
0010
0000
,  // measure 42
0110
0000
0000
0000
,  // measure 43
0001
0001
0000
0000
,  // measure 44
0000
0000
0000
0000
,  // measure 45
1000
1000
0000
0000
,  // measure 46
0000
0000
0000
0000
,  // measure 47
0010
0010
0000
0000
,  // measure 48
0100
0100
0000
0000
,  // measure 49
0001
0001
0000
0000
,  // measure 50
1000
1000
0000
0000
,  // measure 51
0200
0000
0300
0000
,  // measure 52
1001
0000
0000
0000
;
