#TITLE:Da Roots;
#SUBTITLE:(Folk Mix);
#ARTIST:Mind Reflection;
#TITLETRANSLIT:;
#SUBTITLETRANSLIT:;
#ARTISTTRANSLIT:;
#GENRE:;
#CREDIT:;
#BANNER:;
#BACKGROUND:;
#LYRICSPATH:;
#CDTITLE:;
#MUSIC:Da Roots (Folk Mix).ogg;
#OFFSET:-0.300000;
#SAMPLESTART:11.139992;
#SAMPLELENGTH:15.000005;
#SELECTABLE:YES;
#DISPLAYBPM:133.000;
#BPMS:0.000000=132.980347
,200.000000=127.200409
,203.000000=118.000488
,204.000000=101.660561
,205.000000=87.880753
,206.000000=83.760696
,206.500000=80.940742
;
#STOPS:
;
#BGCHANGES:;
#KEYSOUNDS:;
#ATTACKS:;

//---------------dance-single - ----------------
#NOTES:
     dance-single:
     :
     Hard:
     13:
     0.659097,0.666421,0.328084,0.041010,0.271695,450.000000,418.000000,32.000000,4.000000,0.000000,0.000000,0.659097,0.666421,0.328084,0.041010,0.271695,450.000000,418.000000,32.000000,4.000000,0.000000,0.000000:
0000
0000
0000
0000
,
0000
0000
0000
0000
,
1002
0000
1003
0000
1000
0100
0001
0100
,
2001
0000
3001
0000
1000
0010
0001
0010
,
1002
0000
1003
0000
1000
0100
0001
0100
,
1000
0010
0001
0010
1000
0100
0001
0100
,
1001
0000
0000
0000
1100
0000
0000
1000
0100
0000
0010
0000
0100
0000
1000
0000
,
0100
0000
0010
0000
0100
0000
1000
0000
0100
0000
0010
0100
1000
0000
0100
0000
,
1001
0000
0000
0000
0101
0000
0000
0001
0100
0000
0010
0000
0100
0000
0001
0000
,
0100
0010
0100
0001
0100
0010
0100
0001
,
1001
0000
0000
0000
0110
0000
0000
0010
0100
0000
0010
0000
0001
0000
0010
0000
,
0100
0000
0010
0000
1000
0000
0010
0000
0100
0000
0010
0001
0010
0000
0100
0000
,
1001
0000
0000
0000
0110
0000
0000
0100
0010
0000
0100
0000
0001
0000
0100
0000
,
0010
0100
1000
0100
0010
0100
0001
0100
,
0110
0000
0001
0100
0001
0000
0100
0001
0100
0000
1000
0000
0100
0000
1000
0000
,
0100
0000
1000
0100
1000
0000
0010
0000
0010
0000
0100
0000
0100
0000
0001
0000
,
0001
0000
1000
0100
1000
0000
0001
0100
0001
0000
1000
0000
0100
0000
1000
0000
,
0010
0000
0100
0001
0100
0000
0010
0000
1000
0000
0100
1000
0001
0000
0100
0000
,
0010
0000
0100
0001
0100
0000
0010
0000
1000
0000
0100
0000
1000
0000
0010
0000
,
0100
0000
0010
0100
0001
0000
0100
0000
0010
0000
1000
0000
0100
0000
1000
0000
,
1000
0000
0001
0100
0001
0000
1000
0100
1000
0000
0100
0000
0010
0000
0001
0000
,
0100
0000
0010
0100
0001
0000
0100
0010
1000
0000
0000
0000
1001
0000
0100
0000
,
1001
0000
0000
0000
1100
0000
0000
1000
0100
0000
0010
0000
0100
0000
1000
0000
,
0100
0000
0010
0000
0100
0000
1000
0000
0100
0000
0010
0100
1000
0000
0100
0000
,
1001
0000
0000
0000
0101
0000
0000
0001
0100
0000
0010
0000
0100
0000
0001
0000
,
0100
0010
0100
0001
0100
0010
0100
0001
,
1001
0100
0010
0100
0001
0100
0010
1000
,
0100
1000
0010
1000
0100
1000
0010
0100
,
0001
0100
0010
1000
0001
1000
0001
0100
,
0010
1000
0010
1000
0010
0100
0010
0100
0001
0100
0001
0100
0010
0100
0010
1000
,
0100
0000
0000
0000
1100
0000
0000
1000
0100
0000
0010
0000
0100
0000
1000
0000
,
0100
0000
0010
0000
0100
0000
1000
0000
0100
0000
0010
0100
1000
0000
0100
0000
,
1001
0000
0000
0000
0101
0000
0000
0001
0100
0000
0010
0000
0100
0000
0001
0000
,
0100
0010
0100
0001
0100
0010
0100
0001
,
0110
0000
0001
0100
0001
0000
0100
0001
0100
0000
1000
0000
0100
0000
1000
0000
,
0100
0000
1000
0100
1000
0000
0010
0000
0010
0000
0100
0000
0100
0000
0001
0000
,
0001
0000
1000
0100
1000
0000
0001
0100
0001
0000
1000
0000
0100
0000
1000
0000
,
0010
0000
0100
0001
0100
0000
0010
0000
1000
0000
0100
1000
0001
0000
0100
0000
,
0010
0000
0100
0001
0100
0000
0010
0000
1000
0000
0100
0000
1000
0000
0010
0000
,
0100
0000
0010
0100
0001
0000
0100
0000
0010
0000
1000
0000
0100
0000
1000
0000
,
1000
0000
0001
0100
0001
0000
1000
0100
1000
0000
0100
0000
0010
0000
0001
0000
,
0100
0000
0010
0100
0001
0000
0100
0010
1000
0000
0000
0000
1001
0000
0100
0000
,
1001
0000
0000
0000
1100
0000
0000
1000
0100
0000
0010
0000
0100
0000
1000
0000
,
0100
0000
0010
0000
0100
0000
1000
0000
0100
0000
0010
0100
1000
0000
0100
0000
,
1001
0000
0000
0000
0101
0000
0000
0001
0100
0000
0010
0000
0100
0000
0001
0000
,
0100
0010
0100
0001
0100
0010
0100
0001
,
1001
0000
0000
0000
0110
0000
0000
0010
0100
0000
0010
0000
0001
0000
0010
0000
,
0100
0000
0010
0000
1000
0000
0010
0000
0100
0000
0010
0001
0010
0000
0100
0000
,
1001
0000
0000
0000
0110
0000
0000
0100
0010
0000
0100
0000
0001
0000
0100
0000
,
0010
0100
1000
0100
0010
0100
0001
0100
,
1001
0000
0000
0000
0100
0000
0000
1000
0010
0000
0100
0000
0001
0000
0100
0000
,
0010
1000
0100
0001
0010
1000
0200
0000
,
0300
0000
0000
0000
;

//---------------dance-single - ----------------
#NOTES:
     dance-single:
     :
     Medium:
     8:
     0.370559,0.373196,0.061516,0.051263,0.000000,253.000000,247.000000,6.000000,5.000000,0.000000,0.000000,0.370559,0.373196,0.061516,0.051263,0.000000,253.000000,247.000000,6.000000,5.000000,0.000000,0.000000:
0000
0000
0000
0000
,
0000
0000
0000
0000
,
1002
0000
1003
0000
0000
0100
0001
0000
,
2001
0000
3001
0000
0000
0100
1000
0000
,
1002
0000
1003
0000
0000
0100
0001
0000
,
2001
0000
3001
0000
1000
0100
1000
0100
,
1000
0000
0100
0000
1000
0010
0100
0000
,
0001
0000
0100
0000
0010
0100
0001
0000
,
1000
0000
0100
0000
1000
0010
0100
0000
,
0001
0000
0100
0000
0010
0100
0001
0000
,
1000
0000
0100
0000
0001
0100
1000
0000
,
1000
0000
0010
0000
0001
0010
1000
0000
,
1000
0000
0100
0000
0001
0100
1000
0000
,
1000
0000
0010
0000
0001
0010
1000
0000
,
1000
1000
1000
0000
0001
0000
0100
0000
,
0001
0001
0001
0000
0100
0000
0010
0000
,
1000
1000
1000
0000
1000
0000
0010
0000
,
0100
0100
0100
0000
0010
0000
0100
0000
,
0010
0010
0010
0000
0010
0000
1000
0000
,
0100
0100
0100
0000
1000
0000
0001
0000
,
0100
0100
0100
0000
0001
0000
1000
0000
,
0001
0001
0001
0000
1000
0000
0100
0000
,
1000
0000
0100
0000
0001
0100
1000
0000
,
1000
0000
0010
0000
0001
0010
1000
0000
,
1000
0000
0100
0000
0001
0100
1000
0000
,
1000
0000
0010
0000
0001
0010
1000
0000
,
1001
0100
1000
0100
,
1000
0100
0100
0100
,
1001
0100
0001
0100
,
0001
0100
0100
0100
,
1000
0000
0100
0000
0001
0100
1000
0000
,
1000
0000
0010
0000
0001
0010
1000
0000
,
1000
0000
0100
0000
0001
0100
1000
0000
,
1000
0000
0010
0000
0001
0010
1000
0000
,
1000
1000
1000
0000
0001
0000
0100
0000
,
0001
0001
0001
0000
0100
0000
0010
0000
,
1000
1000
1000
0000
1000
0000
0010
0000
,
0100
0100
0100
0000
0010
0000
0100
0000
,
0010
0010
0010
0000
0010
0000
1000
0000
,
0100
0100
0100
0000
1000
0000
0001
0000
,
0100
0100
0100
0000
0001
0000
1000
0000
,
0001
0001
0001
0000
1000
0000
0100
0000
,
1000
0000
0100
0000
1000
0010
0100
0000
,
0001
0000
0100
0000
0010
0100
0001
0000
,
1000
0000
0100
0000
1000
0010
0100
0000
,
0001
0000
0100
0000
0010
0100
0001
0000
,
1000
0000
0100
0000
0001
0100
1000
0000
,
1000
0000
0010
0000
0001
0010
1000
0000
,
1000
0000
0100
0000
0001
0100
1000
0000
,
1000
0000
0010
0000
0001
0010
1000
0000
,
1000
0000
0100
0000
0001
0100
1000
0100
,
1000
0010
0001
0010
1000
0100
2000
0000
,
3000
0000
0000
0000
;

//---------------dance-single - ----------------
#NOTES:
     dance-single:
     :
     Easy:
     5:
     0.347125,0.373196,0.379347,0.051263,0.000000,237.000000,200.000000,37.000000,5.000000,0.000000,0.000000,0.347125,0.373196,0.379347,0.051263,0.000000,237.000000,200.000000,37.000000,5.000000,0.000000,0.000000:
// measure 0
0000
0000
0000
0000
,  // measure 1
0000
0000
0000
0000
,  // measure 2
1000
0100
1000
1000
,  // measure 3
0001
0100
0001
0001
,  // measure 4
1000
0100
1000
1000
,  // measure 5
0001
0100
0001
1001
,  // measure 6
1000
1000
0001
0001
,  // measure 7
0100
0100
0010
0110
,  // measure 8
0001
0001
1000
1000
,  // measure 9
0010
0010
0100
1001
,  // measure 10
1000
1000
0001
0001
,  // measure 11
0100
0100
0010
0110
,  // measure 12
0001
0001
1000
1000
,  // measure 13
0010
0100
0010
0101
,  // measure 14
1100
1000
0010
0100
,  // measure 15
0101
0001
0010
0100
,  // measure 16
1100
0100
0010
0001
,  // measure 17
0011
0010
0100
1000
,  // measure 18
1010
0100
0001
0010
,  // measure 19
1001
0100
1000
0010
,  // measure 20
1001
0100
1001
0100
,  // measure 21
1001
0110
1001
0100
,  // measure 22
1000
1000
0010
0010
,  // measure 23
0100
0100
0001
0101
,  // measure 24
0001
0001
0100
0100
,  // measure 25
0010
0010
1000
1100
,  // measure 26
2000
0100
0100
3100
,  // measure 27
0002
0100
0100
0103
,  // measure 28
2000
0100
0100
3100
,  // measure 29
0002
0100
0100
0103
,  // measure 30
1000
1000
0001
0001
,  // measure 31
0100
0100
0010
0110
,  // measure 32
0001
0001
1000
1000
,  // measure 33
0010
0010
0100
1001
,  // measure 34
1100
1000
0010
0100
,  // measure 35
0101
0001
0010
0100
,  // measure 36
1100
0100
0010
0001
,  // measure 37
0011
0010
0100
1000
,  // measure 38
1010
0100
0001
0010
,  // measure 39
1001
0100
1000
0010
,  // measure 40
1001
0100
1001
0100
,  // measure 41
1001
0110
1001
0100
,  // measure 42
1000
1000
0001
0001
,  // measure 43
0100
0100
0010
0110
,  // measure 44
0001
0001
1000
1000
,  // measure 45
0010
0010
0100
1001
,  // measure 46
1000
1000
0001
0001
,  // measure 47
0100
0100
0010
0110
,  // measure 48
0001
0001
1000
1000
,  // measure 49
0010
0100
0010
0101
,  // measure 50
1001
0100
1001
0100
,  // measure 51
1000
0100
0010
0002
,  // measure 52
0003
0000
0000
0000
;

//---------------dance-single - ----------------
#NOTES:
     dance-single:
     :
     Beginner:
     3:
     0.162577,0.211204,0.020505,0.041010,0.000000,111.000000,109.000000,2.000000,4.000000,0.000000,0.000000,0.162577,0.211204,0.020505,0.041010,0.000000,111.000000,109.000000,2.000000,4.000000,0.000000,0.000000:
// measure 0
0000
0000
0000
0000
,  // measure 1
0000
0000
0000
0000
,  // measure 2
1000
1000
1000
0000
,  // measure 3
1000
1000
1000
0000
,  // measure 4
0001
0001
0001
0000
,  // measure 5
0001
0001
0001
0001
,  // measure 6
0001
0000
0001
0000
,  // measure 7
1000
0000
1000
0000
,  // measure 8
0010
0000
0010
0000
,  // measure 9
0100
0000
0100
0000
,  // measure 10
0001
0000
0001
0000
,  // measure 11
1000
0000
1000
0000
,  // measure 12
0010
0000
0010
0000
,  // measure 13
0100
0000
0100
0000
,  // measure 14
0001
0000
0000
0000
,  // measure 15
0001
0000
0000
0000
,  // measure 16
1000
0000
0000
0000
,  // measure 17
1000
0000
0000
0000
,  // measure 18
0010
0010
0010
0000
,  // measure 19
0010
0010
0010
0000
,  // measure 20
0100
0100
0100
0000
,  // measure 21
0100
0100
0100
0100
,  // measure 22
0100
0000
0100
0000
,  // measure 23
0001
0000
0001
0000
,  // measure 24
1000
0000
1000
0000
,  // measure 25
0010
0000
0010
0000
,  // measure 26
0100
0100
0100
0000
,  // measure 27
0001
0001
0001
0000
,  // measure 28
0010
0010
0010
0000
,  // measure 29
1000
1000
1000
1000
,  // measure 30
1000
0000
0001
0000
,  // measure 31
0100
0000
0010
0000
,  // measure 32
0100
0000
0001
0000
,  // measure 33
1000
0000
0100
0000
,  // measure 34
1000
1000
0000
0000
,  // measure 35
0001
0001
0000
0000
,  // measure 36
0100
0100
0000
0000
,  // measure 37
0010
0010
0000
0000
,  // measure 38
1000
1000
0000
0000
,  // measure 39
0001
0001
0000
0000
,  // measure 40
0100
0100
0000
0000
,  // measure 41
0010
0010
0000
0000
,  // measure 42
1000
0000
1000
0000
,  // measure 43
0001
0000
0001
0000
,  // measure 44
1000
0000
0001
0000
,  // measure 45
1000
0000
0001
0000
,  // measure 46
0100
0000
0100
0000
,  // measure 47
0010
0000
0010
0000
,  // measure 48
0100
0000
0010
0000
,  // measure 49
0100
0000
0010
0000
,  // measure 50
2002
0000
3003
0000
,  // measure 51
2002
0000
3003
0000
;
