#VERSION:0.83;
#TITLE:DYNAMITE RAVE;
#SUBTITLE:(B4 ZA BEAT MIX);
#ARTIST:NAOKI;
#TITLETRANSLIT:;
#SUBTITLETRANSLIT:;
#ARTISTTRANSLIT:;
#GENRE:Happy Hardcore;
#ORIGIN:;
#CREDIT:;
#BANNER:DYNAMITE RAVE (B4 ZA BEAT MIX).png;
#BACKGROUND:DYNAMITE RAVE (B4 ZA BEAT MIX)-bg.png;
#PREVIEWVID:;
#JACKET:DYNAMITE RAVE (B4 ZA BEAT MIX)-jacket.png;
#CDIMAGE:;
#DISCIMAGE:;
#LYRICSPATH:;
#CDTITLE:;
#MUSIC:DYNAMITE RAVE (B4 ZA BEAT MIX).ogg;
#OFFSET:0.000159;
#SAMPLESTART:50.786995;
#SAMPLELENGTH:15.000000;
#SELECTABLE:YES;
#DISPLAYBPM:170.000000;
#BPMS:0.000=170.022;
#STOPS:;
#DELAYS:;
#WARPS:;
#TIMESIGNATURES:0.000=4=4;
#TICKCOUNTS:0.000=4;
#COMBOS:0.000=1;
#SPEEDS:0.000=1.000=0.000=0;
#SCROLLS:0.000=1.000;
#FAKES:;
#LABELS:0.000=Song Start;
#BGCHANGES:;
#KEYSOUNDS:;
#ATTACKS:
;

//---------------dance-single - ----------------
#NOTEDATA:;
#CHARTNAME:;
#STEPSTYPE:dance-single;
#DESCRIPTION:;
#CHARTSTYLE:;
#DIFFICULTY:Hard;
#METER:10;
#RADARVALUES:0.526929,0.662356,0.393590,0.056227,0.056227,328.000000,293.000000,35.000000,5.000000,0.000000,0.000000,0.000000,0.000000,0.000000,0.526929,0.662356,0.393590,0.056227,0.056227,328.000000,293.000000,35.000000,5.000000,0.000000,0.000000,0.000000,0.000000,0.000000;
#CREDIT:;
#DISPLAYBPM:170.000000;
#NOTES:
// measure 0
0000
0000
0000
0000
,  // measure 1
0000
0000
0000
0000
,  // measure 2
0000
0000
0000
0000
,  // measure 3
0020
0000
0000
0030
,  // measure 4
2000
0000
0000
3000
,  // measure 5
0200
0000
0000
0300
,  // measure 6
0002
0000
0000
0003
,  // measure 7
0010
0000
1000
0000
0001
0000
0100
0010
0000
0010
0100
0000
0001
0000
1000
0000
,  // measure 8
0001
0000
0100
0000
0010
0000
1000
0001
0000
0001
1000
0000
0010
0000
0100
0000
,  // measure 9
0001
0000
0100
0000
0001
0000
0010
0100
0000
0100
0010
0000
0001
0000
0100
0000
,  // measure 10
0010
0000
1000
0000
0001
0000
1000
0100
0000
0100
1000
0000
0001
0000
0000
0000
,  // measure 11
0000
0010
0000
0010
0000
1000
0000
0001
,  // measure 12
0000
0100
0000
0100
0000
0001
0000
0010
,  // measure 13
0000
0001
0000
0001
0000
0100
0000
0010
,  // measure 14
0000
1000
0000
1000
0000
0100
0000
0010
,  // measure 15
0000
1001
0000
0010
0000
0100
0000
0001
,  // measure 16
0000
1010
0000
0100
0000
0010
0000
1000
,  // measure 17
0000
0110
0000
0001
0000
0010
0000
1000
,  // measure 18
0000
0101
0000
0010
0000
1000
0000
0001
,  // measure 19
0200
0000
0000
0300
,  // measure 20
0010
1000
0010
0000
0100
0001
0100
0000
,  // measure 21
0010
0100
0001
0000
0010
0100
1000
0000
,  // measure 22
0001
1000
0100
0000
1000
0001
0100
0000
,  // measure 23
0001
1000
0010
0000
1000
0001
0010
0000
,  // measure 24
0001
0100
0010
0000
1000
0100
0010
0000
,  // measure 25
0001
0010
0100
0000
1000
0010
0100
0000
,  // measure 26
0010
1000
0100
0000
0010
0001
0100
0000
,  // measure 27
0001
0010
0001
0000
1000
0100
1000
0000
,  // measure 28
0110
0000
1001
0000
1000
0100
0001
0000
,  // measure 29
0100
1000
0010
0000
1000
0001
0100
0000
,  // measure 30
0010
0001
0100
0000
0010
0001
0100
0000
,  // measure 31
0001
0100
1000
0000
0100
0001
0010
0000
,  // measure 32
0010
1000
0001
0000
0010
0001
1000
0000
,  // measure 33
0010
1000
0010
0000
0010
0001
0010
0000
,  // measure 34
0001
0100
0010
0000
1000
0100
0010
0000
,  // measure 35
0001
1000
0100
0000
1000
0001
0100
0000
,  // measure 36
1010
0001
0011
1000
,  // measure 37
0010
0000
1000
0001
0000
1000
0000
0010
,  // measure 38
0000
0100
0001
0000
1000
0100
0000
0010
,  // measure 39
0000
0001
1000
0000
0110
0000
1001
0000
,  // measure 40
0000
0110
1001
0000
,  // measure 41
0001
1000
0100
0010
0000
0000
0010
0000
,  // measure 42
0001
1000
0010
0100
0001
0100
0010
1000
,  // measure 43
0001
0100
0010
0000
,  // measure 44
1001
1001
1001
1001
,  // measure 45
0110
0000
1001
0000
1000
0001
1000
0000
,  // measure 46
0010
1000
0100
0000
0010
0001
0100
0000
,  // measure 47
0001
1000
0010
0000
1000
0001
0010
0000
,  // measure 48
0100
0010
0001
0000
0100
0010
1000
0000
,  // measure 49
0001
1000
0100
0000
1000
0001
0100
0000
,  // measure 50
0010
0100
0010
0000
0100
0010
0100
0000
,  // measure 51
0010
1000
0100
0000
0010
0001
0100
0000
,  // measure 52
0001
1000
0001
0000
1000
0001
1000
0000
,  // measure 53
0110
1000
0110
0001
,  // measure 54
0010
0001
1000
0100
,  // measure 55
1000
0100
1001
0010
,  // measure 56
0100
0001
0110
1000
,  // measure 57
0001
0110
0110
1000
,  // measure 58
0010
1000
0001
0100
,  // measure 59
0011
1100
0101
1010
,  // measure 60
1001
0110
1001
0110
,  // measure 61
0001
0000
1000
0000
0000
0110
0000
0000
1001
0000
0000
0110
0000
0000
1000
0000
,  // measure 62
0001
0000
0000
0000
;

//---------------dance-double - ----------------
#NOTEDATA:;
#CHARTNAME:;
#STEPSTYPE:dance-double;
#DESCRIPTION:;
#CHARTSTYLE:;
#DIFFICULTY:Hard;
#METER:10;
#RADARVALUES:0.494799,0.592634,0.314872,0.089963,0.022491,308.000000,280.000000,28.000000,8.000000,0.000000,0.000000,0.000000,0.000000,0.000000,0.494799,0.592634,0.314872,0.089963,0.022491,308.000000,280.000000,28.000000,8.000000,0.000000,0.000000,0.000000,0.000000,0.000000;
#CREDIT:;
#DISPLAYBPM:170.000000;
#NOTES:
00000000
00000000
00000000
00000000
,
00000000
00000000
00000000
00000000
,
00000000
00000000
00000000
00000000
,
00000020
00000000
00000000
00000030
,
00002000
00000000
00000000
00003000
,
00020000
00000000
00000000
00030000
,
00200000
00000000
00000000
00300000
,
02000000
00000000
00010000
03010000
,
00200000
00000000
00001000
00301000
,
00010000
00000100
00010000
00001000
,
00000100
00000000
00001000
00000000
00010000
00000000
00001000
00010000
00000000
00010000
00001000
00000000
00010000
00000000
00000000
00000000
,
00000000
00100000
00000000
10000000
00000000
01000000
00000000
00010000
,
00000000
00001000
00000000
00000100
00000000
00000001
00000000
00000010
,
00000000
00000010
00000000
00000001
00000000
00000100
00000000
00001000
,
00000000
00010000
00000000
01000000
00000000
10000000
00000000
00100000
,
00000000
00100000
00000000
10000000
00000000
00100000
00000000
01000000
,
00000000
00010000
00000000
10000000
00000000
01000000
00000000
00010000
,
00000000
00001000
00000000
00000100
00000000
00000001
00000000
00001000
,
00000000
00000100
00000000
00000010
00000000
00000001
00000000
00000010
,
00000200
00000000
00000000
00000300
,
00001000
00000001
00000100
00000000
00000001
00001000
00000100
00000000
,
00000010
00000001
00000100
00000000
00000001
00000100
00001000
00000000
,
00010000
01000000
10000000
00000000
00100000
10000000
01000000
00000000
,
10000000
00010000
01000000
00000000
00010000
10000000
01000000
00000000
,
00010000
00001000
00000100
00000000
00001000
00010000
01000000
00000000
,
00010000
00001000
00000010
00000000
00001000
00010000
00100000
00000000
,
10000000
00100000
00010000
00000000
00001000
00000010
00000001
00000000
,
00000001
00000100
00001000
00000000
00010000
01000000
10000000
00000000
,
01010000
00000000
01010000
00000000
10000000
01000000
00010000
00000000
,
00001000
00000100
00000001
00000000
00000010
00000001
00000100
00000000
,
00000010
00001000
00000100
00000000
00001000
00000001
00000100
00000000
,
00000010
00000100
00001000
00000000
00010000
00100000
01000000
00000000
,
00010000
10000000
01000000
00000000
10000000
00010000
01000000
00000000
,
00100000
10000000
01000000
00000000
00010000
00001000
00000100
00000000
,
00001000
00010000
01000000
00000000
00100000
00010000
01000000
00000000
,
00100000
00010000
00001000
00000000
00001010
00000000
00001001
00000000
,
00001000
00001100
00010000
01010000
,
00100000
00000000
10000000
01000000
00000000
00010000
00000000
00001000
,
00000000
00000100
00000001
00000000
00000010
00000001
00000000
00001000
,
00000000
00000001
00000100
00000000
00001000
00000000
00010000
00000000
,
00000000
00010010
00101000
00000000
,
00010000
10000000
01000000
00010000
00000000
00000000
00001000
00000000
,
00010000
00000100
00010000
00001000
00100000
00001000
00010000
00001000
,
00000100
00000001
00001001
00000000
,
00000120
00000100
00000100
00000130
,
00000001
00001000
00000100
00000000
00000010
00000001
00000100
00000000
,
00001000
00010000
00100000
00000000
10000000
00010000
01000000
00000000
,
00100000
10000000
01000000
00000000
00010000
00001000
00010000
00000000
,
00001000
00000100
00000010
00000000
00001000
00000001
00000010
00000000
,
00000100
00001000
00000100
00000000
00010000
00001000
00010000
00000000
,
00001000
00100000
00001000
00000000
01000000
00010000
01000000
00000000
,
00100000
10000000
01000000
00000000
00100000
00010000
01000000
00000000
,
00010000
10000000
01000000
00000000
00010000
00001000
00000100
00000000
,
00000001
00001100
00000010
00001100
,
00000001
00001010
00000010
00001001
,
00000010
00001100
00000110
00001001
,
00001010
00011000
00110000
10010000
,
01000000
00110000
01001000
00110000
,
00010100
00101000
00010100
00001010
,
00000010
00001000
00000100
00010000
00001000
00100000
00010000
10000000
,
01000000
00010000
00001000
00000100
,
00000001
00000000
00001000
00000000
00000000
00000001
00000000
00000000
00000100
00000000
00000000
00001000
00000000
00000000
00010000
00000000
,
01000000
00000000
00000000
00000000
,
00000000
00000000
00000000
00000000
;

//---------------dance-single - ----------------
#NOTEDATA:;
#CHARTNAME:;
#STEPSTYPE:dance-single;
#DESCRIPTION:;
#CHARTSTYLE:;
#DIFFICULTY:Challenge;
#METER:13;
#RADARVALUES:0.676332,0.665027,0.416081,0.044982,0.174304,421.000000,384.000000,37.000000,4.000000,0.000000,0.000000,0.000000,0.000000,0.000000,0.676332,0.665027,0.416081,0.044982,0.174304,421.000000,384.000000,37.000000,4.000000,0.000000,0.000000,0.000000,0.000000,0.000000;
#CREDIT:;
#DISPLAYBPM:170.000000;
#NOTES:
// measure 0
0000
0000
0000
0000
,  // measure 1
0000
0000
0000
0000
,  // measure 2
0000
0000
0000
0000
,  // measure 3
1000
0000
0100
0000
1000
0000
0010
1000
0000
0010
1000
0000
0100
0000
1000
0000
,  // measure 4
0001
0000
0100
0000
0001
0000
0010
0001
0000
0010
0001
0000
0100
0000
0001
0000
,  // measure 5
1000
0000
0010
0000
0100
0000
0001
0100
0000
0010
0100
0000
0001
0000
1000
0000
,  // measure 6
0001
0000
0010
0000
0100
0000
1000
0100
0000
0010
0100
0000
0000
0000
0000
0000
,  // measure 7
1001
0001
0000
0100
0000
0010
0000
1000
,  // measure 8
0001
1000
0000
0100
0000
0010
0000
0001
,  // measure 9
1000
0001
0000
0001
0010
0001
0000
1000
,  // measure 10
0010
1000
0100
1000
0001
0010
0100
1000
,  // measure 11
0100
0000
0010
0000
0001
0000
0100
0010
0000
0100
0010
0000
1000
0000
0100
0000
,  // measure 12
1000
0000
0001
0000
0010
0000
0100
1000
0000
0001
1000
0000
0010
0000
0100
0000
,  // measure 13
0001
0000
0100
0000
0010
0000
1000
0010
0000
1000
0010
0000
0100
0000
0010
0000
,  // measure 14
1000
0000
0001
0000
0100
0000
0010
0100
0000
0001
0100
0000
0010
0000
0100
0000
,  // measure 15
0001
0000
0010
0000
0100
0000
1000
0001
0000
1000
0001
0000
0100
0000
0001
0000
,  // measure 16
1000
0000
0100
0000
1000
0000
0001
0010
0000
0001
1000
0000
0001
0000
0100
0000
,  // measure 17
0010
0000
0100
0000
0001
0000
1000
0010
0000
1000
0010
0000
0100
0000
0010
0000
,  // measure 18
1000
0100
0001
0100
1000
0010
0100
0002
,  // measure 19
2000
0000
0000
3003
,  // measure 20
0001
0100
0100
0000
1000
0100
0100
0000
,  // measure 21
0001
0010
0100
0000
1000
0010
0100
0000
,  // measure 22
1000
0010
1000
0000
0001
0010
0001
0000
,  // measure 23
0100
0001
0001
0000
1000
0100
0100
0000
,  // measure 24
0001
0000
0010
0000
0100
0000
0000
0000
1000
0001
1000
0000
0001
0000
0000
0000
,  // measure 25
1000
0010
0100
0010
1000
0001
0100
0000
,  // measure 26
1000
0010
0100
0001
1000
0100
0010
0001
,  // measure 27
0010
0100
0010
0001
0100
0010
1000
0000
,  // measure 28
1100
0000
0000
0000
0101
0000
0000
0000
1001
0000
0000
0001
0000
0000
0100
0000
,  // measure 29
0010
0000
0000
0000
1000
0000
0100
0000
0000
0100
0000
0000
1000
0000
0001
0000
,  // measure 30
0010
0000
0000
0000
1100
0000
0000
0000
1001
0000
0000
1000
0000
0000
0100
0000
,  // measure 31
0010
0000
0000
0000
0001
0000
0100
0000
0000
0100
0000
0000
0001
0000
1000
0000
,  // measure 32
0010
0000
0000
0000
0101
0000
0000
0000
1001
0000
0000
1000
0000
0000
0010
0000
,  // measure 33
0100
0000
0000
0000
0010
0000
1000
0000
0000
1000
0000
0000
0001
0000
0100
0000
,  // measure 34
0010
1000
0100
0000
0001
0100
1000
0000
,  // measure 35
1100
0011
0101
1100
,  // measure 36
0011
0001
0100
0001
0100
1000
0100
0001
,  // measure 37
0000
0001
0100
1000
0000
0010
0100
0001
,  // measure 38
0000
1000
0100
1000
0001
1000
0000
0110
,  // measure 39
0000
1000
0001
0100
0010
0100
0001
1000
,  // measure 40
0100
1100
0101
0011
,  // measure 41
1000
0100
0010
0001
0000
0001
1000
0100
,  // measure 42
1000
0001
0010
0100
1000
1000
0001
0000
,  // measure 43
0101
1100
1001
0110
,  // measure 44
1100
1100
0101
0101
,  // measure 45
1010
0000
1010
0000
1000
0100
0001
0000
,  // measure 46
1000
0100
0100
0000
0001
0010
0010
0000
,  // measure 47
0001
1000
0100
0000
1000
0001
0100
0000
,  // measure 48
0010
1000
0100
0000
0010
0001
1000
0000
,  // measure 49
0001
0001
0010
0000
1000
1000
0010
0000
,  // measure 50
0001
0100
0010
1000
0010
0100
0001
0000
,  // measure 51
1000
0100
0100
0000
0001
0100
0100
0000
,  // measure 52
1000
0010
0100
0010
1000
0100
0010
0001
,  // measure 53
1000
0000
1100
0000
0101
0000
1001
1000
,  // measure 54
0010
1000
0010
0001
0010
1000
0100
0001
,  // measure 55
0000
1000
0100
0001
0100
1000
0000
0110
,  // measure 56
0000
0001
1000
0100
1000
0001
0100
0001
,  // measure 57
1000
0101
1100
0000
,  // measure 58
0001
0010
0100
1000
0000
1000
0100
0010
,  // measure 59
0100
1000
0001
0100
0010
1000
0100
1000
,  // measure 60
0001
0101
1100
1001
,  // measure 61
0110
0000
0000
0010
0000
0000
1000
0000
0000
0100
0000
0000
0010
0000
0002
0000
,  // measure 62
2000
3003
0000
0000
;

//---------------dance-single - ----------------
#NOTEDATA:;
#CHARTNAME:;
#STEPSTYPE:dance-single;
#DESCRIPTION:;
#CHARTSTYLE:;
#DIFFICULTY:Medium;
#METER:8;
#RADARVALUES:0.382345,0.455018,0.112454,0.089963,0.000000,238.000000,228.000000,10.000000,8.000000,0.000000,0.000000,0.000000,0.000000,0.000000,0.382345,0.455018,0.112454,0.089963,0.000000,238.000000,228.000000,10.000000,8.000000,0.000000,0.000000,0.000000,0.000000,0.000000;
#CREDIT:;
#DISPLAYBPM:170.000000;
#NOTES:
// measure 0
0000
0000
0000
0000
,  // measure 1
0000
0000
0000
0000
,  // measure 2
0000
0000
0000
0000
,  // measure 3
0002
0000
0003
0000
,  // measure 4
0020
0000
0030
0000
,  // measure 5
0200
0000
0300
0000
,  // measure 6
2000
0000
3000
0000
,  // measure 7
0001
0010
0100
0010
,  // measure 8
0001
0100
0010
1000
,  // measure 9
0100
0100
0010
0010
,  // measure 10
0001
1000
0100
0010
,  // measure 11
0100
1000
0100
0000
0010
0000
0001
0000
,  // measure 12
0100
0001
0100
0000
0010
0000
1000
0000
,  // measure 13
0001
1000
0001
0000
0100
0000
0010
0000
,  // measure 14
1000
0100
0010
0010
,  // measure 15
0001
1000
0001
0000
0010
0000
0100
0000
,  // measure 16
1000
0001
1000
0000
0010
0000
0100
0000
,  // measure 17
0010
1000
0010
0000
0100
0000
0001
0000
,  // measure 18
1000
1000
0001
0001
,  // measure 19
0220
0000
0000
0330
,  // measure 20
1000
1000
0001
0001
,  // measure 21
0010
0000
0100
0000
0010
0001
0010
0000
,  // measure 22
0100
0010
0001
0100
,  // measure 23
0001
0001
1000
1000
,  // measure 24
0010
0100
0010
0000
1000
0001
1000
0000
,  // measure 25
0100
0100
0010
0010
,  // measure 26
0001
0001
1000
1000
,  // measure 27
0100
1000
0100
0000
0010
0000
0010
0000
,  // measure 28
0001
0000
0100
0000
0010
0000
1000
0001
,  // measure 29
0000
0000
1000
1000
,  // measure 30
0001
0000
0010
0000
0100
0000
0010
0001
,  // measure 31
0000
0000
0100
0100
,  // measure 32
0001
0000
1000
0000
0010
0000
0010
0100
,  // measure 33
0000
0000
0010
1000
,  // measure 34
0001
0001
1000
1000
,  // measure 35
0110
0110
0110
0110
,  // measure 36
0001
0000
0000
0000
1000
0000
0000
0001
,  // measure 37
0000
0100
0001
0100
0000
0000
0010
0000
,  // measure 38
1000
0100
0010
0001
,  // measure 39
1000
1000
0100
0100
,  // measure 40
0010
1001
1001
0000
,  // measure 41
0100
0000
1000
0001
0000
0000
0000
0000
,  // measure 42
0010
0010
0100
0100
,  // measure 43
1000
0010
0001
0000
,  // measure 44
0100
0100
0010
0010
,  // measure 45
1000
0100
1000
0000
0001
0100
0001
0000
,  // measure 46
1000
0100
0010
0001
,  // measure 47
1000
1000
0001
0001
,  // measure 48
0010
0010
0100
0100
,  // measure 49
1000
1000
1000
1000
,  // measure 50
0001
0001
0001
0001
,  // measure 51
0101
1000
1100
0001
,  // measure 52
0010
0100
0010
0001
,  // measure 53
0100
0010
0010
0000
,  // measure 54
0001
0000
0001
1000
0000
0000
0010
0000
,  // measure 55
1000
0000
0100
0000
1000
0001
0000
1000
,  // measure 56
0000
0100
1000
0100
1000
0000
0100
0000
,  // measure 57
0010
0001
0100
0000
,  // measure 58
0010
0010
0020
0030
,  // measure 59
1000
0001
0100
0100
,  // measure 60
0001
0010
0100
1000
,  // measure 61
1001
0000
0001
1000
0000
0001
1000
0001
,  // measure 62
2000
3000
0000
0000
;

//---------------dance-single - ----------------
#NOTEDATA:;
#CHARTNAME:;
#STEPSTYPE:dance-single;
#DESCRIPTION:;
#CHARTSTYLE:;
#DIFFICULTY:Easy;
#METER:6;
#RADARVALUES:0.327724,0.455018,0.146191,0.123700,0.000000,204.000000,191.000000,13.000000,11.000000,0.000000,0.000000,0.000000,0.000000,0.000000,0.327724,0.455018,0.146191,0.123700,0.000000,204.000000,191.000000,13.000000,11.000000,0.000000,0.000000,0.000000,0.000000,0.000000;
#CREDIT:;
#DISPLAYBPM:170.000000;
#NOTES:
// measure 0
0000
0000
0000
0000
,  // measure 1
0000
0000
0000
0000
,  // measure 2
0000
0000
0000
0000
,  // measure 3
0002
0000
0003
0000
,  // measure 4
0020
0000
0030
0000
,  // measure 5
0200
0000
0300
0000
,  // measure 6
2000
0000
3000
0000
,  // measure 7
0001
0000
0001
0000
,  // measure 8
1000
0000
1000
0000
,  // measure 9
0010
0000
0010
0000
,  // measure 10
0100
0100
0100
0100
,  // measure 11
0000
0010
1000
0100
,  // measure 12
0010
0001
0100
0010
,  // measure 13
0100
0001
0010
0100
,  // measure 14
1000
0001
0010
0100
,  // measure 15
0000
0010
0001
0100
,  // measure 16
0100
0010
1000
0001
,  // measure 17
1000
0010
0100
0001
,  // measure 18
0020
0000
0000
0000
,  // measure 19
0200
0000
0000
0330
,  // measure 20
1000
1000
0001
0001
,  // measure 21
1000
0100
0001
0000
,  // measure 22
0001
0001
1000
1000
,  // measure 23
0001
0100
1000
0000
,  // measure 24
0010
0010
0100
0100
,  // measure 25
0010
1000
0100
0000
,  // measure 26
0001
0010
0100
1000
,  // measure 27
0001
0001
1000
1000
,  // measure 28
0110
0001
0100
0010
,  // measure 29
0010
0000
1000
0001
,  // measure 30
0100
0001
1000
1000
,  // measure 31
1000
0000
0100
0010
,  // measure 32
0001
0100
0010
0010
,  // measure 33
0010
0000
0001
0100
,  // measure 34
0001
0001
1000
1000
,  // measure 35
0100
0010
0100
0010
,  // measure 36
0001
0000
1000
0000
,  // measure 37
0001
0001
0100
0000
,  // measure 38
1100
1100
0001
0000
,  // measure 39
0101
0101
1000
0000
,  // measure 40
0010
0100
0001
0000
,  // measure 41
0010
0100
1000
0000
,  // measure 42
0001
0001
0010
0010
,  // measure 43
0110
0110
0110
0000
,  // measure 44
0001
1000
0001
1000
,  // measure 45
0100
0100
0010
0010
,  // measure 46
0001
0100
0010
1000
,  // measure 47
0100
0010
0001
1000
,  // measure 48
1000
0100
0100
0001
,  // measure 49
0001
0100
0010
1000
,  // measure 50
0100
0010
0001
0100
,  // measure 51
0010
0010
0100
0100
,  // measure 52
1000
1000
0001
0001
,  // measure 53
0000
1000
0200
0300
,  // measure 54
1000
0100
0010
0000
,  // measure 55
0001
0001
0100
0010
,  // measure 56
1000
0001
1000
0010
,  // measure 57
0010
0100
0002
0003
,  // measure 58
0010
0100
2000
3000
,  // measure 59
0100
0010
0001
0100
,  // measure 60
1001
1001
1001
0000
,  // measure 61
0010
1000
0100
0110
,  // measure 62
2002
3003
0000
0000
;

//---------------dance-single - ----------------
#NOTEDATA:;
#CHARTNAME:;
#STEPSTYPE:dance-single;
#DESCRIPTION:;
#CHARTSTYLE:;
#DIFFICULTY:Beginner;
#METER:3;
#RADARVALUES:0.133339,0.209165,0.067473,0.022491,0.000000,83.000000,77.000000,6.000000,2.000000,0.000000,0.000000,0.000000,0.000000,0.000000,0.133339,0.209165,0.067473,0.022491,0.000000,83.000000,77.000000,6.000000,2.000000,0.000000,0.000000,0.000000,0.000000,0.000000;
#CREDIT:;
#DISPLAYBPM:170.000000;
#NOTES:
// measure 0
0000
0000
0000
0000
,  // measure 1
0000
0000
0000
0000
,  // measure 2
0000
0000
0000
0000
,  // measure 3
1000
0000
0000
0000
,  // measure 4
1000
0000
0000
0000
,  // measure 5
1000
0000
0000
0000
,  // measure 6
0000
0000
0000
0000
,  // measure 7
0001
0000
0000
0000
,  // measure 8
0001
0000
0000
0000
,  // measure 9
0001
0000
0000
0000
,  // measure 10
0000
0000
0000
0000
,  // measure 11
0110
0000
0000
0000
,  // measure 12
0100
0000
0000
0000
,  // measure 13
0100
0000
0000
0000
,  // measure 14
0010
0000
0000
0000
,  // measure 15
1001
0000
0000
0000
,  // measure 16
0001
0000
0000
0000
,  // measure 17
1001
0000
0000
0000
,  // measure 18
1000
0000
0000
0000
,  // measure 19
0020
0000
0030
0000
,  // measure 20
0100
0000
0100
0000
,  // measure 21
0100
0000
0000
0000
,  // measure 22
0010
0000
0010
0000
,  // measure 23
0010
0000
0000
0000
,  // measure 24
1000
0000
1000
0000
,  // measure 25
1000
0000
0000
0000
,  // measure 26
0001
0000
0001
0000
,  // measure 27
0001
0000
0000
0000
,  // measure 28
0010
0000
0010
0000
,  // measure 29
0010
0000
0010
0000
,  // measure 30
0100
0000
0100
0000
,  // measure 31
0100
0000
0100
0000
,  // measure 32
0001
0000
0001
0000
,  // measure 33
1000
0000
1000
0000
,  // measure 34
0010
0000
0100
0000
,  // measure 35
1001
0000
0000
0000
,  // measure 36
0010
0000
0010
0000
,  // measure 37
0010
0000
0000
0000
,  // measure 38
0100
0000
0100
0000
,  // measure 39
0100
0000
0000
0000
,  // measure 40
0001
0000
0001
0000
,  // measure 41
0001
0000
0000
0000
,  // measure 42
1000
0000
1000
0000
,  // measure 43
1000
0000
0000
0000
,  // measure 44
0200
0000
0300
0000
,  // measure 45
0010
0000
0000
0000
,  // measure 46
0010
0000
0000
0000
,  // measure 47
0001
0000
0000
0000
,  // measure 48
0001
0000
0000
0000
,  // measure 49
1000
0000
0000
0000
,  // measure 50
1000
0000
0000
0000
,  // measure 51
0010
0000
0000
0000
,  // measure 52
0001
0000
0000
0000
,  // measure 53
0100
0000
0100
0000
,  // measure 54
0100
0000
0000
0000
,  // measure 55
1000
0000
1000
0000
,  // measure 56
1000
0000
0000
0000
,  // measure 57
0001
0000
0001
0000
,  // measure 58
0001
0000
0000
0000
,  // measure 59
0010
0000
0010
0000
,  // measure 60
0010
0000
0000
0000
,  // measure 61
0110
0000
0000
0000
,  // measure 62
1001
0000
0000
0000
;
