#TITLE:DUE TOMORROW;
#SUBTITLE:;
#ARTIST:Mr.T;
#TITLETRANSLIT:;
#SUBTITLETRANSLIT:;
#ARTISTTRANSLIT:;
#GENRE:;
#CREDIT:;
#BANNER:Due Tomorrow-bn.png;
#BACKGROUND:Due Tomorrow-bg.png;
#LYRICSPATH:;
#CDTITLE:;
#MUSIC:beatmaniaIIDX 13 - DUE TOMORROW.mp3;
#OFFSET:-0.074000;
#SAMPLESTART:12.010999;
#SAMPLELENGTH:12.000000;
#SELECTABLE:YES;
#BPMS:0.000000=400.000000
,336.000000=100.000999
,352.000000=400.000000
;
#STOPS:
;
#BGCHANGES:8.000=DUE TOMORROW.avi=1.000=1=0=0=StretchNoLoop==CrossFade==,
99999=-nosongbg-=1.000=0=0=0 // don't automatically add -songbackground-
;
#KEYSOUNDS:;
#ATTACKS:;

//---------------dance-single - ----------------
#NOTES:
     dance-single:
     :
     Hard:
     17:
     0.870640,1.391325,0.128826,0.158556,0.000000,615.000000,602.000000,13.000000,16.000000,0.000000,0.000000,0.870640,1.391325,0.128826,0.158556,0.000000,615.000000,602.000000,13.000000,16.000000,0.000000,0.000000:
// measure 0
0000
0000
0000
0000
,  // measure 1
0000
0000
0000
0000
,  // measure 2
0000
0000
0000
0000
,  // measure 3
0000
0000
0000
0000
,  // measure 4
0000
0000
0000
0000
,  // measure 5
0000
0000
0000
0000
,  // measure 6
0000
0000
0000
0000
,  // measure 7
0000
0000
0000
0000
,  // measure 8
0000
0000
0000
0000
,  // measure 9
0000
0000
0000
0000
,  // measure 10
0000
0000
0000
0000
,  // measure 11
0000
0000
0000
0000
,  // measure 12
0100
0001
0010
0100
,  // measure 13
1000
0000
0010
0000
0100
0000
0010
1000
,  // measure 14
0010
1000
0001
0010
,  // measure 15
1000
0000
0010
0000
0001
0000
0100
0001
,  // measure 16
0100
0010
1000
0001
,  // measure 17
0010
0000
0100
0000
0010
0000
0001
1000
,  // measure 18
0020
0000
0000
0000
,  // measure 19
0000
0000
0000
0000
,  // measure 20
0130
0100
0001
1000
,  // measure 21
0100
0010
0001
1000
,  // measure 22
0010
0010
0100
0001
,  // measure 23
1000
0100
0010
0001
,  // measure 24
1000
1000
0010
0100
,  // measure 25
0001
1000
0100
0010
,  // measure 26
0001
0010
0001
0010
0001
0010
0001
0000
,  // measure 27
1000
0100
1000
0100
1000
0100
1000
0000
,  // measure 28
0010
0010
0100
0001
,  // measure 29
1000
0100
0010
0100
,  // measure 30
1000
1000
0010
0100
,  // measure 31
0001
1000
0001
0010
,  // measure 32
0100
0100
1000
0001
,  // measure 33
0100
0010
1000
0001
,  // measure 34
1000
0010
1000
0010
1000
0010
1000
0000
,  // measure 35
0001
0100
0001
0100
0001
0100
0001
0000
,  // measure 36
1000
1000
0100
0010
,  // measure 37
0001
0100
0010
1000
,  // measure 38
0001
0001
0100
0010
,  // measure 39
1000
0100
0010
0100
,  // measure 40
1000
1000
0010
0100
,  // measure 41
0001
1000
0001
0010
,  // measure 42
0100
0100
0010
0001
,  // measure 43
1000
0010
0100
0001
,  // measure 44
1000
0001
1000
0000
0001
0000
0010
0000
,  // measure 45
0100
1000
0010
0100
,  // measure 46
0001
0100
0001
0000
1000
0000
0100
0000
,  // measure 47
1000
0001
0010
0100
,  // measure 48
0010
0100
0010
0000
0001
0000
1000
0000
,  // measure 49
0010
0100
0001
1000
,  // measure 50
0100
1000
0100
0000
0010
0000
0001
0000
,  // measure 51
0100
0010
1000
0001
,  // measure 52
1001
1000
0010
0100
,  // measure 53
0001
1000
0100
0010
,  // measure 54
0011
0001
0100
0010
,  // measure 55
1000
0100
1000
0010
,  // measure 56
0110
0100
0010
1000
,  // measure 57
0001
0010
0100
0010
,  // measure 58
0001
0010
0001
0010
0001
0010
0001
0000
,  // measure 59
1000
0100
1000
0100
1000
0100
1000
0000
,  // measure 60
1010
0010
0100
0001
,  // measure 61
1000
0100
0010
0001
,  // measure 62
0101
0100
0001
0010
,  // measure 63
0100
1000
0010
0100
,  // measure 64
0110
0010
1000
0001
,  // measure 65
0010
0100
0010
0001
,  // measure 66
1000
0001
1000
0001
1000
0001
1000
0000
,  // measure 67
0001
0100
0001
0100
0001
0100
0001
0000
,  // measure 68
1000
1000
0100
0010
,  // measure 69
0001
0100
0010
1000
,  // measure 70
0001
0001
0010
0100
,  // measure 71
0010
0001
1000
0010
,  // measure 72
0100
0100
1000
0100
,  // measure 73
0010
1000
0001
0010
,  // measure 74
0100
0100
0001
0100
,  // measure 75
0010
0001
1000
0010
,  // measure 76
0100
0010
0100
0000
0010
0000
1000
0000
,  // measure 77
0001
0010
0100
1000
,  // measure 78
0010
1000
0010
0000
0100
0000
0001
0000
,  // measure 79
1000
0100
0010
0001
,  // measure 80
0100
0001
0100
0000
0001
0000
0010
0000
,  // measure 81
0100
1000
0010
0100
,  // measure 82
0001
0100
0001
0000
1000
0100
1000
0000
,  // measure 83
0001
0010
0100
1000
0010
0100
0001
1000
,  // measure 84
2002
0000
3003
0000
,  // measure 85
0220
0000
0330
0000
,  // measure 86
2020
0000
3030
0000
,  // measure 87
0202
0000
0303
0000
,  // measure 88
0001
0001
0001
0001
,  // measure 89
1000
1000
1000
1000
,  // measure 90
0100
0100
0100
0100
,  // measure 91
0010
0001
0100
0000
0010
1000
0100
0000
,  // measure 92
1000
1000
1000
1000
,  // measure 93
0001
0001
0001
0001
,  // measure 94
0100
0100
0100
0100
,  // measure 95
0010
1000
0010
0000
0100
0001
0100
0000
,  // measure 96
0001
0001
0001
0001
,  // measure 97
1000
1000
1000
1000
,  // measure 98
0100
0100
0100
0100
,  // measure 99
0010
0001
1000
0000
0100
1000
0001
0000
,  // measure 100
1000
1000
1000
1000
,  // measure 101
0010
0010
0010
0010
,  // measure 102
0100
0001
1000
0100
0010
0001
0100
0010
,  // measure 103
2020
0000
0000
3030
,  // measure 104
0001
0010
1000
0010
,  // measure 105
0001
0100
1000
0100
,  // measure 106
0001
0010
1000
0010
,  // measure 107
0001
0100
1000
0100
,  // measure 108
0001
0010
1000
0010
,  // measure 109
0001
0100
1000
0100
,  // measure 110
0001
0010
1000
0010
,  // measure 111
0001
0100
1000
0100
,  // measure 112
0001
0100
1000
0100
0001
0000
1000
0100
,  // measure 113
0001
0100
1000
0000
0001
0010
1000
0010
,  // measure 114
0001
0000
1000
0010
0001
0010
1000
0000
,  // measure 115
0001
0100
1000
0100
0001
0000
1000
0100
,  // measure 116
0010
0010
0001
0001
,  // measure 117
0100
0100
0010
0010
,  // measure 118
1000
0100
0010
0001
1000
0100
0010
0001
,  // measure 119
1000
0100
0010
0001
1000
0100
0010
0001
,  // measure 120
0200
0000
0000
0000
,  // measure 121
0000
0000
0000
0000
,  // measure 122
0000
0000
0000
0000
,  // measure 123
0000
0300
0001
2002
,  // measure 124
0000
0000
0000
0000
,  // measure 125
0000
0000
0000
0000
,  // measure 126
0000
0000
0000
0000
,  // measure 127
0000
0000
0000
0000
3003
0000
0001
0010
,  // measure 128
0001
0000
1000
0000
,  // measure 129
0100
0000
0000
0000
0010
0000
0100
1000
,  // measure 130
0100
0000
1000
0000
,  // measure 131
0010
0000
0000
0000
0100
0000
0001
0100
,  // measure 132
0001
0000
1000
0000
0000
0000
0100
1000
,  // measure 133
0100
0000
1000
0000
0000
0000
0010
0100
,  // measure 134
0001
1000
0100
0001
0100
1000
0010
0100
,  // measure 135
0001
1000
0100
0001
0100
0010
0001
0100
,  // measure 136
0010
1000
0010
0100
,  // measure 137
0001
1000
0100
0001
,  // measure 138
0100
0010
0001
1000
,  // measure 139
0010
0100
0001
1000
0100
0010
0100
0000
,  // measure 140
1000
0010
0100
0001
,  // measure 141
1000
0100
0010
0100
,  // measure 142
1000
0010
0100
0001
,  // measure 143
1000
0100
1000
0010
0100
0010
1000
0000
,  // measure 144
0001
0010
0100
0010
,  // measure 145
0001
1000
0010
0100
,  // measure 146
0001
1000
0100
0001
,  // measure 147
0100
0010
0100
1000
0010
0100
0001
0000
,  // measure 148
1000
0100
1000
0001
,  // measure 149
1000
0010
0100
0001
,  // measure 150
1000
0100
1000
0100
0010
0001
0010
0001
,  // measure 151
0100
0010
1000
0100
0001
0100
1000
0001
,  // measure 152
2002
0000
0000
0000
,  // measure 153
0000
0000
0000
0000
,  // measure 154
0000
0000
0000
0000
,  // measure 155
0000
0000
0000
0000
,  // measure 156
3003
0000
0000
0000
;

//---------------dance-single - ----------------
#NOTES:
     dance-single:
     :
     Medium:
     13:
     0.689434,0.772958,0.009910,0.099097,0.000000,487.000000,486.000000,1.000000,10.000000,0.000000,0.000000,0.689434,0.772958,0.009910,0.099097,0.000000,487.000000,486.000000,1.000000,10.000000,0.000000,0.000000:
0000
0000
0000
0000
,
0000
0000
0000
0000
,
0000
0000
0000
0000
,
0000
0000
0000
0000
,
0000
0000
0000
0000
,
0000
0000
0000
0000
,
0000
0000
0000
0000
,
0000
0000
0000
0000
,
0000
0000
0000
0000
,
0000
0000
0000
0000
,
0000
0000
0000
0000
,
0000
0000
0000
0000
,
1000
0010
1000
0010
,
0100
0001
0100
0001
,
1000
0100
1000
0100
,
0010
0001
0010
0001
,
1000
0010
0100
0001
,
1000
0100
0010
0001
,
0200
0000
0000
0000
,
0000
0000
0000
0000
,
0310
0100
0010
0100
,
0001
0100
0001
0100
,
0001
1000
0001
1000
,
0100
1000
0100
1000
,
0100
0010
0100
0010
,
0001
0010
0001
0010
,
0001
1000
0001
1000
,
0010
0100
0010
0100
,
0001
0100
0001
0100
,
0001
1000
0001
1000
,
0010
1000
0010
1000
,
0010
0100
0010
0100
,
0010
1000
0010
1000
,
0001
1000
0001
1000
,
0100
1000
0100
1000
,
0010
0100
0010
0100
,
0001
0000
1000
0100
,
1000
0001
0010
0001
,
0100
0000
0010
0100
,
0001
1000
0100
1000
,
0001
0000
0010
0001
,
0100
0010
0100
0001
,
1000
0000
0100
1000
,
0001
0010
0001
0100
,
0010
0000
0100
0001
,
1000
0100
0001
0100
,
1000
0000
0001
0010
,
1000
0010
0001
0100
,
0010
0000
0100
0001
,
0100
0001
0100
0001
,
0100
0000
0010
1000
,
0010
1000
0010
0000
,
0100
0001
0100
0001
,
0100
0001
0100
0001
,
1000
0010
1000
0010
,
1000
0010
1000
0010
,
0100
0001
1000
0100
,
0010
0100
1000
0001
,
0010
0001
0100
0010
,
0100
0001
1000
0100
,
1000
0001
1000
0001
,
1000
0001
1000
0001
,
0010
0100
0010
0100
,
0010
0100
0010
0100
,
1000
0001
0010
0001
,
0100
0010
0100
0001
,
1000
0100
1000
0001
,
0010
0001
0100
0010
,
0100
0000
0001
0100
,
0001
0100
0001
0100
,
0001
0000
1000
0010
,
1000
0010
1000
0010
,
1000
0000
0001
0010
,
0001
0100
1000
0100
,
0001
0000
1000
0010
,
0001
0010
1000
0100
,
1000
0000
0001
0010
,
0001
0100
0010
0100
,
0001
0000
1000
0100
,
0010
0100
1000
0001
,
1000
0000
0010
0100
,
0001
1000
0100
1000
,
0001
0000
0010
0001
,
0100
0010
0100
0001
,
2000
0000
3000
0000
,
0200
0000
0300
0000
,
0020
0000
0030
0000
,
0002
0000
0003
0000
,
1000
1000
0010
0010
,
0100
0100
0001
0001
,
1000
1000
0100
0100
,
0001
0001
0100
0100
,
1000
0010
0100
0001
,
1000
0100
1000
0001
,
0010
0001
0100
0010
,
0100
0001
1000
0001
,
0010
0010
0001
0001
,
0100
0100
0010
0010
,
1000
1000
0100
0100
,
1000
1000
0001
0001
,
0010
0001
0100
0010
,
0100
0001
1000
0100
,
1000
1000
0010
0010
,
2002
0000
0000
3003
,
1000
0100
0001
0100
,
1000
0100
0001
0100
,
1000
0100
0001
0100
,
1000
0100
0001
0100
,
1000
0010
0100
0001
,
1000
0100
1000
0010
,
0100
0001
1000
0100
,
1000
0001
0010
0001
,
0001
0100
1000
0100
,
0001
0100
1000
0100
,
0001
0100
1000
0100
,
0001
0100
1000
0100
,
0001
0010
0100
1000
,
0010
0100
0001
1000
,
0100
1000
0001
0010
,
0001
0100
0010
0100
,
0002
0000
0000
0000
,
0000
0000
0000
0000
,
0000
0000
0000
0000
,
0000
0003
1000
0200
,
0000
0000
0000
0000
,
0000
0000
0000
0000
,
0000
0000
0000
0000
,
0000
0000
0300
0010
,
0001
0000
0100
0000
,
0010
0000
0100
0001
,
0100
0000
0010
0000
,
1000
0000
0100
1000
,
0100
0010
0000
0001
,
0100
0010
0000
1000
,
0100
1000
0001
0010
,
0001
0100
0010
0100
,
0001
1000
0100
1000
,
0001
0010
0001
0100
,
0010
0100
0001
1000
,
0100
1000
0001
0010
,
0001
1000
0010
0001
,
0010
1000
0100
1000
,
0001
0010
1000
0010
,
0001
0100
0010
0100
,
0001
0100
1000
0100
,
0001
1000
0001
1000
,
0001
1000
0100
0001
,
0100
1000
0001
1000
,
0001
0010
0001
0100
,
0010
0100
0001
1000
,
0100
1000
0001
0010
,
0001
0100
0010
0100
,
0002
0000
0000
0000
,
0000
0000
0000
0000
,
0000
0000
0000
0000
,
0000
0000
0000
0000
,
0003
0000
0000
0000
;

//---------------dance-single - ----------------
#NOTES:
     dance-single:
     :
     Beginner:
     6:
     0.318527,0.451883,0.059458,0.000000,0.000000,225.000000,219.000000,6.000000,0.000000,0.000000,0.000000,0.318527,0.451883,0.059458,0.000000,0.000000,225.000000,219.000000,6.000000,0.000000,0.000000,0.000000:
0000
0000
0000
0000
,
0000
0000
0000
0000
,
0000
0000
0000
0000
,
0000
0000
0000
0000
,
0000
0000
0000
0000
,
0000
0000
0000
0000
,
0000
0000
0000
0000
,
0000
0000
0000
0000
,
0000
0000
0000
0000
,
0000
0000
0000
0000
,
0000
0000
0000
0000
,
0000
0000
0000
0000
,
1000
0000
0010
0000
,
1000
0000
0010
0000
,
0100
0000
0001
0000
,
0100
0000
0001
0000
,
1000
0000
0100
0000
,
0010
0000
0100
0000
,
0010
0000
0000
0000
,
0000
0000
0000
0000
,
0001
0000
0001
0000
,
0100
0000
0010
0000
,
0100
0000
0001
0000
,
1000
0000
0100
0000
,
0010
0000
0100
0000
,
1000
0000
0001
0000
,
0100
0000
0010
0000
,
0100
0000
0100
0000
,
0001
0000
1000
0000
,
0100
0000
0010
0000
,
0010
0000
0100
0000
,
1000
0000
0010
0000
,
0010
0000
0100
0000
,
0001
0000
1000
0000
,
0100
0000
0100
0000
,
0010
0000
0010
0000
,
0001
0000
0000
0000
,
0001
0000
1000
0000
,
0010
0000
0000
0000
,
0100
0000
0001
0000
,
1000
0000
0000
0000
,
0100
0000
1000
0000
,
0001
0000
0000
0000
,
0010
0000
0001
0000
,
0100
0000
0000
0000
,
0100
0000
0000
0000
,
0010
0000
0000
0000
,
0010
0000
0000
0000
,
1000
0000
0000
0000
,
1000
0000
0000
0000
,
0001
0000
0000
0000
,
0001
0000
0010
0000
,
0100
0000
0100
0000
,
0100
0000
0100
0000
,
1000
0000
1000
0000
,
1000
0000
1000
0000
,
0001
0000
0001
0000
,
0001
0000
0001
0000
,
0010
0000
0010
0000
,
0010
0000
0010
0000
,
0110
0000
0000
0000
,
0001
0000
0100
0000
,
0110
0000
0000
0000
,
1000
0000
0010
0000
,
0110
0000
0000
0000
,
0001
0000
1000
0000
,
1001
0000
0000
0000
,
1000
0000
0010
0000
,
0100
0000
0100
0000
,
0100
0000
0100
0000
,
0001
0000
0001
0000
,
0001
0000
0001
0000
,
1000
0000
1000
0000
,
1000
0000
1000
0000
,
0100
0000
0100
0000
,
0100
0000
0100
0000
,
0010
0000
0000
0000
,
0100
0000
1000
0000
,
0010
0000
0000
0000
,
0100
0000
0001
0000
,
1000
0000
0000
0000
,
0100
0000
1000
0000
,
0001
0000
0000
0000
,
0010
0000
0100
0000
,
0010
0000
0000
0000
,
0001
0000
0000
0000
,
1000
0000
0000
0000
,
0010
0000
0000
0000
,
0100
0000
0001
0000
,
0100
0000
0001
0000
,
0100
0000
0001
0000
,
0100
0000
0001
0000
,
1000
0000
0010
0000
,
1000
0000
0010
0000
,
1000
0000
0010
0000
,
1000
0000
0010
0000
,
0100
0000
0010
0000
,
0100
0000
0010
0000
,
0100
0000
0010
0000
,
0100
0000
0010
0000
,
1000
0000
0001
0000
,
1000
0000
0001
0000
,
1000
0000
0000
0000
,
1001
0000
0000
0000
,
0010
0000
0000
0000
,
0010
0000
0100
0000
,
0001
0000
0000
0000
,
0001
0000
1000
0000
,
0100
0000
0000
0000
,
0100
0000
0010
0000
,
0001
0000
0000
0000
,
0001
0000
1000
0000
,
0010
0000
0000
0000
,
0100
0000
0000
0000
,
0001
0000
0000
0000
,
1000
0000
0000
0000
,
0100
0000
0000
0000
,
1000
0000
0000
0000
,
0001
0000
0000
0000
,
0010
0000
0000
0000
,
0100
0000
0000
0000
,
0000
0000
0000
0000
,
0000
0000
0000
0000
,
0000
0000
0000
0000
,
1000
0000
0000
0000
,
0000
0000
0000
0000
,
0000
0000
0000
0000
,
0000
0000
0000
0000
,
0010
0000
0000
0000
,
0000
0000
0000
0000
,
0100
0000
0000
0000
,
0000
0000
0000
0000
,
0001
0000
0000
0000
,
0001
0000
0000
0000
,
1000
0000
1000
0000
,
1000
0000
1000
0000
,
0010
0000
1000
0000
,
0010
0000
1000
0000
,
0010
0000
1000
0000
,
0010
0000
1000
0000
,
0001
0000
0100
0000
,
0001
0000
0100
0000
,
0001
0000
0100
0000
,
0001
0000
0100
0000
,
0001
0000
0010
0000
,
0001
0000
0010
0000
,
0001
0000
0010
0000
,
0001
0000
0010
0000
,
0100
0000
1000
0000
,
0100
0000
1000
0000
,
0010
0000
0100
0000
,
0001
0000
1000
0000
,
0110
0000
0000
0000
;

//---------------dance-single - ----------------
#NOTES:
     dance-single:
     :
     Easy:
     11:
     0.547866,0.695662,0.009910,0.079278,0.000000,387.000000,386.000000,1.000000,8.000000,0.000000,0.000000,0.547866,0.695662,0.009910,0.079278,0.000000,387.000000,386.000000,1.000000,8.000000,0.000000,0.000000:
0000
0000
0000
0000
,
0000
0000
0000
0000
,
0000
0000
0000
0000
,
0000
0000
0000
0000
,
0000
0000
0000
0000
,
0000
0000
0000
0000
,
0000
0000
0000
0000
,
0000
0000
0000
0000
,
0000
0000
0000
0000
,
0000
0000
0000
0000
,
0000
0000
0000
0000
,
0000
0000
0000
0000
,
1000
0000
0010
0000
,
1000
0000
0010
1000
,
0010
0000
0100
0000
,
0001
0000
0100
0001
,
0100
0000
0001
0000
,
1000
0000
0100
0100
,
0020
0000
0000
0000
,
0000
0000
0000
0000
,
0031
0000
0001
0000
,
0100
0000
0100
0000
,
0010
0000
0010
0000
,
1000
0000
1000
0000
,
0100
0000
0100
0000
,
1000
0000
1000
0000
,
0001
0010
0001
0010
,
0001
0010
0001
0010
,
0001
0000
0001
0000
,
0100
0000
0100
0000
,
0010
0000
0010
0000
,
0100
0000
0100
0000
,
0001
0000
0001
0000
,
1000
0000
1000
0000
,
0100
1000
0100
1000
,
0100
1000
0010
1000
,
0010
0000
0100
0000
,
0001
1000
0100
0000
,
0010
0000
0001
0000
,
0100
0010
0100
0000
,
0001
0000
1000
0000
,
0100
1000
0001
0000
,
0100
0000
0010
0000
,
0100
0001
1000
0100
,
1000
0000
0001
0000
,
0010
0001
0010
0000
,
0001
0000
0100
0000
,
0010
0100
0010
0000
,
0100
0000
0001
0000
,
1000
0100
1000
0000
,
0001
0000
0010
0000
,
0100
0010
0001
0100
,
0010
0000
0010
0000
,
0100
0000
0100
0000
,
0001
0000
0001
0000
,
1000
0000
1000
0000
,
0100
0000
0100
0000
,
0010
0000
0010
0000
,
0001
0100
0001
0100
,
0001
0100
0001
0100
,
0001
0000
0001
0000
,
1000
0000
1000
0000
,
0010
0000
0010
0000
,
0100
0000
0100
0000
,
0010
0000
0010
0000
,
1000
0000
1000
0000
,
0010
1000
0010
1000
,
0010
0100
0010
0100
,
0010
0000
0100
0000
,
0010
0000
0100
0001
,
0100
0000
0001
0000
,
1000
0000
0100
1000
,
0010
0000
0100
0000
,
0001
0000
1000
0100
,
0010
0000
0100
0000
,
1000
0000
0010
0100
,
0001
1000
0100
1000
,
0100
0000
1000
0000
,
0001
0010
0001
0010
,
0001
0000
0100
0000
,
0010
0100
0010
0100
,
0010
0000
0100
0000
,
0001
1000
0100
1000
,
0001
1000
0001
0000
,
2000
0000
3000
0000
,
0002
0000
0003
0000
,
0020
0000
0030
0000
,
0200
0000
0300
0000
,
1000
0010
1000
0010
,
1000
0010
1000
0010
,
0100
0001
0100
0001
,
0100
0001
0100
0001
,
1000
0001
1000
0001
,
1000
0001
1000
0001
,
0010
0100
0010
0100
,
0010
0100
0010
0100
,
1000
0000
0001
0010
,
0001
0000
1000
0010
,
1000
0000
0001
0100
,
0001
0000
1000
0100
,
1000
0000
0001
0010
,
0001
0000
0100
0010
,
0100
0000
0001
1000
,
2002
0000
0000
3003
,
0010
0001
0000
0010
,
0001
0000
1000
0000
,
0010
1000
0000
0010
,
1000
0000
0001
0000
,
0100
0001
0000
0100
,
0001
0000
1000
0000
,
0100
1000
0000
0100
,
1000
0000
0001
0000
,
0010
0001
0010
0001
,
0010
0001
1000
0001
,
1000
0001
1000
0001
,
1000
0010
1000
0010
,
1000
0010
0100
0010
,
0100
0010
0100
0010
,
1000
0100
1000
0001
,
0010
0001
0100
0010
,
0100
0000
0000
0000
,
0000
0000
0000
0000
,
0000
0000
0000
0000
,
0000
0000
0010
1000
,
0000
0000
0000
0000
,
0000
0000
0000
0000
,
0000
0000
0000
0000
,
0000
0000
0000
0001
,
0010
0000
0001
0000
,
0100
0000
0010
1000
,
0100
0000
1000
0000
,
0001
0000
0010
0001
,
0010
0001
0000
0100
,
0010
0100
0000
0001
,
1000
0100
1000
0001
,
0010
0001
0100
0010
,
0100
0001
0100
0001
,
0100
0001
0100
0001
,
1000
0010
1000
0010
,
1000
0010
1000
1000
,
1000
0100
1000
0100
,
1000
0100
1000
0100
,
0010
0001
0010
0001
,
0010
0001
0010
0010
,
0010
0100
1000
0010
,
0100
0001
1000
0100
,
1000
0010
0100
0001
,
1000
0100
1000
0001
,
0010
0001
0100
0010
,
0100
0001
1000
0100
,
1000
0001
0010
0001
,
0100
0010
0100
0001
,
2000
0000
0000
0000
,
0000
0000
0000
0000
,
0000
0000
0000
0000
,
0000
0000
0000
0000
,
3000
0000
0000
0000
;

//---------------dance-double - ----------------
#NOTES:
     dance-double:
     :
     Hard:
     10:
     0.860730,1.297183,0.178375,0.128826,0.000000,608.000000,590.000000,18.000000,13.000000,0.000000,0.000000,0.860730,1.297183,0.178375,0.128826,0.000000,608.000000,590.000000,18.000000,13.000000,0.000000,0.000000:
00000000
00000000
00000000
00000000
,
00000000
00000000
00000000
00000000
,
00000000
00000000
00000000
00000000
,
00000000
00000000
00000000
00000000
,
00000000
00000000
00000000
00000000
,
00000000
00000000
00000000
00000000
,
00000000
00000000
00000000
00000000
,
00000000
00000000
00000000
00000000
,
00000000
00000000
00000000
00000000
,
00000000
00000000
00000000
00000000
,
00000000
00000000
00000000
00000000
,
00000000
00000000
00000000
00000000
,
10000000
01000000
00010000
01000000
,
00100000
00010000
01000000
00001000
,
00010000
00000100
00000010
00000001
,
00000100
00000010
00001000
00000100
,
00001000
00000010
00010000
00001000
,
00100000
00000000
00010000
00000000
01000000
00000000
00010000
10000000
,
02000000
00000000
00000000
00000000
,
03000000
00000000
00000000
00000000
,
10100000
01010000
00010000
10000000
,
01000000
00100000
00010000
01000000
,
01001000
00011000
00010000
00000100
,
00000010
00000001
00000100
00000010
,
00001010
00001100
00000100
00001000
,
00000010
00000100
00000001
00001000
,
00000100
00001000
00000100
00001000
00000100
00001000
00000100
00000000
,
00010000
00001000
00010000
00001000
00010000
00001000
00010000
00000000
,
00001000
00100000
00010000
01000000
,
00100000
10000000
01000000
10000000
,
00100000
01000000
00010000
10000000
,
00010000
00100000
00001000
00000100
,
00000010
00001000
00000001
00000010
,
00000100
00001000
00000010
00000100
,
00000001
00001000
00000001
00001000
00000001
00001000
00000001
00000000
,
00001000
00000100
00001000
00000100
00001000
00000100
00001000
00000000
,
00000010
00000010
00000100
00000001
,
00001000
00000100
00010000
00001000
,
00100000
00100000
00010000
01000000
,
00100000
10000000
01000000
00100000
,
00010000
00010000
01000000
00001000
,
00010000
00000100
00000010
00000001
,
00000100
00000100
00000010
00001000
,
00000100
00010000
00001000
00100000
,
00010000
01000000
00010000
00000000
10000000
00000000
01000000
00000000
,
00100000
00010000
01000000
00001000
,
00010000
00001000
00010000
00000000
00001000
00000000
01000000
00000000
,
00001000
00010000
00000010
00000100
,
00000001
00000010
00000001
00000000
00001000
00000000
00000100
00000000
,
00001000
00000010
00000100
00000001
,
00001000
00000100
00010000
00000000
00001000
00000000
00010000
00000000
,
00100000
10000000
01000000
10000000
,
10100000
01010000
00010000
00100000
,
01000000
10000000
00010000
01000000
,
01001000
00011000
00010000
00001000
,
00000100
00000010
00001000
00000100
,
00001001
00000101
00000010
00000100
,
00001000
00000010
00000100
00000001
,
00001000
00000100
00001000
00000100
00001000
00000100
00001000
00000000
,
00000010
00010000
00000010
00010000
00000010
00010000
00000010
00000000
,
00000100
00000001
00001000
00000100
,
00000010
00000001
00000100
00001000
,
00010000
00100000
10000000
01000000
,
00100000
00010000
01000000
00100000
,
10000000
01000000
10000000
00100000
,
01000000
00010000
10000000
00010000
,
00100000
00001000
00100000
00001000
00100000
00001000
00100000
00000000
,
00000100
00010000
00000100
00010000
00000100
00010000
00000100
00000000
,
00000010
00000010
00000001
00000100
,
00000010
00001000
00000100
00010000
,
00001000
00001000
00100000
00010000
,
01000000
00100000
10000000
01000000
,
10000000
10000000
00010000
00100000
,
01000000
10000000
00100000
01000000
,
00001000
00001000
00010000
00000100
,
00000010
00000001
00000100
00000010
,
00001000
00000010
00001000
00000000
00000001
00000000
00000100
00000000
,
00000010
00010000
00001000
00100000
,
00010000
01000000
00010000
00000000
10000000
00000000
01000000
00000000
,
10000000
00100000
01000000
00010000
,
10000000
00010000
10000000
00000000
00010000
00000000
00100000
00000000
,
00001000
00100000
00001000
00000100
,
00000010
00010000
00001000
00000000
00100000
00000000
00010000
00000000
,
01000000
00010000
10000000
01000000
,
02200000
03300000
00000000
00000000
,
00000220
00000330
00000000
00000000
,
00002002
00003003
00000000
00000000
,
20020000
30030000
00000000
00000000
,
10000000
10000000
10000000
10000000
,
00010000
00010000
00010000
00010000
,
00100000
00100000
00100000
00100000
,
00010000
00100000
00010000
00000000
01000000
00010000
01000000
00000000
,
00001000
00001000
00001000
00001000
,
00100000
00100000
00100000
00100000
,
00001000
00001000
00001000
00001000
,
00000100
00000010
00000100
00000000
00000010
00001000
00000010
00000000
,
00001000
00001000
00001000
00001000
,
00000001
00000001
00000001
00000001
,
00000010
00000010
00000010
00000010
,
00000100
00001000
00000100
00000000
00010000
00001000
00010000
00000000
,
00000100
00010000
00000100
00010000
00000100
00010000
00000100
00000000
,
00000010
00000001
00000100
00000010
00001000
00000100
00001000
00000000
,
00000100
00010000
00000100
00010000
00000100
00010000
00000100
00010000
,
00020200
00000000
00030300
00000000
,
00000001
00000100
00000010
00001000
,
00000100
00001000
00000010
00000100
,
00000001
00010000
00001000
00100000
,
00010000
01000000
00010000
10000000
,
01000000
00100000
00010000
01000000
,
00100000
10000000
00010000
00100000
,
00010000
01000000
00100000
10000000
,
00010000
00100000
00001000
00010000
,
00001000
00010000
00001000
00010000
00001000
00000000
00010000
00001000
,
00010000
00001000
00010000
00000000
00001000
00100000
00001000
00100000
,
00001000
00000000
00010000
00000100
00010000
00000100
00010000
00000000
,
00001000
01000000
00001000
01000000
00001000
00000000
00010000
00000010
,
00010000
00000010
00000100
00000001
,
00001000
00000100
00010000
00001000
,
00100000
00010000
00100000
00010000
01000000
00010000
01000000
00010000
,
00100000
00001000
00100000
00001000
00010000
00000010
00010000
00000010
,
00000100
00000000
00000000
00000000
,
00000000
00000000
00000000
00000000
,
00000000
00000000
00000000
00000000
,
00000000
00000000
00000001
00000001
,
00000000
00000000
00000000
00000000
,
00000000
00000000
00000000
00000000
,
00000000
00000000
00000000
00000000
,
00000000
00000000
00000000
10000000
,
00100000
00000000
01000000
00000000
,
00010000
00000000
00100000
00001000
,
00010000
00000000
00000100
00000000
,
00000010
00000000
00000001
00000100
,
00000010
00000100
00000000
00000001
,
00001000
00000100
00000000
00000010
,
00000001
00000100
00000001
00000100
00000010
00010000
00000010
00010000
,
00001000
01000000
00001000
01000000
00100000
10000000
00100000
10000000
,
01000000
00100000
00010000
01000000
,
00100000
10000000
00010000
00100000
,
00010000
00010000
01000000
01000000
,
00001000
00001000
00010000
00010000
,
00000100
00000010
00000001
00000100
,
00000010
00001000
00000001
00000010
,
00000100
00000100
00001000
00001000
,
00000010
00000010
00010000
00010000
,
00000010
00001000
00000010
00000000
00000100
00000000
00000001
00000000
,
00001000
00000100
00001000
00000000
00000001
00000000
00000010
00000000
,
00000001
00000100
00000001
00000000
00001000
00000000
00000010
00000000
,
00001000
00000100
00001000
00000000
00000010
00000000
00010000
00000000
,
00001000
00010000
00001000
00000000
00100000
00000000
00010000
00000000
,
01000000
00010000
01000000
00000000
00100000
00000000
10000000
00000000
,
01000000
10000000
01000000
00000000
00100000
00000000
00010000
00000000
,
01000000
00001000
00010000
00001000
00000100
00000010
00001000
00000001
,
00002002
00000000
00000000
00000000
,
00000000
00000000
00000000
00000000
,
00003003
00000000
00000000
00000000
;

//---------------dance-double - ----------------
#NOTES:
     dance-double:
     :
     Easy:
     7:
     0.478498,0.686744,0.089187,0.128826,0.000000,338.000000,329.000000,9.000000,13.000000,0.000000,0.000000,0.478498,0.686744,0.089187,0.128826,0.000000,338.000000,329.000000,9.000000,13.000000,0.000000,0.000000:
00000000
00000000
00000000
00000000
,
00000000
00000000
00000000
00000000
,
00000000
00000000
00000000
00000000
,
00000000
00000000
00000000
00000000
,
00000000
00000000
00000000
00000000
,
00000000
00000000
00000000
00000000
,
00000000
00000000
00000000
00000000
,
00000000
00000000
00000000
00000000
,
00000000
00000000
00000000
00000000
,
00000000
00000000
00000000
00000000
,
00000000
00000000
00000000
00000000
,
00000000
00000000
00000000
00000000
,
10000000
00000000
00010000
00000000
,
01000000
00000000
00100000
00000000
,
10000000
00000000
00010000
00000000
,
00100000
00000000
00001000
00010000
,
00001000
00000000
00000100
00000000
,
00000010
00000000
00001000
00000000
,
00000200
00000000
00000000
00000000
,
00000300
00000000
00000000
00000000
,
00000010
00000001
00000010
00000000
,
00000100
00001000
00000000
00000100
,
00001000
00000000
00000010
00000000
,
00000100
00000000
00000001
00000000
,
00001000
00000000
00000100
00000000
,
00000010
00000000
00000100
00000000
,
00001000
00000001
00001000
00000000
,
00000010
00001000
00000010
00000000
,
00010000
00001000
00010000
00000000
,
00001000
00100000
00000000
00010000
,
00100000
00000000
01000000
00000000
,
10000000
00100000
10000000
00000000
,
00100000
00000000
01000000
00000000
,
00010000
00000000
10000000
00000000
,
00010000
00000000
00100000
00000000
,
00001000
00000000
00100000
00000000
,
00001000
00000000
00001000
00000000
,
00000100
00000000
00000100
00000000
,
00000010
00000000
00000010
00000000
,
00001000
00000000
00001000
00000000
,
00000001
00000000
00000001
00000000
,
00000010
00000000
00000010
00000000
,
00000100
00000000
00000100
00000000
,
00001000
00000010
00010000
00001000
,
01000000
00000000
01000000
00000000
,
00100000
00000000
00100000
00000000
,
10000000
00000000
10000000
00000000
,
00010000
00000000
00010000
00000000
,
00100000
00000000
00100000
00000000
,
01000000
00000000
01000000
00000000
,
10000000
00000000
10000000
00000000
,
00010000
01000000
00001000
00000010
,
00000001
00000100
00000001
00000000
,
00001000
00000100
00000000
00010000
,
00001000
00000000
00100000
00000000
,
00010000
00000000
01000000
00000000
,
00100000
00000000
10000000
00000000
,
01000000
00000000
00100000
00000000
,
00010000
01000000
00010000
00000000
,
10000000
01000000
10000000
00000000
,
00010000
00100000
00010000
00000000
,
01000000
00001000
00000000
00000100
,
00000010
00000000
00001000
00000000
,
00000001
00000010
00000001
00000000
,
00000100
00000000
00000010
00000000
,
00001000
00000000
00000100
00000000
,
00000010
00000000
00000001
00000000
,
00000100
00000000
00000010
00000000
,
00001000
00000000
00001000
00000000
,
00000100
00000000
00000100
00000000
,
00010000
00000000
00010000
00000000
,
00100000
00000000
00100000
00000000
,
10000000
00000000
10000000
00000000
,
01000000
00000000
01000000
00000000
,
00010000
00000000
00010000
00000000
,
00001000
00000100
00000001
00000010
,
00000100
00000000
00000100
00000000
,
00001000
00000000
00001000
00000000
,
00000001
00000000
00000001
00000000
,
00001000
00000000
00001000
00000000
,
00000010
00000000
00000010
00000000
,
00010000
00000000
00010000
00000000
,
01000000
00000000
01000000
00000000
,
10000000
00100000
01000000
00010000
,
20020000
30030000
00000000
00000000
,
00000220
00000330
00000000
00000000
,
00002002
00003003
00000000
00000000
,
02200000
03300000
00000000
00000000
,
00010000
10000000
00010000
10000000
,
00010000
10000000
00010000
10000000
,
00010000
10000000
00010000
10000000
,
00010000
01000000
00001000
00000000
,
00010000
00001000
00010000
00001000
,
00010000
00001000
00010000
00001000
,
00010000
00001000
00010000
00001000
,
00010000
00000100
00000010
00000000
,
00000001
00000100
00000001
00000100
,
00000001
00000100
00000001
00000100
,
00000001
00000100
00000001
00000100
,
00000010
00010000
00001000
00000000
,
00100000
00010000
00100000
00010000
,
00100000
00010000
00100000
00000000
,
00010000
01000000
00100000
00000000
,
00022000
00000000
00033000
00000000
,
00000010
00000000
00000100
00000001
,
00000000
00001000
00000100
00000000
,
00000110
00000000
00000010
00000001
,
00000000
00001000
00000010
00000000
,
00010010
00000000
00010000
00001000
,
00000000
00010000
00000100
00000000
,
00010100
00000000
00001000
00100000
,
00000000
00010000
00100000
00000000
,
00010000
01000000
00010000
00000000
,
10000000
01000000
00000000
00010000
,
01000000
00000000
10000000
01000000
,
00000000
00010000
01000000
00000000
,
00010000
00100000
00010000
00000000
,
01000000
00000000
00001000
00000000
,
00000100
00000010
00001000
00000000
,
00000001
00000000
00000010
00000000
,
00000100
00000000
00000000
00000000
,
00000000
00000000
00000000
00000000
,
00000000
00000000
00000000
00000000
,
00000000
00000000
00010000
00001000
,
00000000
00000000
00000000
00000000
,
00000000
00000000
00000000
00000000
,
00000000
00000000
00000000
00000000
,
00000000
00000000
00000000
00000010
,
00000100
00000000
00001000
00000000
,
00000010
00000000
00000100
00000001
,
00000100
00000000
00000010
00000000
,
00001000
00000000
00000100
00010000
,
00000100
00010000
00000000
00000100
,
00010000
00000100
00000000
00010000
,
00100000
00000000
10000000
00000000
,
01000000
00000000
00100000
00000000
,
00010000
00000000
00010000
00000000
,
01000000
00000000
01000000
00000000
,
00100000
00000000
00100000
00000000
,
10000000
01000000
00100000
00010000
,
01000000
00000000
01000000
00000000
,
00100000
00000000
00100000
00000000
,
10000000
00000000
10000000
00000000
,
00010000
00100000
00001000
00000010
,
00000001
00000000
00000001
00000000
,
00001000
00000000
00001000
00000000
,
00000010
00000000
00000010
00000000
,
00000100
00000001
00001000
00000100
,
00000010
00000000
00000010
00000000
,
00001000
00000000
00001000
00000000
,
00010000
00000000
00010000
00000000
,
00100000
10000000
01000000
00000000
,
00202000
00000000
00000000
00000000
,
00000000
00000000
00000000
00000000
,
00303000
00000000
00000000
00000000
;

//---------------dance-double - ----------------
#NOTES:
     dance-double:
     :
     Medium:
     9:
     0.618650,0.839353,0.099097,0.128826,0.000000,437.000000,427.000000,10.000000,13.000000,0.000000,0.000000,0.618650,0.839353,0.099097,0.128826,0.000000,437.000000,427.000000,10.000000,13.000000,0.000000,0.000000:
00000000
00000000
00000000
00000000
,
00000000
00000000
00000000
00000000
,
00000000
00000000
00000000
00000000
,
00000000
00000000
00000000
00000000
,
00000000
00000000
00000000
00000000
,
00000000
00000000
00000000
00000000
,
00000000
00000000
00000000
00000000
,
00000000
00000000
00000000
00000000
,
00000000
00000000
00000000
00000000
,
00000000
00000000
00000000
00000000
,
00000000
00000000
00000000
00000000
,
00000000
00000000
00000000
00000000
,
10000000
00100000
01000000
00100000
,
10000000
00010000
00100000
01000000
,
10000000
00000000
00100000
01000000
,
00010000
10000000
00010000
00100000
,
00001000
00000000
01000000
00001000
,
00000100
00000010
00001000
00000001
,
00000020
00000000
00000000
00000000
,
00000030
00000000
00000000
00000000
,
00000100
00001000
00000100
00001000
,
00000001
00000010
00000001
00000010
,
00000001
00001000
00000010
00000100
,
00000001
00001000
00000100
00000010
,
00001000
00010000
00100000
10000000
,
01000000
00100000
01000000
10000000
,
00010000
00000000
01000000
00100000
,
10000000
00000000
01000000
00100000
,
00010000
01000000
00010000
01000000
,
00100000
10000000
00100000
10000000
,
00010000
00100000
10000000
00100000
,
00010000
01000000
00001000
00010000
,
00000100
00000010
00000001
00000100
,
00000010
00001000
00000100
00000010
,
00000001
00000000
00000100
00000010
,
00001000
00000000
00000100
00000010
,
00000100
00000000
00001000
00000010
,
00000100
00000001
00001000
00000000
,
00000100
00000000
00000010
00000100
,
00001000
00000010
00010000
00000000
,
00000100
00000000
00010000
00100000
,
10000000
01000000
00100000
00000000
,
01000000
00000000
10000000
00100000
,
01000000
00010000
00100000
00000000
,
01000000
00000000
10000000
00100000
,
00010000
00001000
00000100
00000000
,
00000010
00000000
00001000
00000001
,
00000010
00000100
00010000
00000000
,
00001000
00000000
00100000
00010000
,
01000000
00100000
10000000
00000000
,
00010000
00000000
00100000
00001000
,
00000100
00000010
00001000
00000000
,
00000001
00000010
00000001
00000010
,
00000100
00001000
00000100
00000000
,
00000010
00000001
00000100
00000010
,
00010000
00001000
00100000
00000000
,
00010000
01000000
00100000
10000000
,
01000000
00100000
01000000
00000000
,
10000000
00000000
00010000
01000000
,
00100000
00000000
10000000
01000000
,
00100000
00000000
00010000
01000000
,
00010000
00100000
00001000
00000000
,
00010000
00000000
00000010
00000100
,
00000001
00001000
00000100
00000000
,
00000010
00000000
00000001
00000100
,
00000010
00001000
00000100
00000000
,
00000010
00000000
00000100
00001000
,
00000010
00000000
00000100
00000001
,
00001000
00000100
00001000
00000100
,
00000010
00000001
00000100
00000000
,
00000010
00001000
00000100
00010000
,
00100000
10000000
01000000
00000000
,
00010000
01000000
10000000
00010000
,
01000000
00100000
10000000
00000000
,
00010000
01000000
00010000
00000010
,
00000001
00000100
00000010
00000000
,
00001000
00000100
00001000
00000010
,
00010000
00001000
00100000
00000000
,
00010000
01000000
00010000
00000010
,
00000001
00000100
00000010
00000000
,
00001000
00000100
00001000
00000010
,
00010000
00001000
00100000
00000000
,
01000000
10000000
00100000
01000000
,
00010000
10000000
00010000
00100000
,
00220000
00330000
00000000
00000000
,
00000022
00000033
00000000
00000000
,
22000000
33000000
00000000
00000000
,
00002200
00003300
00000000
00000000
,
00000010
00000010
00000010
00000000
,
00000100
00000100
00000100
00000000
,
00001000
00000001
00000100
00000000
,
00000010
00001000
00000100
00000000
,
00010000
00010000
00010000
00000000
,
00100000
00100000
00100000
00000000
,
10000000
01000000
00100000
00000000
,
00010000
01000000
00100000
00000000
,
10000000
10000000
10000000
00000000
,
00010000
00010000
00010000
00000000
,
00100000
00001000
00000100
00000000
,
00000010
00001000
00000001
00000000
,
00000010
00000010
00000010
00000000
,
00000100
00000100
00000100
00000000
,
00001000
00000010
00010000
00000000
,
00020200
00000000
00030300
00000000
,
00000010
00000000
00000100
00000001
,
00000000
00001000
00000100
00000000
,
00000110
00000000
00000010
00000001
,
00000000
00001000
00000010
00000000
,
00010010
00000000
00010000
00001000
,
00000000
00100000
00010000
00000000
,
01010000
00000000
00100000
10000000
,
00000000
01000000
10000000
00000000
,
00010000
00100000
00010000
00000000
,
01000000
00100000
00000000
10000000
,
01000000
00000000
00100000
00010000
,
00000000
01000000
00001000
00000000
,
00000010
00000001
00000100
00000010
,
00001000
00000100
00000010
00001000
,
00010000
00100000
10000000
01000000
,
00100000
00000000
00010000
00000000
01000000
00001000
01000000
00000000
,
00011000
00000000
00000000
00000000
,
00000000
00000000
00000000
00000000
,
00000000
00000000
00000000
00000000
,
00000000
00000000
00000100
00000100
,
00000000
00000000
00000000
00000000
,
00000000
00000000
00000000
00000000
,
00000000
00000000
00000000
00000000
,
00000000
00000000
00000000
00000010
,
00000001
00000000
00000100
00000000
,
00000010
00000000
00001000
00000100
,
00001000
00000000
00000010
00000000
,
00010000
00000000
00001000
00100000
,
01000000
10000000
00000000
00010000
,
01000000
00010000
00000000
10000000
,
01000000
00100000
00010000
00001000
,
00000100
00000010
00001000
00000001
,
00000010
00000100
00001000
00000001
,
00000010
00000100
00001000
00000010
,
00000100
00000001
00001000
00000100
,
00000010
00000100
00001000
00000000
,
00000010
00010000
00001000
00100000
,
01000000
10000000
00100000
01000000
,
00010000
10000000
01000000
00010000
,
00001000
00000100
00000001
00000000
,
00000010
00000001
00000100
00000010
,
00001000
00000100
00000010
00000100
,
00001000
00000010
00000100
00010000
,
01000000
00100000
10000000
00000000
,
01000000
00010000
01000000
10000000
,
00100000
01000000
00010000
00100000
,
00001000
00000100
00000010
00001000
,
00000001
00000010
00000100
00001000
,
00020200
00000000
00000000
00000000
,
00000000
00000000
00000000
00000000
,
00030300
00000000
00000000
00000000
;

//---------------dance-single - ----------------
#NOTES:
     dance-single:
     :
     Challenge:
     19:
     1.132540,1.391325,0.079278,0.118917,0.000000,800.000000,792.000000,8.000000,12.000000,0.000000,0.000000,1.132540,1.391325,0.079278,0.118917,0.000000,800.000000,792.000000,8.000000,12.000000,0.000000,0.000000:
0000
0000
0000
0000
,
0000
0000
0000
0000
,
0000
0000
0000
0000
,
0000
0000
0000
0000
,
0000
0000
0000
0000
,
0000
0000
0000
0000
,
0000
0000
0000
0000
,
0000
0000
0000
0000
,
0000
0000
0000
0000
,
0000
0000
0000
0000
,
0000
0000
0000
0000
,
0000
0000
0000
0000
,
1000
0000
0010
0000
0100
0001
0100
0000
,
0010
0000
1000
0000
0001
0100
0001
0000
,
1000
0000
0100
0000
0010
0001
0010
0000
,
0001
0000
0010
0000
0100
1000
0100
0000
,
1000
0000
0010
0000
0100
0001
0100
0000
,
0010
0000
1000
0000
0010
0100
0001
1000
,
0020
0000
0000
0000
,
0000
0000
0000
0000
,
0130
0000
0100
0001
0000
0001
1000
0000
,
1000
0100
0000
0100
0010
0000
0001
0000
,
0010
0000
0010
0001
0000
0001
0100
0000
,
0100
0010
0000
0010
1000
0000
0010
0000
,
1000
0000
1000
0010
0000
0010
0100
0000
,
0100
0001
0000
0001
0100
0000
0010
0000
,
1000
0010
0001
0010
1000
0010
0001
0010
,
1000
0100
0001
0100
1000
0100
0001
0100
,
1000
0000
1000
0100
0000
0100
0001
0000
,
0001
0100
0000
0100
1000
0000
0100
0000
,
1000
0000
1000
0010
0000
0010
0001
0000
,
0001
0010
0000
0010
1000
0000
0010
0000
,
0100
0000
0100
0010
0000
0010
1000
0000
,
1000
0001
0000
0001
1000
0000
0001
0000
,
1000
0010
0001
0010
1000
0010
0001
0010
,
1000
0100
0001
0100
1000
0100
0001
0100
,
1000
0100
1000
0100
1000
0000
0010
0000
,
0100
0000
0001
0100
0010
0100
0001
0000
,
0010
0000
0001
1000
0100
1000
0010
0000
,
1000
0000
0100
1000
0010
1000
0100
0000
,
1000
0000
0001
0100
0010
0100
0010
0000
,
0100
0000
0010
1000
0010
1000
0100
0000
,
0100
1000
0010
0000
0010
0100
0001
0100
,
0010
0100
0010
0100
0001
0100
0001
1000
,
0001
1000
0001
0100
0001
0000
0010
0000
,
0100
1000
0010
0100
0010
0000
0100
0000
,
0001
0100
0001
0010
0001
0000
0100
0000
,
0010
1000
0001
1000
0010
0000
1000
0000
,
0100
0010
0100
0010
0100
0000
1000
0000
,
0010
0100
0010
0100
0010
0000
1000
0000
,
1000
0100
1000
0000
0010
1000
0001
1000
,
0100
1000
0010
1000
0001
1000
0001
0000
,
1001
0000
1000
0010
0000
0010
0100
0000
,
0100
0001
0000
0001
0100
0000
0010
0000
,
1000
0000
1000
0001
0000
0001
0010
0000
,
0010
0001
0000
0001
1000
0000
0010
0000
,
0100
0000
0100
0010
0000
0010
1000
0000
,
1000
0001
0000
0001
0100
0000
0010
0000
,
1000
0010
0001
0010
1000
0010
0001
0010
,
1000
0100
0001
0100
1000
0100
0001
0100
,
1000
0000
1000
0010
0000
0010
0100
0000
,
0100
0001
0000
0001
0010
0000
0001
0000
,
0100
0000
0100
0010
0000
0010
1000
0000
,
1000
0001
0000
0001
0010
0000
0100
0000
,
0010
0000
0010
0001
0000
0001
0100
0000
,
0100
0010
0000
0010
1000
0000
0001
0000
,
1000
0010
0001
0010
1000
0010
0001
0010
,
1000
0100
0001
0100
1000
0100
0001
0100
,
1000
0100
1000
0100
1000
0000
0010
0000
,
0100
0000
0001
0100
0010
0100
0001
0000
,
0010
0000
0001
1000
0100
1000
0010
0000
,
1000
0000
0100
1000
0010
1000
0100
0000
,
1000
0000
0001
0100
0010
0100
0010
0000
,
0100
0000
0010
1000
0010
1000
0100
0000
,
0100
1000
0010
0000
0010
0100
0001
0100
,
0010
0100
0010
0100
0001
0100
0001
1000
,
0001
1000
0001
0100
0001
0000
0010
0000
,
0100
1000
0010
0100
0010
0000
0100
0000
,
0001
0100
0001
0010
0001
0000
0100
0000
,
0010
1000
0001
1000
0010
0000
1000
0000
,
0100
0010
0100
0010
0100
0000
1000
0000
,
0010
0100
0010
0100
0010
0000
1000
0000
,
1000
0100
1000
0000
0010
1000
0001
1000
,
0100
1000
0010
1000
0001
1000
0001
0000
,
1002
1000
1000
1003
,
0120
0100
0100
0130
,
2010
0010
0010
3010
,
0201
0001
0001
0301
,
0001
0001
0001
0001
,
1000
1000
1000
1000
,
0100
0100
0100
0100
,
0010
0001
0100
0000
0010
1000
0100
0000
,
1000
1000
1000
1000
,
0001
0001
0001
0001
,
0100
0100
0100
0100
,
0010
1000
0010
0000
0100
0001
0100
0000
,
0001
0001
0001
0001
,
1000
1000
1000
1000
,
0100
0100
0100
0100
,
0010
0001
1000
0000
0100
1000
0001
0000
,
1000
1000
1000
1000
,
0010
0010
0010
0010
,
0100
0001
1000
0100
0010
0001
0100
0010
,
2020
0000
0000
3030
,
1000
0100
1000
0100
1000
0010
1000
0010
,
0100
0001
0100
0001
0010
0001
0010
0000
,
0001
0100
0001
0100
0010
0100
0010
0100
,
0001
0100
0001
0100
0010
0100
0010
0000
,
1000
0100
0010
0100
1000
0100
0010
0100
,
1000
0100
0010
0100
1000
0100
0010
0000
,
0001
0010
0100
0010
0001
0010
0100
0010
,
0001
0010
0100
0010
0001
0100
0001
0000
,
1000
0010
0100
0010
1000
0010
0100
0010
,
1000
0010
0100
0010
1000
0010
0100
0000
,
0001
0100
0010
0100
0001
0100
0010
0100
,
0001
0100
0010
0100
0001
0100
0010
0000
,
1000
0001
0100
0010
1000
0001
0100
0010
,
1000
0001
0100
0010
1000
0001
0100
0000
,
0001
0010
0100
1000
0100
0010
0001
0010
,
0100
1000
0100
0010
0001
0010
0100
1000
,
0200
0000
0000
0000
,
0000
0000
0000
0000
,
0000
0000
0000
0000
,
0000
0300
0001
2002
,
0000
0000
0000
0000
,
0000
0000
0000
0000
,
0000
0000
0000
0000
,
0000
0000
0000
0000
3003
0000
0001
0010
,
0001
0000
1000
0000
,
0100
0000
0000
0000
0010
0000
0100
1000
,
0100
0000
1000
0000
,
0010
0000
0000
0000
0100
0000
0001
0100
,
0001
0000
1000
0000
0000
0000
0100
1000
,
0100
0000
1000
0000
0000
0000
0010
0100
,
0001
1000
0100
0001
0100
1000
0010
0100
,
0001
1000
0100
0001
0100
0010
0001
0000
,
1000
0010
1000
0010
1000
0010
1000
0010
,
1000
0001
1000
0001
1000
0001
1000
0100
,
1000
0100
1000
0010
1000
0001
0100
0010
,
0100
0010
1000
0100
1000
0010
1000
0000
,
0010
0100
0010
0100
0001
0100
0001
0100
,
0010
0100
0010
1000
0010
1000
0100
1000
,
0010
0100
0010
0100
0001
0100
0001
0010
,
0001
0100
0001
0010
0100
0010
0001
0000
,
1000
0001
0010
0001
0100
0001
0010
0001
,
0100
0001
1000
0001
0010
0001
0100
0001
,
0100
0010
1000
0010
0100
0010
1000
0010
,
0100
0010
0100
0001
0010
0100
1000
0000
,
0001
0010
0100
0010
0001
0010
0001
0100
,
0010
0100
0010
0001
0010
0100
0001
1000
,
0100
1000
0100
0010
0001
0010
0100
1000
,
0100
0010
0001
0010
0001
0100
0010
1000
,
2002
0000
0000
0000
,
0000
0000
0000
0000
,
0000
0000
0000
0000
,
0000
0000
0000
0000
,
3003
0000
0000
0000
;
