#TITLE:DROP OUT;
#SUBTITLE:(K.O.G. G3 Mix);
#ARTIST:NW260;
#TITLETRANSLIT:;
#SUBTITLETRANSLIT:;
#ARTISTTRANSLIT:;
#GENRE:Hard Techno;
#CREDIT:;
#BANNER:DROP OUT(K.O.G. G3 Mix).png;
#BACKGROUND:DROP OUT(K.O.G. G3 Mix)-bg.png;
#LYRICSPATH:;
#CDTITLE:;
#MUSIC:DROP OUT(K.O.G. G3 Mix).ogg;
#OFFSET:-0.037344;
#SAMPLESTART:22.130997;
#SAMPLELENGTH:15.000000;
#SELECTABLE:YES;
#DISPLAYBPM:130.000000;
#BPMS:0.000000=130.434998
,4.000000=129.994995
;
#STOPS:
;
#BGCHANGES:;
#KEYSOUNDS:;
#ATTACKS:;

//---------------dance-single - ----------------
#NOTES:
     dance-single:
     :
     Hard:
     12:
     0.457875,0.833605,0.152108,0.043459,0.206432,295.000000,281.000000,14.000000,4.000000,0.000000,0.000000,0.457875,0.833605,0.152108,0.043459,0.206432,295.000000,281.000000,14.000000,4.000000,0.000000,0.000000:
0000
0000
0000
0000
,
0000
0000
0000
0000
,
0000
0000
0000
0000
,
0010
0000
1001
0000
0001
0100
1000
0000
,
0001
1000
0100
0000
1000
0001
0100
0000
,
1000
0100
0010
0001
1000
0001
0100
0000
,
1000
0000
1000
0000
1000
0000
0001
0100
0001
0100
0001
0000
1000
0000
0000
0000
,
1000
0001
0100
0000
1000
0000
1100
0000
,
0001
1000
0100
0000
0001
0000
0101
0000
,
1000
0001
0100
0000
0001
1000
0100
0000
,
1000
0001
0100
0000
0001
1000
0100
0000
,
0010
0001
0100
0100
,
1000
0001
0100
0000
0010
0000
0010
0000
,
0001
1000
0100
0000
0010
0000
0010
0000
,
1000
0001
0100
0000
0001
1000
0001
1000
,
0001
1000
0100
0000
0020
0000
0030
0000
,
1000
0000
0000
0100
0000
0000
0001
0000
0000
0000
1000
0000
0100
0000
0000
0000
,
0001
0000
0000
0100
0000
0000
1000
0000
0000
0000
0001
0000
0100
0000
0000
0000
,
0010
1000
0000
0000
0010
0001
0000
0000
,
0010
1000
0000
0000
0010
0001
1000
0000
,
1000
0000
0000
0100
0000
0000
0010
0000
0000
0000
0001
0000
1100
0000
0000
0000
,
0010
0000
0000
0001
0000
0000
0100
0000
0000
0000
1000
0000
0101
0000
0000
0000
,
0001
0000
0000
0100
0000
0000
0010
0000
0000
0000
1000
0000
0101
0000
0000
0000
,
0010
0000
0000
1000
0000
0000
0100
0000
0000
0000
0001
0000
1100
0000
0000
0000
,
0001
1000
0010
0100
0010
0000
0010
0000
,
1001
0000
0010
0000
0001
0000
0001
0001
,
0001
1000
0100
0010
0100
0000
0100
0000
,
1001
0100
1001
0200
,
0000
0000
0000
0300
,
0001
0100
1000
1100
,
0001
0000
0101
0000
1000
0001
0100
0000
,
0010
0001
0100
0000
0010
0001
0010
0000
,
0010
0001
1000
0010
0100
0001
1000
0000
,
1000
0100
0001
0101
,
1000
0000
1100
0000
0001
1000
0100
0000
,
0010
1000
0100
0000
0010
1000
0010
0000
,
0010
1000
0001
0010
0100
1000
0001
0000
,
0001
1000
0001
1000
0001
0100
0001
1000
,
0001
1000
0001
1000
0100
1000
0001
1000
,
0010
1000
0001
0010
0001
0100
0001
1000
,
0100
1000
0001
0200
0020
0000
0330
0000
,
0010
0100
0010
0100
1000
0001
1000
0001
0010
0100
0010
0100
1000
0001
1000
0001
,
0100
0001
0100
0001
1000
0001
1000
0001
1000
0100
1000
0100
0010
0001
0010
0001
,
1000
0001
1000
0001
0100
0010
0100
0010
1000
0001
1000
0001
0010
0100
0010
0100
,
1000
0010
1000
0010
0100
0001
0100
0001
0010
0100
0010
0100
0010
0000
0000
0000
,
1000
1000
0100
0100
0001
0001
0100
0100
,
1000
0100
0001
0100
1000
0000
0000
0000
;

//---------------dance-single - ----------------
#NOTES:
     dance-single:
     :
     Challenge:
     14:
     0.681381,0.842568,0.619296,0.206432,0.543242,439.000000,382.000000,57.000000,19.000000,0.000000,0.000000,0.681381,0.842568,0.619296,0.206432,0.543242,439.000000,382.000000,57.000000,19.000000,0.000000,0.000000:
0000
0000
0000
0000
,
0000
0000
0000
0000
,
0000
0000
0000
0000
,
0001
0000
0001
0000
0010
0000
0010
0000
0100
0010
0100
0000
1000
0000
1000
0000
,
0001
0000
0001
0000
0010
0000
0010
0000
0200
0310
0100
0000
1000
0000
1000
0000
,
0001
0000
0001
0000
0100
0000
0100
0000
0010
0100
0010
0000
1000
0000
1000
0000
,
0001
0000
0001
0000
0100
0000
0100
0000
0020
0130
0010
0000
1001
0000
0000
0000
,
1001
0000
0100
0000
0010
0000
0001
0100
0000
0010
0000
1000
0200
0000
0300
0000
,
1001
0000
0100
0000
0010
0000
0001
0100
0000
0010
0000
1000
0200
0000
0300
0000
,
1001
1100
1001
0101
0011
1001
1010
1001
,
0101
0101
1100
1100
1001
1001
0110
0000
,
1000
0100
0010
0001
1000
0100
0010
0001
1000
0100
0010
0000
0010
0000
0000
0000
,
1001
0000
1000
0100
0001
0000
0100
1000
0000
0001
0000
0010
0100
0000
0010
0000
,
1001
0000
1000
0100
0001
0000
0100
1000
0000
0001
0000
0010
0100
0000
0010
0000
,
1001
0000
1000
0100
0001
0000
0100
1000
0100
0000
1000
0100
0001
0000
0100
1000
,
0100
0000
1000
0100
0001
0000
0000
0220
0000
0000
0330
0000
0000
0000
0000
0000
,
1001
0000
0000
1100
0000
0000
1001
0000
0000
0000
0110
0000
1001
0000
0000
0000
,
1001
0000
0000
0101
0000
0000
1001
0000
0000
0000
0110
0000
1000
0100
0000
1000
,
0100
0000
0010
0000
0001
0100
0000
0001
0100
0000
0010
0000
1000
0100
0000
1000
,
0100
0000
0010
0000
0001
0100
0000
0001
0100
0001
0100
0000
0010
0000
0000
0000
,
1001
0000
0000
0011
0000
0000
0101
0000
0000
0000
1100
0000
1010
0000
0000
0000
,
1001
0000
0000
1010
0000
0000
1100
0000
0000
0000
0101
0000
0001
0010
0000
0001
,
0010
0000
0100
0000
1000
0010
0000
1000
0010
0000
0100
0000
0001
0010
0000
0001
,
0010
0000
0100
0000
1000
0010
0000
1000
0010
1000
0010
0000
0100
0000
0001
1000
,
0001
0010
0100
1000
0001
0000
0101
0000
,
1000
0000
1000
0000
0010
0000
0000
0000
0101
0000
0000
1000
0100
0000
1000
0001
,
1000
0010
0100
0001
1000
0100
0010
0001
,
1000
0010
0100
0001
1000
0100
0010
0001
1000
0010
0100
0001
1000
0100
0010
0002
,
2000
0000
3000
0023
,
0130
0000
1000
0000
0010
0000
1000
0001
1000
0001
1000
0000
0110
0000
0000
0000
,
0100
0000
0001
0000
0010
0000
0001
1000
0001
1000
0001
0000
0110
0000
0000
0000
,
1000
0100
0010
0001
1000
0100
2100
0000
,
3010
1000
0001
0100
0010
1000
0102
0000
,
0013
0000
0001
0000
0100
0000
0001
1000
0000
0001
1000
0000
0100
0000
0100
0000
,
1000
0000
0001
0000
0010
0000
0100
0010
0000
0100
0010
0000
0001
0000
0001
0000
,
1000
0010
0001
0100
1000
0010
0120
0000
,
1030
0100
0001
0010
1000
0100
0120
0000
,
0031
0000
0100
0000
0001
0000
1000
0010
0000
1000
0010
0000
0100
0000
0000
0000
,
1000
0000
1000
0000
0100
0000
0010
0001
0000
1000
0100
0000
0010
0000
0000
0000
,
0002
0100
1000
0100
0013
0001
1000
0000
,
2000
0100
0001
0100
3010
1000
0001
0000
,
1000
0100
1000
0100
1000
0100
1000
0100
0010
0001
0010
0001
0010
0001
0010
0001
,
1000
0001
1000
0001
1000
0001
1000
0001
0100
0010
0100
0010
0100
0010
0100
0010
,
1000
0000
0001
0100
0001
0100
0001
0100
0010
0100
0010
0100
0020
0000
0030
0000
,
0001
0000
1000
0100
1000
0100
1000
0100
0010
0100
0010
0100
0020
0000
0030
0000
,
1100
0001
0110
1000
0011
0100
1010
0100
,
0101
1100
1010
1001
0220
0000
0000
0000
,
0330
0000
0000
0000
;

//---------------dance-single - ----------------
#NOTES:
     dance-single:
     :
     Medium:
     9:
     0.330602,0.408518,0.141243,0.021730,0.000000,213.000000,200.000000,13.000000,2.000000,0.000000,0.000000,0.330602,0.408518,0.141243,0.021730,0.000000,213.000000,200.000000,13.000000,2.000000,0.000000,0.000000:
0000
0000
0000
0000
,
0000
0000
0000
0000
,
0000
0000
0000
0000
,
1000
0000
0010
0000
0001
0100
0001
0000
,
1000
0000
0010
0000
0001
0100
0001
0000
,
1000
0000
0010
0000
0001
0100
0001
0000
,
1000
0000
0010
0000
0001
0100
0001
0000
,
0011
0000
1000
0000
0100
0010
0001
0000
,
0100
0000
0010
0000
1000
0100
0010
0000
,
0100
0000
1000
0000
0001
0010
0100
0000
,
0010
0000
0001
0000
0100
0001
1000
0000
,
0001
1000
0001
1000
0001
1000
0001
0000
,
1000
0000
1000
0000
0010
0100
0010
0000
,
1000
0000
1000
0000
0100
0010
0100
0000
,
1000
1000
0001
0001
,
0010
0000
0010
0000
0001
1000
0001
0000
,
0100
0000
0010
0100
0000
0000
0001
0000
,
0001
0000
0010
0100
0000
0000
1000
0000
,
0001
0001
0000
0000
1000
1000
0000
0000
,
0001
0001
0000
0000
1000
1000
0000
0000
,
0010
0000
0100
0010
0000
0000
1000
0000
,
0100
0000
0010
0100
0000
0000
1000
0000
,
0001
0001
0000
0000
0010
0010
0000
0000
,
0100
0100
0000
0000
1000
1000
0000
0000
,
0001
1000
0001
1000
0001
0000
0001
0000
,
0000
0000
1000
1000
,
0010
0100
0010
1000
0100
0000
0010
0000
,
0001
1000
0100
0020
,
0000
0000
0000
0030
,
1000
1000
0100
0000
0001
0000
0010
0000
,
0001
0001
0100
0000
1000
0000
0010
0000
,
0100
0010
1000
1100
,
0001
0010
0100
0101
,
1000
1000
0010
0000
0100
0000
0010
0000
,
0001
0001
0010
0000
0100
0000
0010
0000
,
1000
0001
0100
0110
,
1000
0100
0010
0110
,
0001
0100
0001
0000
1000
0100
1000
0000
,
0001
0100
0001
0000
1000
0000
0100
0000
,
0010
0010
0100
1001
,
0100
0100
0010
1001
,
0100
0001
0100
0000
0010
1000
0010
0000
,
0100
0001
0100
0000
0001
0010
0100
0000
,
1000
0100
0001
0011
,
0001
0100
1000
1010
,
0101
0101
1100
1100
,
0001
0010
0100
1000
0002
0000
0000
0000
,
0003
0000
0000
0000
;

//---------------dance-single - ----------------
#NOTES:
     dance-single:
     :
     Easy:
     5:
     0.262308,0.280856,0.108648,0.162973,0.000000,169.000000,159.000000,10.000000,15.000000,0.000000,0.000000,0.262308,0.280856,0.108648,0.162973,0.000000,169.000000,159.000000,10.000000,15.000000,0.000000,0.000000:
0000
0000
0000
0000
,
0000
0000
0000
0000
,
0000
0000
0000
0000
,
1000
0010
0100
0000
,
0001
0001
0010
0000
,
0001
0010
0100
0000
,
1000
1000
0001
0000
,
0100
0000
0010
1000
,
0100
0000
0100
0010
,
0001
0100
1000
0010
,
1000
0001
0100
0010
,
1000
0001
1000
0001
,
0010
0010
0100
0000
,
0100
0100
1000
0000
,
0001
0100
1000
0010
,
0001
0100
2002
3003
,
0001
0010
0200
1300
,
0100
0010
0002
0103
,
2000
3000
0002
0003
,
0020
0030
0200
0300
,
0001
0010
0100
0100
,
1000
0010
0100
0200
,
0301
0020
0130
2000
,
3001
0200
0310
0001
,
1000
1000
1000
1000
,
0001
0010
0100
0001
,
1000
1000
0001
0001
,
0100
0010
1000
0100
,
0020
0000
0030
0000
,
0001
0100
0010
1000
,
0001
0100
0010
1000
,
0100
0100
0010
1001
,
0100
0010
0100
1001
,
1000
0010
0100
0001
,
1000
0010
0100
0001
,
0010
0100
0010
1001
,
0100
0010
0100
1001
,
0001
0001
0010
0010
,
0100
0100
1000
1000
,
0001
0100
0010
0101
,
1000
0100
0010
1100
,
0001
0001
0010
0010
,
0100
0100
1000
1000
,
0001
0010
0001
0110
,
1000
0010
1000
0110
,
0001
0001
0100
0100
,
1000
0010
2002
0000
,
3003
0000
0000
0000
;

//---------------dance-single - ----------------
#NOTES:
     dance-single:
     :
     Beginner:
     3:
     0.130378,0.204259,0.000000,0.184702,0.000000,84.000000,84.000000,0.000000,17.000000,0.000000,0.000000,0.130378,0.204259,0.000000,0.184702,0.000000,84.000000,84.000000,0.000000,17.000000,0.000000,0.000000:
0000
0000
0000
0000
,
0000
0000
0000
0000
,
0000
0000
0000
0000
,
2000
3000
0200
0300
,
0002
0003
0020
0030
,
0002
0003
0200
0300
,
2000
3000
0020
0030
,
1000
0000
1000
0000
,
0001
0000
0001
0000
,
0010
0000
0010
0000
,
0100
0000
0100
0000
,
0020
0000
0030
0000
,
0001
0001
0000
0000
,
1000
1000
0000
0000
,
0010
0010
0000
0000
,
0100
0100
0100
0000
,
0020
0000
0030
0000
,
2000
0000
3000
0000
,
0001
0000
0001
0000
,
1000
0000
1000
0000
,
0002
0000
0003
0000
,
0020
0000
0030
0000
,
0200
0000
0300
0000
,
0002
0000
0003
0000
,
1000
0000
1000
0000
,
0001
0000
0001
0000
,
0100
0000
0010
0000
,
1000
0000
0100
0000
,
0020
0000
0030
0000
,
0001
0000
0001
0000
,
1000
0000
0001
0000
,
1000
0000
1000
0000
,
0010
0000
0001
0000
,
0100
0000
0100
0000
,
0010
0000
0001
0000
,
1000
0000
1000
0000
,
0001
0000
0001
0000
,
0010
0000
0100
0000
,
1000
0000
0010
0000
,
0001
0000
0100
0000
,
0001
0000
0010
0000
,
1000
0000
1000
0000
,
0001
0000
0001
0000
,
0010
0000
0100
0000
,
1000
0000
0010
0000
,
0001
0001
1000
1000
,
0001
0001
2000
0000
,
3000
0000
0000
0000
;
