#TITLE:DON'T STOP;
#SUBTITLE:;
#ARTIST:S&K;
#TITLETRANSLIT:;
#SUBTITLETRANSLIT:;
#ARTISTTRANSLIT:;
#GENRE:;
#CREDIT:;
#BANNER:;
#BACKGROUND:;
#LYRICSPATH:;
#CDTITLE:;
#MUSIC:Don't Stop.ogg;
#OFFSET:-0.100000;
#SAMPLESTART:25.059933;
#SAMPLELENGTH:12.000000;
#SELECTABLE:YES;
#BPMS:0.000000=124.999992
;
#STOPS:
;
#BGCHANGES:;
#KEYSOUNDS:;
#ATTACKS:;

//---------------dance-single - ----------------
#NOTES:
     dance-single:
     :
     Hard:
     13:
     0.601234,0.612578,0.476450,0.000000,0.136129,371.000000,329.000000,42.000000,0.000000,0.000000,0.000000,0.601234,0.612578,0.476450,0.000000,0.136129,371.000000,329.000000,42.000000,0.000000,0.000000,0.000000:
0000
0000
0000
0000
,
0000
0000
0000
0000
,
0000
0000
0000
0000
,
0000
0000
0000
0000
,
0000
0000
0000
0000
,
1000
0100
0010
0100
1000
0010
0100
0010
,
1000
0001
0100
0010
1000
0100
1000
0010
,
1000
0100
1000
0010
0100
0001
0010
0001
,
0100
0000
0000
0010
0000
0000
0100
0000
0000
0001
0000
0000
0100
0000
0010
0000
0100
0000
0001
0000
0100
0000
0010
0000
,
1000
0001
0100
0010
1000
0001
0100
0010
,
0100
0001
0100
0010
1000
0100
1000
0001
,
0100
0010
1000
0100
0001
0010
1000
0100
,
0001
0000
0000
0010
0000
0000
1000
0000
0000
0100
0000
0000
1000
0000
0001
0000
0100
0000
0001
0000
1000
0000
0100
0000
,
1000
1100
1000
1100
1000
0001
1100
0001
,
0100
0010
1000
0100
1000
0010
0100
0001
,
0100
0101
0100
0101
0100
0001
0110
0001
,
0100
0010
1000
0100
1000
0010
0100
0001
,
0010
0011
0010
0011
0010
0001
0101
0010
,
1000
0100
1000
0010
0100
0001
0100
0010
,
0100
0110
0100
0110
0100
0010
1001
0010
,
1000
0000
0000
1000
0000
0000
0000
0000
0000
0001
0000
0000
0001
0000
1000
0000
0001
0000
0100
0000
0100
0000
0100
0000
,
0010
1000
0100
1000
0010
1000
0100
1000
,
0010
0100
0001
0100
0010
0100
0001
0100
,
0010
1000
0100
0010
0001
0100
0001
0100
,
0010
1000
0100
1000
0010
0100
0001
0100
,
0010
0110
0010
1010
0010
0110
0010
0010
,
1000
0001
1000
0100
1000
0010
0100
0001
,
0100
0101
0100
0110
0100
0001
1010
0001
,
1000
0100
1000
0101
1000
0100
1001
0000
,
1000
0001
0100
0001
1000
0010
1000
0100
,
1000
0100
1000
0010
1000
0001
0100
0010
,
0100
0001
0100
0010
1000
0100
1000
0001
,
0100
0000
0000
0010
0000
0000
1000
0000
0000
0001
0000
0000
1000
0000
0001
0000
0100
0000
0010
0000
1000
0000
0100
0000
,
1000
1100
1000
1100
1000
0001
1100
0001
,
0100
0010
1000
0100
1000
0010
0100
0001
,
0100
0101
0100
0101
0100
0001
0110
0001
,
0100
0010
1000
0100
1000
0010
0100
0001
,
0010
0011
0010
0011
0010
0001
0101
0010
,
1000
0100
1000
0010
0100
0001
0100
0010
,
0100
0110
0100
0110
0100
0010
1001
0010
,
1001
0000
0000
0101
0000
0000
0100
0100
0100
0010
0010
0010
,
1000
1100
1000
1001
0100
1001
0001
0010
,
1000
0100
1000
1000
0010
0100
0001
0001
,
0100
0110
1000
0110
1000
0110
0101
0001
,
0100
0000
0000
0010
0000
0000
1000
0000
0000
0100
0000
0000
1000
0000
1000
0000
1000
0000
0001
0000
0001
0000
0001
0000
,
1001
0000
0000
0000
;

//---------------dance-single - ----------------
#NOTES:
     dance-single:
     :
     Medium:
     9:
     0.403524,0.459434,0.011344,0.000000,0.113440,249.000000,248.000000,1.000000,0.000000,0.000000,0.000000,0.403524,0.459434,0.011344,0.000000,0.113440,249.000000,248.000000,1.000000,0.000000,0.000000,0.000000:
0000
0000
0000
0000
,
0000
0000
0000
0000
,
0000
0000
0000
0000
,
0000
0000
0000
0000
,
0000
0000
0000
0000
,
1000
0001
0000
0001
0000
0001
0000
0001
,
0100
0001
0000
0001
0000
0001
0000
0001
,
0010
0001
0000
0001
0000
0001
0000
0001
,
0010
0100
0000
0100
0000
0100
0000
0100
,
1000
0010
0000
0010
0000
0010
0000
0010
,
0100
0001
0000
0001
0000
0001
0000
0001
,
0100
0010
0000
0010
0000
0010
0000
0010
,
1000
0000
0000
0100
0000
0000
0000
0000
0000
0100
0000
0000
1000
0000
0100
0000
1000
0000
0100
0000
1000
0000
0100
0000
,
1000
1000
1000
0000
0100
0100
0100
0000
,
0010
0010
0010
0000
0001
0001
0001
0000
,
1000
1000
1000
0000
0100
0100
0100
0000
,
0010
0001
0010
0100
1000
0100
0010
0000
,
0001
0001
0001
0000
0100
0100
0100
0000
,
0010
0010
0010
0000
1000
1000
1000
0000
,
0001
0001
0001
0000
0100
0100
0100
0000
,
0010
0000
0000
0010
0000
0000
0010
0000
0000
0010
0000
0000
1000
0000
0010
0000
0100
0000
0001
0000
0100
0000
0010
0000
,
1000
0001
0000
0010
0000
0100
0000
1000
,
0001
0010
0000
0100
0000
1000
0000
0001
,
0010
0100
0000
1000
0000
0001
0000
0010
,
0100
1000
0000
0001
0000
0010
0000
0100
,
1000
1000
1000
0000
0100
0100
0100
0000
,
1000
1000
1000
0000
0010
0010
0010
0000
,
0100
0100
0100
0000
0001
0001
0001
0000
,
0010
0010
0010
0000
1001
0000
0000
0000
,
1000
0010
0000
0010
0000
0100
0000
0010
,
0100
0010
0000
1000
0000
0100
0000
1000
,
0010
0100
0000
0001
0000
0010
0000
0001
,
0100
0000
0000
0010
0000
0000
0000
0000
0000
1000
0000
0000
0100
0000
1000
0000
0100
0000
1000
0000
0010
0000
0100
0000
,
0001
0001
0001
0000
0100
0100
0100
0000
,
0010
0010
0010
0000
1000
1000
1000
0000
,
0100
0100
0100
0000
1000
1000
1000
0000
,
0010
0100
0010
0001
0010
0100
0010
0000
,
1000
0010
1000
0100
1000
0010
1000
0000
,
0001
0100
0001
0010
0001
0100
0001
0000
,
1000
0001
0100
0010
1000
0001
0100
0000
,
0001
0000
0000
0010
0000
0000
0100
0000
0000
1000
0000
0000
0001
0000
0100
0000
0010
0000
1000
0000
0010
0000
0100
0000
,
0001
0001
0001
0000
1000
1000
1000
0000
,
0010
0010
0010
0000
1000
1000
1000
0000
,
0100
0100
0100
0000
0010
0010
0010
0000
,
0001
0000
0000
0100
0000
0000
0001
0000
0000
0100
0000
0000
0010
0000
1000
0000
0010
0000
1000
0000
0010
0000
1000
0000
,
0100
0000
0000
0000
;

//---------------dance-single - ----------------
#NOTES:
     dance-single:
     :
     Easy:
     8:
     0.353286,0.408386,0.192849,0.000000,0.102096,218.000000,201.000000,17.000000,0.000000,0.000000,0.000000,0.353286,0.408386,0.192849,0.000000,0.102096,218.000000,201.000000,17.000000,0.000000,0.000000,0.000000:
// measure 0
0000
0000
0000
0000
,  // measure 1
0000
0000
0000
0000
,  // measure 2
0000
0000
0000
0000
,  // measure 3
0000
0000
0000
0000
,  // measure 4
0000
0000
0000
0000
,  // measure 5
1000
0100
0001
0100
,  // measure 6
1000
0100
0001
0100
,  // measure 7
1000
0010
0001
0010
,  // measure 8
1000
0010
0001
0010
,  // measure 9
1001
0100
0010
0001
,  // measure 10
1001
0010
0100
1000
,  // measure 11
1000
0100
0001
0010
,  // measure 12
1000
0000
0000
0100
0000
0000
1000
0010
1000
0010
1000
0010
,  // measure 13
1000
0000
1000
0000
0100
0100
0100
0000
,  // measure 14
1001
0000
0010
0000
0100
0100
0100
0000
,  // measure 15
0101
0000
0010
0000
0001
0001
0001
0000
,  // measure 16
0101
0000
0010
0000
1000
1000
1000
0000
,  // measure 17
1010
0000
0100
0000
0001
0001
0001
0000
,  // measure 18
1001
0000
0100
0000
0010
0010
0010
0000
,  // measure 19
0011
0000
1000
0000
0100
0100
0100
0000
,  // measure 20
1010
0000
0000
0001
0000
0000
0001
1000
0001
1000
0001
1000
,  // measure 21
0001
0100
0010
1000
,  // measure 22
0100
1000
0010
0100
,  // measure 23
0001
0100
0010
1000
,  // measure 24
0100
1000
0100
1000
,  // measure 25
1000
0000
0001
0000
0100
0010
0100
0000
,  // measure 26
1001
0000
0100
0000
0010
1000
0010
0000
,  // measure 27
1000
0000
0100
0000
1000
0100
1000
0000
,  // measure 28
0100
0010
1001
0000
,  // measure 29
1000
0100
0001
1000
,  // measure 30
0010
0001
1000
0100
,  // measure 31
0001
1000
0010
0001
,  // measure 32
1000
0000
0000
0100
0000
0000
1000
0100
1000
0100
1000
0100
,  // measure 33
1000
0000
0001
0000
0100
0010
0100
0000
,  // measure 34
0101
0000
1000
0000
0010
0100
0010
0000
,  // measure 35
1010
0000
0100
0000
0010
0001
0010
0000
,  // measure 36
0001
0000
0010
0000
0100
1000
0100
0000
,  // measure 37
1000
0010
1000
0000
0001
0100
0001
0000
,  // measure 38
0100
0010
0100
0000
0001
1000
0001
0000
,  // measure 39
1000
0100
1000
0000
0001
0010
0001
0000
,  // measure 40
1000
0000
0000
0001
0000
0000
0001
0010
0001
0010
0001
0010
,  // measure 41
0001
0000
0100
0000
0010
1000
0010
0000
,  // measure 42
1001
0000
0100
0000
1000
0100
1000
0000
,  // measure 43
1001
0000
0100
0000
0001
0100
0010
0000
,  // measure 44
1001
0000
0000
0100
0000
0000
1000
0001
1000
0001
0000
0000
,  // measure 45
1001
0000
0000
0000
;

//---------------dance-single - ----------------
#NOTES:
     dance-single:
     :
     Beginner:
     3:
     0.157196,0.178669,0.000000,0.068064,0.000000,97.000000,97.000000,0.000000,6.000000,0.000000,0.000000,0.157196,0.178669,0.000000,0.068064,0.000000,97.000000,97.000000,0.000000,6.000000,0.000000,0.000000:
// measure 0
0000
0000
0000
0000
,  // measure 1
0000
0000
0000
0000
,  // measure 2
0000
0000
0000
0000
,  // measure 3
0000
0000
0000
0000
,  // measure 4
0000
0000
0000
0000
,  // measure 5
1000
1000
1000
0000
,  // measure 6
0001
0001
0001
0000
,  // measure 7
1000
1000
1000
0000
,  // measure 8
0001
0001
0001
0000
,  // measure 9
0100
0100
0100
0000
,  // measure 10
0010
0010
0010
0000
,  // measure 11
0100
0100
0100
0000
,  // measure 12
0010
0010
0020
0030
,  // measure 13
0010
0000
1000
0000
,  // measure 14
0001
0000
0100
0000
,  // measure 15
0010
0000
1000
0000
,  // measure 16
0100
0000
1000
0000
,  // measure 17
0010
0000
0100
0000
,  // measure 18
0001
0000
0010
0000
,  // measure 19
0001
0000
0100
0000
,  // measure 20
0010
0000
2000
3000
,  // measure 21
1000
1000
1000
0000
,  // measure 22
0001
0001
0001
0000
,  // measure 23
0100
0100
0100
0000
,  // measure 24
0010
0010
0010
0000
,  // measure 25
1000
1000
1000
0000
,  // measure 26
0001
0001
0001
0000
,  // measure 27
0100
0100
0100
0000
,  // measure 28
0010
0010
0020
0030
,  // measure 29
0010
0000
1000
0000
,  // measure 30
0001
0000
0100
0000
,  // measure 31
0010
0000
1000
0000
,  // measure 32
0100
0000
2000
3000
,  // measure 33
1000
0000
0001
0000
,  // measure 34
0100
0000
0001
0000
,  // measure 35
0100
0000
0010
0000
,  // measure 36
1000
0000
0100
0000
,  // measure 37
1000
0000
0010
0000
,  // measure 38
1000
0000
0100
0000
,  // measure 39
1000
0000
0010
0000
,  // measure 40
0100
0000
0002
0003
,  // measure 41
0001
0000
0100
0000
,  // measure 42
0010
0000
1000
0000
,  // measure 43
0100
0000
1000
0000
,  // measure 44
0010
0000
0200
0300
,  // measure 45
0100
0000
0000
0000
;
