#VERSION:0.83;
#TITLE:Colors;
#SUBTITLE:-InPhase Mix-;
#ARTIST:dj.TAKA;
#TITLETRANSLIT:;
#SUBTITLETRANSLIT:;
#ARTISTTRANSLIT:;
#GENRE:Trance;
#ORIGIN:;
#CREDIT:;
#BANNER:Colors -InPhase Mix-.png;
#BACKGROUND:Colors -InPhase Mix-bg.png;
#PREVIEWVID:;
#JACKET:Colors -InPhase Mix-jacket.png;
#CDIMAGE:;
#DISCIMAGE:;
#LYRICSPATH:;
#CDTITLE:;
#MUSIC:Colors -InPhase Mix-.ogg;
#OFFSET:-0.974986;
#SAMPLESTART:0.420000;
#SAMPLELENGTH:12.000000;
#SELECTABLE:YES;
#BPMS:0.000=150.000,
128.000=75.020,
160.000=150.000;
#STOPS:;
#DELAYS:;
#WARPS:;
#TIMESIGNATURES:0.000=4=4;
#TICKCOUNTS:0.000=4;
#COMBOS:0.000=1;
#SPEEDS:0.000=1.000=0.000=0;
#SCROLLS:0.000=1.000;
#FAKES:;
#LABELS:0.000=Song Start;
#BGCHANGES:
;
#KEYSOUNDS:;
#ATTACKS:
;

//---------------dance-single - ----------------
#NOTEDATA:;
#CHARTNAME:;
#STEPSTYPE:dance-single;
#DESCRIPTION:;
#CHARTSTYLE:;
#DIFFICULTY:Hard;
#METER:12;
#RADARVALUES:0.443466,0.492577,0.213792,0.359171,0.051310,363.000000,338.000000,25.000000,42.000000,0.000000,0.000000,0.000000,0.000000,0.000000,0.443466,0.492577,0.213792,0.359171,0.051310,363.000000,338.000000,25.000000,42.000000,0.000000,0.000000,0.000000,0.000000,0.000000;
#CREDIT:;
#NOTES:
0000
0000
0000
0000
,
0000
0000
0000
0000
,
0000
0000
0000
0000
,
0000
0000
0000
0000
,
0020
0000
0130
0000
0001
1000
0000
1001
,
0000
0200
0010
0300
0110
0001
0000
0001
,
2000
0000
3100
1000
0002
0000
0103
0001
,
2000
0000
0010
0000
0001
0000
3100
1000
,
0001
0101
1000
1100
,
0001
0101
1000
1100
,
0001
0100
1000
0000
1000
0100
0001
0000
,
0100
0001
0010
0000
0001
0010
1000
0000
,
1000
0010
0001
0000
0100
0001
0010
0000
,
0001
1000
0100
0000
1000
0100
0001
0000
,
0001
0100
1000
0100
0010
0001
1000
0010
,
1000
0001
0100
0010
1000
0100
0010
0001
,
1000
0000
1100
0000
0001
0100
1000
0000
,
0001
0000
0101
0000
1000
0100
0001
0000
,
0001
0100
1000
0000
1000
0100
0001
0000
,
1000
0010
0001
0000
0001
0010
1000
0000
,
0001
0010
0100
1000
0100
0010
0001
0100
,
0020
0001
0100
1030
,
1001
0000
1000
0010
0100
0000
0002
0010
,
0000
1000
0000
0100
0000
1003
0000
0001
,
2001
0000
0100
0000
3010
1000
0100
0000
,
1002
0000
0100
0000
0013
0001
0100
0000
,
0010
1000
0100
0000
0100
1000
0010
0000
,
1000
0100
0001
0000
0001
0100
1000
0000
,
0001
0010
1000
0000
1000
0010
0001
0000
,
0100
0010
1000
0000
0100
0010
0001
0000
,
1000
0010
1000
0001
0100
0010
0100
0001
,
1000
0100
0010
0001
1000
0100
0010
0100
,
2100
0000
0000
0000
0000
0000
0000
0001
3002
0000
0000
0000
0103
0200
0000
0000
,
0320
0000
2030
0000
,
3002
0000
0000
0000
0000
0000
0013
0000
0020
0000
0000
0130
0200
0000
0000
1000
,
2300
0000
0000
0000
3002
0000
0000
0000
0203
0000
0000
0000
0320
0000
1030
0001
,
0200
0000
0000
0000
0000
0000
0000
0010
0320
0000
0000
0000
1000
2030
0000
0000
,
3002
0023
0230
2300
3002
0000
0020
0033
,
0022
0000
0000
0000
0030
0000
0000
1000
2000
0000
0000
0003
0000
0010
0000
0001
,
0002
0000
0000
0000
0000
0000
0000
0000
0000
3003
0000
1000
0001
1000
0001
0000
,
0210
1000
0300
1000
0000
0001
0000
0001
,
0100
1000
0000
0100
0000
0010
0000
1000
,
0100
0001
0000
0100
0000
0010
0000
0001
,
0100
1000
0000
0100
0000
0010
0000
1000
,
2001
0001
3000
0010
0000
0100
0000
1000
,
2001
0001
3000
0100
0000
0010
0000
0001
,
1002
1000
0003
0100
0021
0001
0030
1000
,
1020
0130
0001
0100
0010
1000
0100
0000
,
0001
0100
1000
0000
1000
0100
0001
0000
,
1000
0100
0001
0000
0001
0100
1000
0000
,
0001
0010
0100
0000
0010
0000
0101
0000
,
1000
0010
0100
0000
0010
0000
1001
0000
,
0001
0000
0101
0000
1000
0100
0001
0000
,
1000
0000
1100
0000
0001
0100
1000
0000
,
0010
0000
0101
0000
1000
0100
0001
0000
,
0010
0000
1100
0000
0010
0001
0100
0000
,
0010
1000
0100
1000
0100
0010
0001
0010
,
0001
0100
0010
0100
0010
1000
0100
1000
,
0001
0100
0001
0010
0100
1000
0010
1000
,
0001
0100
0010
0100
0001
1000
0100
0010
,
0001
1000
0100
1000
0010
1000
0001
0100
,
0010
1000
0001
0010
0100
1000
0001
0100
,
0020
0200
0000
0000
,
0000
0000
0000
0000
,
0330
0000
0000
0000
;

//---------------dance-single - ----------------
#NOTEDATA:;
#CHARTNAME:;
#STEPSTYPE:dance-single;
#DESCRIPTION:;
#CHARTSTYLE:;
#DIFFICULTY:Challenge;
#METER:13;
#RADARVALUES:0.521653,0.574673,0.213792,0.316412,0.239447,427.000000,402.000000,25.000000,37.000000,0.000000,0.000000,0.000000,0.000000,0.000000,0.521653,0.574673,0.213792,0.316412,0.239447,427.000000,402.000000,25.000000,37.000000,0.000000,0.000000,0.000000,0.000000,0.000000;
#CREDIT:;
#NOTES:
0000
0000
0000
0000
,
0000
0000
0000
0000
,
0000
0000
0000
0000
,
0000
0000
0000
0000
,
0001
0100
1000
0000
0010
0100
0000
1001
,
0000
0100
0010
0000
0110
1000
0000
1000
,
0002
0000
0103
0001
2000
0000
3100
1000
,
0001
0000
0110
0000
1100
0000
1001
0001
,
0100
0010
1000
0100
0001
0100
1000
0001
,
0000
0010
0001
0100
0001
1000
0010
0100
,
0000
1000
0100
1000
0001
0100
0010
1000
,
0000
1000
0001
0010
0100
0010
0001
1000
,
0100
0000
0010
0001
0100
0010
1000
0001
,
0000
0001
0100
1000
0100
0001
0000
0001
,
1000
0000
0010
0100
0001
1000
0000
0100
,
0010
0001
0100
1000
0010
1000
0100
0001
,
0010
0000
0011
0000
1000
0100
0001
0000
,
1000
0100
0010
0001
0100
0010
1000
0001
,
1000
0010
0100
0000
0001
1000
0100
0010
,
0000
0010
0001
1000
0000
1000
0100
0000
,
0011
0000
1100
0000
0101
0100
0010
1000
,
0000
0001
0100
0010
0000
1000
0100
0010
,
0001
0000
0001
0010
0100
0000
1000
0100
,
0000
0011
0000
0101
0000
1010
0000
2001
,
0100
0000
0001
0000
3010
1000
0100
0000
,
1002
0000
0100
0000
0013
0001
1000
0000
,
1000
0100
1000
0100
0001
0100
1000
0001
,
0010
0000
0100
0010
0001
0100
0010
0000
,
1002
0000
0010
0000
0103
0001
1000
0000
,
2001
0000
0010
0000
3100
1000
0001
0010
,
0100
0010
0001
0100
0010
1000
0100
0010
,
0001
0010
0100
1000
0010
0100
0001
1000
,
1002
0000
0000
0000
0000
0000
0000
1000
2003
0000
0000
0000
3100
0200
0000
0000
,
0320
0000
0032
0000
,
2003
0000
0000
0000
0000
0000
3010
0000
0020
0000
0000
0130
0200
0000
0000
0001
,
0302
0000
0000
0000
2003
0000
0000
0000
3200
0000
0000
0000
0320
0000
0031
1000
,
0200
0000
0000
0000
0000
0000
0000
0010
0320
0000
0000
0000
0001
0032
0000
0000
,
2003
3020
0230
0302
2003
0000
0020
3030
,
2020
0000
0000
0000
0030
0000
0000
0001
0002
3000
0000
0000
0000
0010
0000
1000
,
2000
0000
0000
0000
0000
0000
0000
0000
0000
3003
0000
1000
0001
1000
0001
0000
,
0110
0001
0000
0100
0000
1000
0000
0010
,
0100
0010
0000
1000
0000
0100
0000
0001
,
1001
1000
0000
0100
0000
0001
0000
0010
,
0001
0100
0000
1000
0000
0010
0000
0100
,
0210
0010
0300
0001
0000
1000
0000
0100
,
0210
1000
0300
0010
0000
0001
0000
1000
,
2100
0001
3000
0001
0102
1000
0003
1000
,
1001
1000
0100
0010
0001
0100
0010
1000
,
0001
0000
0010
0000
0100
0010
0000
0100
0010
0000
0001
0010
0000
0001
0010
0000
,
0100
0000
1000
0000
0010
1000
0000
0100
1000
0000
0001
1000
0000
0010
0100
0000
,
0001
0000
0001
0000
1000
0100
0000
0100
0010
0000
0010
0001
0000
0001
1000
0000
,
1000
0000
1000
0000
0010
0100
0000
0100
0001
0000
0001
1000
0000
1000
0010
0000
,
0010
0000
0010
0000
0100
0001
0000
1000
0001
0000
0010
0001
0000
0100
0001
0000
,
1000
0000
0001
0000
0010
0001
0000
0100
0001
0000
1000
0001
0000
0010
0001
0000
,
0100
0000
0100
0000
0010
1000
0000
0100
1000
0000
0001
1000
0000
0010
1000
0000
,
0100
0000
0100
0000
1000
0010
0000
0100
0001
0000
1000
0100
0000
0010
0100
0000
,
1000
0000
0010
0000
1000
0001
1000
0000
0100
0000
1000
0000
0001
1000
0001
0000
,
0010
0000
0001
0000
0100
0010
0100
0000
0001
0000
1000
0000
0100
0010
0100
0000
,
1000
0000
0100
0000
0010
0001
0010
0000
0100
0000
1000
0000
0001
1000
0001
0000
,
0100
0000
0010
0000
1000
0010
1000
0000
0010
0000
0100
0000
0001
1000
0001
0000
,
0010
0000
0100
0000
1000
0001
0100
0000
0010
0000
0100
0000
0001
1000
0100
0000
,
0010
0000
0001
0000
1000
0010
0100
0000
0010
0000
1000
0000
0001
0010
0100
0000
,
0020
0200
0000
0000
,
0000
0000
0000
0000
,
0330
0000
0000
0000
;

//---------------dance-single - ----------------
#NOTEDATA:;
#CHARTNAME:;
#STEPSTYPE:dance-single;
#DESCRIPTION:;
#CHARTSTYLE:;
#DIFFICULTY:Medium;
#METER:8;
#RADARVALUES:0.306639,0.328385,0.136827,0.273654,0.000000,251.000000,235.000000,16.000000,32.000000,0.000000,0.000000,0.000000,0.000000,0.000000,0.306639,0.328385,0.136827,0.273654,0.000000,251.000000,235.000000,16.000000,32.000000,0.000000,0.000000,0.000000,0.000000,0.000000;
#CREDIT:;
#NOTES:
0000
0000
0000
0000
,
0000
0000
0000
0000
,
0000
0000
0000
0000
,
0000
0000
0000
0000
,
0001
0000
0100
0000
1000
0000
0010
1000
,
0001
0000
0010
0000
0100
0000
1000
0001
,
0010
0000
0100
0000
0010
0000
0001
0100
,
0002
0010
1000
0103
,
0101
1000
0100
0010
,
1000
0100
1000
0010
,
0001
0100
0010
0001
,
1000
0001
1000
0000
0100
0000
0010
0000
,
0100
1000
0001
0100
,
1000
0010
1000
0000
0001
0000
0100
0000
,
0010
0100
0010
0000
1000
0001
1000
0000
,
0200
0010
0010
0310
,
1001
0000
1000
0000
0100
1000
0100
0000
,
0010
0001
0100
0010
,
2000
0100
0100
3001
,
0001
0100
0001
0010
,
0002
0100
0100
1003
,
0010
0100
0001
0010
,
0100
0000
1000
0001
1000
0000
0010
0100
,
0000
0010
0000
1000
0000
0001
0000
0000
,
1001
1000
0100
0001
,
1001
0001
0100
1000
,
0020
0130
2000
3100
,
0002
0000
0010
0003
0200
0000
0301
0000
,
1001
1000
0010
0100
,
1001
0001
0010
0100
,
1000
0100
1000
0000
0001
0100
0001
0000
,
1000
0100
0010
0001
,
0200
0000
0000
0000
,
0020
0000
0000
0330
,
2002
0000
0000
0000
,
0000
0000
0000
0000
0000
0000
3003
0100
,
0200
0000
0320
0000
,
0032
2003
3020
0230
,
0002
0000
0300
1000
2000
0000
3003
0000
,
0220
0000
0000
0000
0000
0000
0000
0330
,
1000
0100
1000
0100
,
0010
0001
0010
0001
,
0101
1000
0010
0100
,
0001
0000
0010
0000
0100
0000
1000
0001
,
1001
0001
0100
1000
,
0010
0000
0001
0000
0010
0000
1000
0100
,
2200
3300
0202
0303
,
2002
0000
0000
3003
,
1000
0010
1000
0000
0010
0000
0100
0000
,
0001
0010
0001
0000
1000
0000
0100
0000
,
0010
0100
0010
0000
0001
0000
0100
0000
,
0010
0100
0010
0000
1000
0000
0100
0000
,
0010
0010
0010
0000
0001
0000
0100
0000
,
1000
1000
1000
0000
0010
0000
0100
0000
,
0001
0001
0001
0000
0010
0000
0100
0000
,
0010
0010
0010
0000
0001
0000
1000
0000
,
0120
0001
0100
0001
,
0100
0000
0001
0000
0130
0010
0001
0000
,
0102
1000
0100
1000
,
0100
0000
1000
0000
0013
0100
1000
0000
,
0010
0000
0100
0000
0001
0100
0001
0000
,
0010
0000
0100
0000
1000
0001
1000
0000
,
0220
0000
0000
0000
,
0000
0000
0000
0000
,
0330
0000
0000
0000
;

//---------------dance-single - ----------------
#NOTEDATA:;
#CHARTNAME:;
#STEPSTYPE:dance-single;
#DESCRIPTION:;
#CHARTSTYLE:;
#DIFFICULTY:Easy;
#METER:6;
#RADARVALUES:0.285871,0.355750,0.282206,0.342067,0.000000,234.000000,201.000000,33.000000,40.000000,0.000000,0.000000,0.000000,0.000000,0.000000,0.285871,0.355750,0.282206,0.342067,0.000000,234.000000,201.000000,33.000000,40.000000,0.000000,0.000000,0.000000,0.000000,0.000000;
#CREDIT:;
#NOTES:
0000
0000
0000
0000
,
0000
0000
0000
0000
,
0000
0000
0000
0000
,
0000
0000
0000
0000
,
0001
0001
0001
0010
,
1000
1000
1000
0100
,
0001
0010
1000
0100
,
0001
0010
1000
0100
,
0002
0100
0103
0001
,
2000
0100
3100
1000
,
0020
0100
0130
0010
,
2000
3100
0002
0103
,
1000
0100
0010
0001
,
0100
0100
0010
1000
,
0100
0010
0001
1000
,
0200
0010
0010
0310
,
1001
1000
0100
0001
,
1001
0001
0100
1000
,
1001
0001
0010
1000
,
1001
1000
0010
0001
,
1000
1000
0010
0100
,
0010
1000
0100
0010
,
0001
0001
0100
0010
,
0101
1001
1100
1001
,
0020
0100
0100
0100
,
0130
0000
0000
0000
,
1000
0010
0001
0100
,
1000
0100
0001
0010
,
0200
0010
0010
0310
,
2002
0000
0000
3003
,
2020
0000
0000
0030
,
0001
0100
0001
0100
,
0002
3000
0020
0003
,
0200
0030
2000
0300
,
0002
3000
0200
0003
,
0020
0000
0000
0030
,
0002
0300
0020
0003
,
0200
0030
2000
0300
,
0020
0030
0002
0003
,
0200
0000
0000
3300
,
0011
0100
0001
1000
,
1010
0100
1000
0001
,
0011
0100
0001
1000
,
1100
0001
0100
1010
,
1100
0001
1000
0100
,
0011
0100
0010
0101
,
2002
3003
2002
3003
,
0220
0000
0000
0330
,
0101
1000
0001
0100
,
1001
1000
0100
0010
,
1001
0100
0010
0001
,
1100
0001
1000
0100
,
0012
0100
0010
0103
,
2010
0100
0010
3100
,
1002
0010
0100
0010
,
0100
0100
1000
1003
,
0120
0100
0100
0100
,
1000
1000
1000
1030
,
0102
0100
0100
0100
,
0010
0013
1100
0011
,
0210
0010
0010
0010
,
0320
0001
0130
1000
,
0020
0000
0000
0000
,
0000
0000
0000
0000
,
0030
0000
0000
0000
;

//---------------dance-single - ----------------
#NOTEDATA:;
#CHARTNAME:;
#STEPSTYPE:dance-single;
#DESCRIPTION:;
#CHARTSTYLE:;
#DIFFICULTY:Beginner;
#METER:3;
#RADARVALUES:0.084295,0.164192,0.042758,0.111172,0.000000,69.000000,64.000000,5.000000,13.000000,0.000000,0.000000,0.000000,0.000000,0.000000,0.084295,0.164192,0.042758,0.111172,0.000000,69.000000,64.000000,5.000000,13.000000,0.000000,0.000000,0.000000,0.000000,0.000000;
#CREDIT:;
#NOTES:
// measure 0
0000
0000
0000
0000
,  // measure 1
0000
0000
0000
0000
,  // measure 2
0000
0000
0000
0000
,  // measure 3
0000
0000
0000
0000
,  // measure 4
0000
0000
0000
0000
,  // measure 5
0000
0000
0000
0000
,  // measure 6
0000
0000
0000
0000
,  // measure 7
0000
0000
0000
0000
,  // measure 8
1000
0000
1000
0000
,  // measure 9
1000
0000
0000
0000
,  // measure 10
0001
0000
0001
0000
,  // measure 11
0001
0000
0000
0000
,  // measure 12
0010
0000
0010
0000
,  // measure 13
0010
0000
0000
0000
,  // measure 14
0200
0000
0000
0000
,  // measure 15
0300
0000
0000
0000
,  // measure 16
1001
0000
1000
0000
,  // measure 17
1000
0000
0000
0000
,  // measure 18
0001
0000
0001
0000
,  // measure 19
0001
0000
0000
0000
,  // measure 20
0010
0010
0000
0010
,  // measure 21
0010
0000
0000
0000
,  // measure 22
0100
0000
0100
0000
,  // measure 23
1000
0000
0001
0000
,  // measure 24
1000
0000
1000
0000
,  // measure 25
2000
0000
3000
0000
,  // measure 26
0001
0000
0001
0000
,  // measure 27
0100
0000
1000
0000
,  // measure 28
0010
0000
0001
0000
,  // measure 29
0002
0000
0003
0000
,  // measure 30
0020
0000
0000
0000
,  // measure 31
0030
0000
0000
0000
,  // measure 32
2002
0000
0000
0000
,  // measure 33
0000
0000
0000
0000
,  // measure 34
3003
0000
0000
0000
,  // measure 35
0000
0000
0000
0000
,  // measure 36
0200
0000
0000
0000
,  // measure 37
0300
0000
0000
0000
,  // measure 38
0020
0000
0000
0000
,  // measure 39
0000
0000
0000
0030
,  // measure 40
1000
0000
0000
0000
,  // measure 41
1000
0000
0000
0000
,  // measure 42
0001
0000
0000
0000
,  // measure 43
0001
0000
0000
0000
,  // measure 44
0010
0000
0000
0000
,  // measure 45
0100
0000
0000
0000
,  // measure 46
0010
0000
0010
0000
,  // measure 47
0020
0000
0030
0000
,  // measure 48
1001
0000
0001
0000
,  // measure 49
0001
0000
0000
0000
,  // measure 50
1001
0000
1000
0000
,  // measure 51
1000
0000
0000
0000
,  // measure 52
0110
0000
0100
0000
,  // measure 53
0010
0000
0010
0000
,  // measure 54
0200
0000
0000
0000
,  // measure 55
0300
0000
0000
0000
,  // measure 56
0002
0000
0000
0000
,  // measure 57
0003
0000
0000
0000
,  // measure 58
2000
0000
0000
0000
,  // measure 59
3000
0000
0000
0000
,  // measure 60
0100
0000
0100
0000
,  // measure 61
0100
0000
0000
0000
,  // measure 62
0020
0000
0000
0000
,  // measure 63
0000
0000
0000
0000
,  // measure 64
0030
0000
0000
0000
;
