#VERSION:0.83;
#TITLE:Closer;
#SUBTITLE:;
#ARTIST:Nightphunk;
#TITLETRANSLIT:;
#SUBTITLETRANSLIT:;
#ARTISTTRANSLIT:;
#GENRE:;
#ORIGIN:;
#CREDIT:;
#BANNER:;
#BACKGROUND:Closer-bg.png;
#PREVIEWVID:;
#JACKET:Closer-jacket.png;
#CDIMAGE:;
#DISCIMAGE:;
#LYRICSPATH:;
#CDTITLE:;
#MUSIC:1-17 - CLOSER.ogg;
#OFFSET:-0.224000;
#SAMPLESTART:42.550678;
#SAMPLELENGTH:12.000000;
#SELECTABLE:YES;
#BPMS:0.000=133.058,
396.000=140.180;
#STOPS:;
#DELAYS:;
#WARPS:;
#TIMESIGNATURES:0.000=4=4;
#TICKCOUNTS:0.000=4;
#COMBOS:0.000=1;
#SPEEDS:0.000=1.000=0.000=0;
#SCROLLS:0.000=1.000;
#FAKES:;
#LABELS:0.000=Song Start;
#BGCHANGES:;
#KEYSOUNDS:;
#ATTACKS:
;

//---------------dance-single - ----------------
#NOTEDATA:;
#CHARTNAME:;
#STEPSTYPE:dance-single;
#DESCRIPTION:;
#CHARTSTYLE:;
#DIFFICULTY:Medium;
#METER:8;
#RADARVALUES:0.411213,0.485111,0.270917,0.000000,0.011288,255.000000,231.000000,24.000000,0.000000,0.000000,0.000000,0.000000,0.000000,0.000000,0.411213,0.485111,0.270917,0.000000,0.011288,255.000000,231.000000,24.000000,0.000000,0.000000,0.000000,0.000000,0.000000,0.000000;
#CREDIT:;
#NOTES:
// measure 0
0000
0000
0000
0000
,  // measure 1
0000
0000
0000
0000
,  // measure 2
1000
0001
1000
0000
0001
0000
0000
0000
,  // measure 3
0000
0000
0000
0000
,  // measure 4
1000
0001
1000
0000
0001
0000
0000
0000
,  // measure 5
1000
0001
1000
0000
0001
0000
0000
0000
,  // measure 6
1000
0001
1000
0000
0001
0000
0000
0000
,  // measure 7
1000
0001
1000
0000
1001
0000
1001
0000
,  // measure 8
0100
0000
0001
0100
0010
0000
1000
0000
,  // measure 9
0000
0000
0001
0100
0001
0000
1000
0000
,  // measure 10
0000
0000
0100
0001
0010
0000
0100
0000
,  // measure 11
1000
0000
1000
0000
1000
0000
1001
1001
,  // measure 12
1001
0000
0100
0001
0100
0000
0010
0000
,  // measure 13
1000
0001
0100
0001
,  // measure 14
1000
0010
0100
0001
0010
0100
0100
0100
,  // measure 15
0010
1000
0001
0100
0001
0010
0001
0100
,  // measure 16
0010
0000
1000
0001
0100
0001
0100
0010
,  // measure 17
1000
0010
0000
0100
0000
0001
0000
0000
,  // measure 18
0000
1000
0001
0100
0010
0000
1000
0100
,  // measure 19
0000
0000
1100
0110
,  // measure 20
0000
0000
1000
0100
0010
0100
0001
0010
,  // measure 21
0100
0010
1000
0100
0000
0010
0000
0000
,  // measure 22
0000
0000
1000
0000
0000
0100
0000
0000
0001
0000
0000
0100
0000
0000
1000
0000
,  // measure 23
0000
0000
0000
0000
0000
0001
1000
0001
,  // measure 24
1000
0000
0000
1001
0000
0000
0000
0000
,  // measure 25
0000
0000
0000
0000
0000
1000
0100
0010
,  // measure 26
0001
0000
0000
1001
0000
0000
0000
0000
,  // measure 27
0000
0000
0000
0000
0000
0000
0010
0010
,  // measure 28
0010
0000
0000
1001
0000
0000
0000
0000
,  // measure 29
0000
0000
0000
0000
0000
0100
1000
0100
,  // measure 30
1000
0000
0100
0000
,  // measure 31
0100
0000
0100
0000
0100
0100
0100
0000
,  // measure 32
0000
0010
1000
0010
0100
0010
0100
0001
,  // measure 33
0010
0001
0100
0010
0100
0010
1000
0100
,  // measure 34
1000
0100
1000
0010
0100
0010
0100
0000
,  // measure 35
1000
0000
1000
0000
1000
0000
1000
1000
,  // measure 36
1001
0000
1000
0001
0100
0010
1000
0010
,  // measure 37
0100
0010
1000
0001
0100
0001
0100
0010
,  // measure 38
1000
0010
0100
0001
1000
0010
0100
0001
,  // measure 39
1000
0010
1000
0001
0100
0001
1000
0100
,  // measure 40
1001
0000
0100
0010
1001
0000
0010
0001
,  // measure 41
1001
0000
0001
1000
1001
0000
1000
0100
,  // measure 42
1001
0000
0100
0010
1001
0000
1000
1000
,  // measure 43
1000
1000
1000
1000
1001
0000
1000
0100
,  // measure 44
1100
0000
0100
0010
0110
0000
0010
0001
,  // measure 45
0011
0000
0100
0010
0110
0000
1000
0100
,  // measure 46
1100
0000
1000
0010
1010
0000
1000
0001
,  // measure 47
0010
0100
0010
1000
0010
0100
0001
0000
;

//---------------dance-single - ----------------
#NOTEDATA:;
#CHARTNAME:;
#STEPSTYPE:dance-single;
#DESCRIPTION:;
#CHARTSTYLE:;
#DIFFICULTY:Hard;
#METER:13;
#RADARVALUES:0.572474,0.650201,0.248341,0.000000,0.208832,355.000000,333.000000,22.000000,0.000000,0.000000,0.000000,0.000000,0.000000,0.000000,0.572474,0.650201,0.248341,0.000000,0.208832,355.000000,333.000000,22.000000,0.000000,0.000000,0.000000,0.000000,0.000000,0.000000;
#CREDIT:Nifara;
#NOTES:
// measure 0
0000
0000
0000
0000
,  // measure 1
0000
0000
0000
0000
,  // measure 2
0000
0100
0000
0000
0001
0000
0000
0000
0100
0000
0000
0000
0000
0000
0000
0000
,  // measure 3
0000
0000
0000
0000
,  // measure 4
0000
0100
0000
0000
0001
0000
0000
0000
0100
0000
0000
0000
0000
0000
0000
0000
,  // measure 5
0000
0100
0000
0000
0001
0000
0000
0000
0100
0000
0000
0000
0000
0000
0000
0000
,  // measure 6
0000
1000
0000
0000
0001
0000
0000
0000
1000
0000
0000
0000
0000
0000
0000
0000
,  // measure 7
0101
0000
0101
0000
0101
0100
0100
0010
,  // measure 8
0010
1100
0010
0100
0010
1000
0001
0100
,  // measure 9
0010
0100
0010
1000
0010
0100
0001
1000
,  // measure 10
1000
1000
0100
0010
0100
0010
0100
1000
,  // measure 11
0001
1000
0100
0010
0100
1000
0100
0100
,  // measure 12
0100
1000
0001
1000
0010
0100
0001
0010
,  // measure 13
0001
0100
0010
1000
0010
0100
0001
0100
,  // measure 14
0010
1000
0001
0100
0001
0010
0001
0100
,  // measure 15
0010
1000
0010
0100
0001
0100
0010
1000
,  // measure 16
0010
1000
0001
0100
0001
0100
0010
1000
,  // measure 17
0010
0100
0001
0101
1000
0010
0100
0010
,  // measure 18
1000
0001
0100
0010
1000
0010
1100
0100
,  // measure 19
1000
0001
0100
0010
1001
0100
0001
1000
,  // measure 20
0001
0100
0001
1010
0010
0100
0001
0010
,  // measure 21
0001
0100
0010
1010
0001
0100
0010
1000
,  // measure 22
0001
0100
0010
1010
0100
0001
0100
0010
,  // measure 23
1000
0001
0100
0100
0010
1000
0010
0100
,  // measure 24
0001
1000
0001
0100
0000
0000
1000
0001
,  // measure 25
0100
0000
0010
0000
1000
0000
0001
0100
,  // measure 26
0001
0001
0001
0001
0000
0000
1000
0010
,  // measure 27
0100
0000
0110
0000
1010
0000
0101
0001
,  // measure 28
0100
0000
1001
0000
0100
0010
1000
0000
,  // measure 29
0100
0001
0000
0000
0100
0000
1001
0100
,  // measure 30
0010
0010
0010
0000
1001
0100
0100
0000
,  // measure 31
1000
0001
0100
0001
0010
0001
0001
0001
,  // measure 32
0001
0100
0001
1000
0010
0100
0001
0010
,  // measure 33
0001
0100
0010
1000
0001
0100
0001
0011
,  // measure 34
0100
0001
1000
0010
1000
0001
1000
0001
,  // measure 35
0100
0010
0100
0010
0100
0001
0010
0011
,  // measure 36
0000
1001
1000
0001
0101
1000
0010
0100
,  // measure 37
0001
0100
0001
1000
0001
0100
0010
0100
,  // measure 38
0010
1000
0010
0010
1010
0100
0010
0100
,  // measure 39
0010
0000
1000
0000
0001
0000
0100
0000
0001
0000
0010
0000
0001
0000
1000
0001
,  // measure 40
1000
0000
0000
0000
0000
0000
1000
0100
0010
0000
0000
0000
0001
1000
0001
0100
,  // measure 41
0000
0000
0000
0000
1000
0100
1000
0010
0000
0000
0000
0000
1000
0001
0100
0001
,  // measure 42
0000
0000
0000
0000
1000
0100
0010
0001
0000
0000
0000
0000
0001
1000
0001
0100
,  // measure 43
0010
1000
0010
0100
0010
1000
0001
1000
0001
0000
0000
0000
0001
0100
0001
0100
,  // measure 44
0001
0000
0000
0000
0010
1000
0010
0100
0010
0000
0000
0000
1000
0001
0100
0001
,  // measure 45
0010
0000
0000
0000
0001
0010
0100
1000
0100
0000
0000
0000
1000
0010
0100
0001
,  // measure 46
1000
0000
0000
0000
0010
1000
0010
0100
0001
0000
0000
0000
0100
0001
0010
0001
,  // measure 47
0010
0001
0010
0001
1000
0001
0100
0000
0000
0000
0000
0000
0100
0000
0100
0000
,  // measure 48
1001
0000
0000
0000
;

//---------------dance-single - ----------------
#NOTEDATA:;
#CHARTNAME:;
#STEPSTYPE:dance-single;
#DESCRIPTION:;
#CHARTSTYLE:;
#DIFFICULTY:Easy;
#METER:6;
#RADARVALUES:0.324133,0.377308,0.406376,0.000000,0.000000,201.000000,165.000000,36.000000,0.000000,0.000000,0.000000,0.000000,0.000000,0.000000,0.324133,0.377308,0.406376,0.000000,0.000000,201.000000,165.000000,36.000000,0.000000,0.000000,0.000000,0.000000,0.000000,0.000000;
#CREDIT:;
#NOTES:
// measure 0
0000
0000
0000
0000
,  // measure 1
0000
0000
0000
0000
,  // measure 2
1000
0001
1001
0000
,  // measure 3
0000
0000
0000
0000
,  // measure 4
1000
0001
1001
0000
,  // measure 5
1000
0001
1001
0000
,  // measure 6
1000
0001
1001
0000
,  // measure 7
1000
0001
1001
1001
,  // measure 8
0100
0001
0010
1000
,  // measure 9
0100
0001
0010
1000
,  // measure 10
0100
0100
0010
0100
,  // measure 11
1000
1000
1000
1001
,  // measure 12
1001
0100
0100
0010
,  // measure 13
1000
0001
0100
0001
,  // measure 14
1000
0100
0010
0100
,  // measure 15
0010
0001
0001
0001
,  // measure 16
0010
1000
0100
0100
,  // measure 17
1000
0010
0100
0001
,  // measure 18
1001
0001
0010
1000
,  // measure 19
0100
0100
1100
0110
,  // measure 20
1100
1000
0010
0001
,  // measure 21
0100
1000
0010
0001
,  // measure 22
0100
1000
0010
0001
,  // measure 23
0100
1000
1000
1000
,  // measure 24
1001
0000
0000
0000
,  // measure 25
1001
0100
0010
0100
,  // measure 26
1001
0000
0000
0000
,  // measure 27
1001
0100
0010
0010
,  // measure 28
1001
0000
0000
0000
,  // measure 29
1001
0001
1000
1000
,  // measure 30
1001
0000
0100
0000
,  // measure 31
0100
0100
0100
0100
,  // measure 32
1001
1000
0100
0100
,  // measure 33
0010
0001
0100
1000
,  // measure 34
1000
1000
0001
0001
,  // measure 35
1000
0001
1000
0100
,  // measure 36
1001
1000
0100
0010
,  // measure 37
0100
1000
0001
0001
,  // measure 38
1000
0010
1000
0010
,  // measure 39
1000
0100
0010
0001
,  // measure 40
1001
0100
1001
0010
,  // measure 41
1001
0001
1001
1000
,  // measure 42
1001
0100
1001
1000
,  // measure 43
1000
1000
1001
1000
,  // measure 44
1100
0100
0110
0010
,  // measure 45
0011
0001
1001
1000
,  // measure 46
1100
0010
1010
0100
,  // measure 47
0110
0010
0101
0001
;

//---------------dance-single - ----------------
#NOTEDATA:;
#CHARTNAME:;
#STEPSTYPE:dance-single;
#DESCRIPTION:;
#CHARTSTYLE:;
#DIFFICULTY:Beginner;
#METER:3;
#RADARVALUES:0.129008,0.162550,0.079017,0.000000,0.000000,80.000000,73.000000,7.000000,0.000000,0.000000,0.000000,0.000000,0.000000,0.000000,0.129008,0.162550,0.079017,0.000000,0.000000,80.000000,73.000000,7.000000,0.000000,0.000000,0.000000,0.000000,0.000000,0.000000;
#CREDIT:;
#NOTES:
// measure 0
0000
0000
0000
0000
,  // measure 1
0000
0000
0000
0000
,  // measure 2
0000
0000
0000
0000
,  // measure 3
0000
0000
0000
0000
,  // measure 4
0000
0000
0000
0000
,  // measure 5
0000
0000
0000
0000
,  // measure 6
0000
0000
0000
0000
,  // measure 7
0000
0000
0000
0000
,  // measure 8
0100
0000
0010
0000
,  // measure 9
0100
0000
0010
0000
,  // measure 10
0100
0000
0010
0000
,  // measure 11
1000
0000
1000
0000
,  // measure 12
1001
0000
0100
0000
,  // measure 13
1000
0000
0100
0000
,  // measure 14
1000
0000
0010
0000
,  // measure 15
0010
0000
0001
0000
,  // measure 16
0010
0000
0100
0000
,  // measure 17
1000
0000
0100
0000
,  // measure 18
1001
0000
0010
0000
,  // measure 19
0100
0000
1000
0000
,  // measure 20
1000
0000
0010
0000
,  // measure 21
0001
0000
0010
0000
,  // measure 22
0100
0000
0010
0000
,  // measure 23
0100
0000
1000
0000
,  // measure 24
1001
0000
0000
0000
,  // measure 25
0100
0000
0000
0000
,  // measure 26
1001
0000
0000
0000
,  // measure 27
0100
0000
0000
0000
,  // measure 28
1001
0000
0000
0000
,  // measure 29
0100
0000
0000
0000
,  // measure 30
1001
0000
0000
0000
,  // measure 31
0100
0000
0000
0000
,  // measure 32
0001
0000
0100
0000
,  // measure 33
0010
0000
0100
0000
,  // measure 34
1000
0000
0001
0000
,  // measure 35
1000
0000
1000
0000
,  // measure 36
0001
0000
0100
0000
,  // measure 37
0100
0000
0001
0000
,  // measure 38
1000
0000
1000
0000
,  // measure 39
0001
0000
0010
0000
,  // measure 40
0001
0000
1000
0000
,  // measure 41
0001
0000
1000
0000
,  // measure 42
0001
0000
1000
0000
,  // measure 43
1000
0000
0001
0000
,  // measure 44
1000
0000
0100
0000
,  // measure 45
0010
0000
0001
0000
,  // measure 46
1000
0000
1000
0000
,  // measure 47
0010
0000
0001
0000
,  // measure 48
1001
0000
0000
0000
;
