#VERSION:0.83;
#TITLE:Cimmerian Shade;
#SUBTITLE:;
#ARTIST:DJ Nate;
#TITLETRANSLIT:;
#SUBTITLETRANSLIT:;
#ARTISTTRANSLIT:;
#GENRE:;
#ORIGIN:;
#CREDIT:;
#BANNER:;
#BACKGROUND:;
#PREVIEWVID:;
#JACKET:;
#CDIMAGE:;
#DISCIMAGE:;
#LYRICSPATH:;
#CDTITLE:;
#MUSIC:93148_gabbersong.mp3;
#OFFSET:-0.025000;
#SAMPLESTART:44.559002;
#SAMPLELENGTH:15.006999;
#SELECTABLE:YES;
#BPMS:0.000=200.000,
59.500=200.002,
60.000=400.000,
92.000=200.002,
94.000=400.001,
94.500=400.018,
96.000=400.000,
156.000=200.002,
162.000=200.000,
177.000=800.000,
195.500=200.000,
211.000=399.998,
213.000=400.000;
#STOPS:;
#DELAYS:;
#WARPS:;
#TIMESIGNATURES:0.000=4=4;
#TICKCOUNTS:0.000=4;
#COMBOS:0.000=1;
#SPEEDS:0.000=1.000=0.000=0;
#SCROLLS:0.000=1.000;
#FAKES:;
#LABELS:0.000=Song Start;
#BGCHANGES:;
#KEYSOUNDS:;
#ATTACKS:
;

//---------------dance-single - ----------------
#NOTEDATA:;
#CHARTNAME:;
#STEPSTYPE:dance-single;
#DESCRIPTION:;
#CHARTSTYLE:;
#DIFFICULTY:Challenge;
#METER:19;
#RADARVALUES:1.102973,1.215253,0.167844,0.064555,0.161388,598.000000,585.000000,13.000000,5.000000,0.000000,0.000000,0.000000,0.000000,0.000000,1.102973,1.215253,0.167844,0.064555,0.161388,598.000000,585.000000,13.000000,5.000000,0.000000,0.000000,0.000000,0.000000,0.000000;
#CREDIT:;
#NOTES:
0000
0000
0000
0000
,
0000
0000
0000
0000
,
0000
0000
0000
0000
,
0000
0000
0000
0000
,
0000
0000
0000
0000
,
1001
0000
0000
0000
1000
0100
0000
0000
,
1001
0000
0000
0000
0100
0001
0100
0001
,
0100
0000
0000
0000
0110
0010
0000
0000
,
0100
0000
0000
0000
1000
0001
0100
0001
,
0010
0001
0100
0010
1000
0000
0000
0000
,
0010
0010
0100
0001
0010
0100
1000
0010
,
0100
0010
1000
0100
0010
0001
0100
0010
,
1000
0100
0010
0001
0010
0001
0100
0010
,
1000
0000
0000
0000
,
0000
0000
0000
0000
,
0011
0000
0000
0100
0001
1000
0001
1000
,
0010
1000
0100
0010
0100
0000
1000
0001
,
0100
0010
0100
0010
0100
0010
0100
0000
,
0000
0001
1000
0000
0001
0100
0001
0010
,
0000
0010
0001
0000
1000
0010
1000
0000
,
0010
0000
0000
0100
0010
0000
0100
0001
,
0100
0000
0001
0010
0001
0100
0001
0010
,
0100
1000
0001
1000
0000
0001
0100
0001
,
2000
3000
1010
0000
,
0000
0000
0100
0001
0100
0000
0001
0000
,
1000
0010
1000
0010
0000
0000
1000
0001
,
0100
0001
0100
0010
1000
0010
0000
0000
,
0000
0100
0001
0100
0001
1000
0000
1000
,
0010
1000
0100
0000
0000
0000
0000
1000
,
0100
0010
0100
1000
0001
0100
0001
0100
,
0010
0100
0000
0000
0100
0001
1000
0001
,
0000
0100
0010
0100
0001
0100
0001
0100
,
0001
0000
0000
0000
1000
0010
1000
0100
,
0010
0100
1000
0000
0000
0010
0100
0010
,
0100
0000
0001
0000
,
0100
0101
0101
0001
,
0100
0000
0001
0000
0100
0000
0001
0100
,
0010
0100
0001
0000
0100
0000
0001
0000
,
0100
0000
2002
0000
,
0000
0000
0000
0000
,
3003
0000
0000
0000
,
0000
0000
0000
0000
,
0000
0000
0000
0100
,
0010
0000
0000
0000
1000
0000
0000
0000
1000
0000
0000
0000
0100
1000
0010
1000
,
0010
1000
0010
1000
0100
0000
0000
0000
0010
0000
0000
0000
0100
0000
0000
0000
,
1000
0100
0010
0001
,
0010
0001
0010
0100
,
1000
0100
0010
0100
,
1000
0001
1000
0010
,
1000
0001
0100
0001
,
0010
0001
0100
0101
,
0101
0000
0000
0000
0100
0001
1000
0010
1000
0001
0100
0001
1000
0000
0000
0000
,
0000
0000
0000
0000
0000
0000
0010
0100
,
0010
1000
0100
0010
0001
0100
0010
0100
,
0001
0010
0100
1000
0010
0100
0001
0010
,
0001
0100
0001
1000
0010
1000
0100
0010
,
0100
1000
0100
0010
0001
0100
0001
0010
,
0100
1000
0001
0010
0100
0010
0001
0100
,
0010
1000
0001
0100
0001
0100
0001
0010
,
0100
1000
0010
0100
0001
1000
0001
1000
,
0100
0010
0001
0010
0001
0100
0010
1000
,
0010
1000
0001
0010
0001
0100
0010
1000
,
0100
0010
0001
1000
0001
0100
0010
0100
,
0001
0010
0001
0100
0001
0010
0100
1000
,
0010
0100
0001
0010
0100
1000
0001
0010
,
0100
0010
0001
1000
0010
1000
0100
1000
,
0010
0100
0001
0100
0001
0010
0100
0010
,
0100
1000
0010
1000
0100
0010
0100
0010
,
0001
1000
0010
1000
0100
0010
2002
0000
,
0000
0000
0000
3003
,
0000
0000
0000
0000
,
0000
0000
0000
0000
,
0000
0000
0000
0000
0000
0000
0000
0000
0000
0000
0000
0000
1000
0010
1000
0000
,
0000
0000
1000
0100
1000
0100
1000
0100
,
1000
0000
0010
0000
1000
0000
0010
0000
1000
0000
0100
0000
1000
0010
1000
0000
,
0000
0000
1000
0100
1000
0010
0100
0001
,
0010
0000
0001
0000
1000
0000
0001
0000
1000
0000
0001
0000
1000
0001
1000
0000
,
0000
0000
0100
0010
0001
0010
0100
0010
,
0001
0000
0100
0000
0010
0000
1000
0000
0100
0000
0010
0000
0100
1000
0100
0000
,
0000
0000
1000
0100
1000
0100
0010
0001
,
0100
0001
1000
0001
0100
0010
1000
0100
,
0010
0100
0010
0001
1000
0010
1000
0010
,
1000
0000
1000
0000
1010
0000
1000
0010
,
1000
0000
0000
0000
1000
0000
0000
0000
0000
0000
1000
0100
1000
0000
0000
0000
,
0010
1000
0010
0100
0001
0010
0100
1000
,
0001
0000
0010
0000
0100
0000
1000
0000
0100
1000
0100
0000
0000
0000
0000
0000
,
0100
1000
0001
0010
0100
1000
0010
0100
,
0010
0000
0100
0000
0001
0000
1000
0000
0010
0000
0100
0000
0010
0100
0010
0000
,
0000
0100
0010
0100
0001
0100
0010
1000
,
0010
1000
0010
0100
0010
1000
0001
0100
,
0001
1000
0001
1000
0100
1000
0001
0010
,
0001
0100
0001
0100
0010
0100
0001
0010
,
0001
0000
0010
0001
0010
0000
0000
0000
0000
0000
0000
0000
1000
0000
0001
0000
,
0100
0010
1000
0010
0100
0010
1000
0001
,
1000
0000
0001
0000
1000
0000
0001
1000
0001
0000
0000
0000
0010
0000
1000
0000
,
0010
1000
0100
1000
0100
1000
0001
0010
,
0001
0000
1000
0000
0010
0000
0100
0000
0001
0000
0010
0000
0001
0010
0001
0000
,
0000
0000
0100
1000
0100
1000
0100
1000
,
0100
1000
0100
0000
1000
0100
0010
0001
,
1000
0100
0010
0001
1000
0100
0010
0001
,
1000
0100
0001
0100
1000
0010
0000
0000
,
1000
0001
1000
0000
0000
0000
0000
0000
0100
0000
0010
0000
0100
0000
0010
0000
,
1000
0000
0100
0000
0010
0000
0100
0000
0010
0000
1000
0100
1000
0100
1000
0000
,
1000
0000
0001
0000
0000
0000
0000
0100
0000
0010
0000
0000
,
0000
1000
0000
0001
0000
0000
0000
1001
0000
0000
0000
0000
;

//---------------dance-single - ----------------
#NOTEDATA:;
#CHARTNAME:;
#STEPSTYPE:dance-single;
#DESCRIPTION:;
#CHARTSTYLE:;
#DIFFICULTY:Hard;
#METER:18;
#RADARVALUES:0.912996,1.147739,0.129111,0.077466,0.051644,495.000000,485.000000,10.000000,6.000000,0.000000,0.000000,0.000000,0.000000,0.000000,0.912996,1.147739,0.129111,0.077466,0.051644,495.000000,485.000000,10.000000,6.000000,0.000000,0.000000,0.000000,0.000000,0.000000;
#CREDIT:;
#NOTES:
0000
0000
0000
0000
,
0000
0000
0000
0000
,
0000
0000
0000
0000
,
0000
0000
0000
0000
,
0000
0000
0000
0000
,
1001
0000
0000
0000
1000
0100
0000
0000
,
1001
0000
0000
0001
0100
0001
0000
0000
,
0100
0000
0000
0000
0110
0010
0000
0000
,
0100
0000
0000
1000
0001
0100
0001
0010
,
0001
0000
0000
0000
0100
0010
1000
0000
,
0010
0010
0100
0001
0010
0100
1000
0010
,
0100
0010
1000
0100
0010
0001
0100
0010
,
1000
0100
0010
0001
0010
0001
0100
0010
,
1000
0000
0000
0000
,
0000
0000
0000
0000
,
0011
0000
0000
0000
0001
1000
0001
1000
,
0010
0000
0100
0010
0100
0000
0001
0000
,
0100
0010
0100
0000
0001
0000
1000
0000
,
0100
1000
0010
0100
,
0010
0100
0001
0010
,
0001
0010
0001
0000
0100
0010
0100
0001
,
0100
0000
0001
0010
0001
0100
0001
0010
,
0100
1000
0001
1000
0000
0000
1000
0100
,
2000
3000
1010
0000
,
0000
0000
0100
0001
0100
0000
0001
0000
,
1000
0010
1000
0010
0000
0000
1000
0001
,
0100
0001
0100
0010
1000
0010
0000
0000
,
0000
0100
0001
0100
0001
1000
0000
1000
,
0010
1000
0100
0000
0000
0000
0000
1000
,
0100
0010
0100
1000
0001
0100
0001
0100
,
0010
0100
0000
0000
0100
0001
1000
0001
,
0000
0100
0010
0100
0001
0100
0001
0100
,
0001
0000
0000
0000
1000
0010
1000
0100
,
0010
0100
1000
0000
0000
0010
0100
0010
,
0100
0000
0001
0000
,
0100
0001
0100
0001
,
0100
0000
0001
0000
0100
0000
0001
0100
,
0010
0100
0001
0000
0100
0000
0001
0000
,
0100
0000
2002
0000
,
0000
0000
0000
0000
,
3003
0000
0000
0000
,
0000
0000
0000
0000
,
0000
0000
0000
0100
,
0010
1000
0001
2000
,
0000
0000
0000
0000
,
0000
0000
0000
0000
,
0000
0000
0000
0000
,
0000
0000
0000
0000
,
0000
0000
0000
0000
,
3000
0001
0100
0001
,
0010
0001
0100
0101
,
0101
0000
0000
0000
0100
0001
1000
0010
1000
0001
0100
0001
1000
0000
0000
0000
,
0000
0000
0000
0000
0000
0000
0010
0100
,
0010
1000
0100
0000
0000
0000
1000
0100
,
1000
0010
0100
0000
0000
0000
0001
0010
,
0001
0100
0001
0000
0000
0000
0100
0010
,
0100
1000
0100
0000
0000
0000
0001
0010
,
0100
1000
0001
0000
0000
0000
0001
0100
,
0010
1000
0001
0000
0000
0000
0001
0010
,
0100
1000
0010
0000
0000
0000
0001
1000
,
0100
0010
0001
0000
0000
0000
0001
1000
,
0010
1000
0001
0000
0000
0000
0010
1000
,
0100
0010
0001
0000
0000
0000
1000
0100
,
1000
0010
0100
0000
0000
0000
0100
0010
,
0100
0001
0010
0000
0000
0000
0001
0010
,
0100
0010
0001
0000
0000
0000
0100
1000
,
0010
0100
0001
0000
0000
0000
0100
0010
,
0100
0001
0010
0000
0000
0000
0100
0010
,
0001
1000
0010
0000
0000
0000
2002
0000
,
0000
0000
0000
3003
,
0000
0000
0000
0000
,
0000
0000
0000
0000
,
0000
0000
0000
0000
0000
0000
1000
0010
,
0000
0000
1000
0100
1000
0100
1000
0100
,
1000
0010
1000
0010
1000
0100
1000
0010
,
0000
0000
1000
0100
1000
0010
0100
0001
,
0010
0001
1000
0001
1000
0001
1000
0001
,
0000
0000
0001
0010
0001
0010
0100
0010
,
0001
0100
0010
1000
0100
0010
0100
1000
,
0000
0000
1000
0100
1000
0100
0010
0001
,
0100
0001
1000
0001
0100
0010
1000
0100
,
0010
0100
0010
0001
1000
0010
1000
0010
,
1000
0000
0010
0000
1000
0000
0010
1000
,
0010
1000
0000
1000
,
0010
1000
0010
0100
0001
0010
0100
1000
,
0001
0010
0100
1000
0100
1000
0000
0000
,
0100
1000
0001
0010
0100
1000
0010
0100
,
0010
0100
0001
1000
0010
0100
0010
0100
,
0000
0100
0010
0100
0001
0100
0010
1000
,
0010
1000
0010
0100
0010
1000
0001
0100
,
0001
1000
0001
1000
0100
1000
0001
0010
,
0001
0100
0001
0100
0010
0100
0001
0010
,
0001
0010
0001
0000
0000
0000
1000
0001
,
0100
0010
1000
0010
0100
0010
1000
0001
,
1000
0001
1000
0001
1000
0000
0000
0000
,
0010
1000
0100
1000
0100
1000
0001
0010
,
0001
1000
0010
0100
0001
0010
0001
0010
,
0000
0000
0100
1000
0100
1000
0100
1000
,
0100
1000
0100
0000
1000
0100
0010
0001
,
1000
0100
0010
0001
1000
0100
0010
0001
,
1000
0100
0001
0100
1000
0010
0000
0000
,
1000
0001
0000
0000
0100
0010
0100
0010
,
0000
0100
0010
0100
0010
1000
0100
1000
,
1000
0000
0100
0000
0000
0000
0000
1000
0000
0010
0000
0000
,
0000
0100
0000
0001
0000
0000
0000
1001
0000
0000
0000
0000
;

//---------------dance-single - ----------------
#NOTEDATA:;
#CHARTNAME:;
#STEPSTYPE:dance-single;
#DESCRIPTION:;
#CHARTSTYLE:;
#DIFFICULTY:Medium;
#METER:14;
#RADARVALUES:0.606820,0.877683,0.167844,0.077466,0.025822,329.000000,316.000000,13.000000,6.000000,0.000000,0.000000,0.000000,0.000000,0.000000,0.606820,0.877683,0.167844,0.077466,0.025822,329.000000,316.000000,13.000000,6.000000,0.000000,0.000000,0.000000,0.000000,0.000000;
#CREDIT:;
#NOTES:
0000
0000
0000
0000
,
0000
0000
0000
0000
,
0000
0000
0000
0000
,
0000
0000
0000
0000
,
0000
0000
0000
0000
,
1001
0000
0000
0000
1000
0100
0000
0000
,
1001
0000
0000
0001
0100
0001
0000
0000
,
0100
0000
0000
0000
0110
0010
0000
0000
,
0100
0000
0000
1000
0001
0100
0001
0010
,
0001
0000
0000
0000
0100
0010
1000
0000
,
0010
0000
0100
0001
0010
0000
0001
0010
,
0100
0000
1000
0100
0010
0000
0001
0010
,
0100
0000
1000
0001
0010
0000
0001
0010
,
0001
0000
0000
0000
,
0000
0000
0000
0000
,
0011
0000
0001
0001
,
0010
0100
0100
0001
,
0100
0100
1000
1000
,
0100
1000
0010
0100
,
0010
0100
0001
0010
,
0001
0001
0100
0100
,
0100
0001
0001
1000
,
0100
0001
0100
1000
,
0020
0030
1010
0000
,
0000
0100
0100
0001
,
1000
1000
0000
1000
,
0100
0100
1000
0000
,
0000
0001
0001
0000
,
0010
0100
0000
0000
,
0100
0100
0001
0001
,
0010
0000
0100
1000
,
0000
0010
0001
0001
,
0001
0000
1000
1000
,
0010
1000
0000
0100
,
0100
0000
0001
0000
,
0100
0001
0100
0001
,
0100
0001
0100
0001
,
0010
0001
0100
0001
,
0100
0000
2002
0000
,
0000
0000
0000
0000
,
3003
0000
0000
0000
,
0000
0000
0000
0000
,
0000
0000
0000
0100
,
0010
1000
0001
2000
,
0000
0000
0000
0000
,
0000
0000
0000
0000
,
0000
0000
0000
0000
,
0000
0000
0000
0000
,
0000
0000
0000
0000
,
3000
0000
0000
0000
,
0010
0001
0100
0101
,
0101
1100
1100
1001
,
0000
0000
0000
0000
0000
0000
0010
0100
,
0010
0100
0000
0010
,
1000
0000
0100
0000
0000
0000
0001
0010
,
0001
0001
0000
0100
,
0100
0000
0100
0000
0000
0000
0001
0010
,
0100
0001
0000
0001
,
0010
0000
0001
0000
0000
0000
0001
0010
,
0100
0010
0000
0001
,
0100
0000
0001
0000
0000
0000
0001
1000
,
0010
0001
0000
0010
,
0100
0000
0001
0000
0000
0000
1000
0100
,
1000
0100
0000
0100
,
0100
0000
0010
0000
0000
0000
0001
0010
,
0100
0001
0000
0100
,
0010
0000
0001
0000
0000
0000
0100
0010
,
0100
0010
0000
0100
,
0001
0010
0000
2002
,
0000
0000
0000
3003
,
0000
0000
0000
0000
,
0000
0000
0000
0000
,
0000
0000
0000
0000
0000
0000
1000
0010
,
0000
1000
0100
0010
,
0001
0010
0100
1000
,
0000
1000
0001
0100
,
0010
1000
0001
1000
,
0000
1000
0100
0010
,
0100
1000
0100
0010
,
0000
0001
0010
0100
,
0010
0001
0010
0100
,
0000
1000
0010
0100
,
0001
1000
0010
0100
,
0000
1000
0001
1000
,
0001
1000
0001
1000
,
0000
0100
0010
0100
,
0010
0100
0010
0100
,
0000
0000
0001
1000
0010
0100
0010
0000
,
0100
0010
1000
0010
,
0100
0010
0100
0001
,
1000
0001
1000
0000
0100
0000
1000
0000
,
0001
0001
0010
0001
,
1000
0000
0001
0000
0000
0000
1000
0001
,
0100
0010
0100
0001
,
1000
0000
0001
1000
0001
0000
0010
0000
,
1000
0100
1000
0001
,
1000
0000
0010
0000
0100
0010
1000
0000
,
0000
0000
0100
1000
0100
1000
0100
0000
,
1000
0100
1000
0100
,
0010
0000
0001
0000
1000
0100
0010
0000
,
0001
0100
0010
1000
,
0001
0000
0100
0000
0010
0000
0100
0010
,
0100
0000
0010
0100
0010
0000
0000
0000
,
1000
0000
0100
0000
0000
0000
0000
0010
0000
0001
0000
0000
,
0000
1000
0000
0001
0000
0000
0000
1001
0000
0000
0000
0000
;

//---------------dance-single - ----------------
#NOTEDATA:;
#CHARTNAME:;
#STEPSTYPE:dance-single;
#DESCRIPTION:;
#CHARTSTYLE:;
#DIFFICULTY:Easy;
#METER:11;
#RADARVALUES:0.514598,0.877683,0.167844,0.077466,0.025822,279.000000,266.000000,13.000000,6.000000,0.000000,0.000000,0.000000,0.000000,0.000000,0.514598,0.877683,0.167844,0.077466,0.025822,279.000000,266.000000,13.000000,6.000000,0.000000,0.000000,0.000000,0.000000,0.000000;
#CREDIT:;
#NOTES:
// measure 0
0000
0000
0000
0000
,  // measure 1
0000
0000
0000
0000
,  // measure 2
0000
0000
0000
0000
,  // measure 3
0000
0000
0000
0000
,  // measure 4
0000
0000
0000
0000
,  // measure 5
1001
0000
1000
0000
,  // measure 6
1001
0000
0100
0000
,  // measure 7
0100
0000
0110
0000
,  // measure 8
0100
0000
0001
0001
,  // measure 9
0001
0000
0100
1000
,  // measure 10
0010
0100
0010
0001
,  // measure 11
0100
1000
0010
0001
,  // measure 12
0100
1000
0010
0001
,  // measure 13
0001
0000
0000
0000
,  // measure 14
0000
0000
0000
0000
,  // measure 15
0011
0000
0001
0001
,  // measure 16
0010
0000
0100
0001
,  // measure 17
0100
0000
1000
1000
,  // measure 18
0100
0000
0010
0100
,  // measure 19
0010
0000
0001
0010
,  // measure 20
0001
0000
0100
0010
,  // measure 21
0100
0000
0001
1000
,  // measure 22
0100
0000
0100
1000
,  // measure 23
0020
0030
1010
0000
,  // measure 24
0000
0000
0100
0001
,  // measure 25
1000
0000
0000
1000
,  // measure 26
0100
0000
1000
0000
,  // measure 27
0000
0000
0001
0000
,  // measure 28
0010
0000
0000
0000
,  // measure 29
0100
0000
0001
0001
,  // measure 30
0010
0000
0100
1000
,  // measure 31
0000
0000
0001
0001
,  // measure 32
0001
0000
1000
1000
,  // measure 33
0010
0000
0000
0100
,  // measure 34
0100
0000
0001
0000
,  // measure 35
0100
0001
0100
0001
,  // measure 36
0100
0001
0100
0001
,  // measure 37
0010
0001
0100
0001
,  // measure 38
0100
0000
2002
0000
,  // measure 39
0000
0000
0000
0000
,  // measure 40
3003
0000
0000
0000
,  // measure 41
0000
0000
0000
0000
,  // measure 42
0000
0000
0000
1000
,  // measure 43
1000
1000
1000
2000
,  // measure 44
0000
0000
0000
0000
,  // measure 45
0000
0000
0000
0000
,  // measure 46
0000
0000
0000
0000
,  // measure 47
0000
0000
0000
0000
,  // measure 48
0000
0000
0000
0000
,  // measure 49
3000
0000
0000
0000
,  // measure 50
0010
0001
0100
0101
,  // measure 51
0101
1100
1100
1001
,  // measure 52
0000
0000
0000
0010
,  // measure 53
0010
0100
0000
0010
,  // measure 54
1000
0100
0000
0001
,  // measure 55
0001
0001
0000
0100
,  // measure 56
0100
0100
0000
0001
,  // measure 57
0100
0001
0000
0001
,  // measure 58
0010
0001
0000
0001
,  // measure 59
0100
0010
0000
0001
,  // measure 60
0100
0001
0000
0001
,  // measure 61
0010
0001
0000
0010
,  // measure 62
0100
0001
0000
1000
,  // measure 63
1000
0100
0000
0100
,  // measure 64
0100
0010
0000
0001
,  // measure 65
0100
0001
0000
0100
,  // measure 66
0010
0001
0000
0100
,  // measure 67
0100
0010
0000
0100
,  // measure 68
0001
0010
0000
2002
,  // measure 69
0000
0000
0000
3003
,  // measure 70
0000
0000
0000
0000
,  // measure 71
0000
0000
0000
0000
,  // measure 72
0000
0000
0000
1000
,  // measure 73
0000
1000
0100
0010
,  // measure 74
0001
0010
0100
1000
,  // measure 75
0000
1000
0001
0100
,  // measure 76
0010
1000
0001
1000
,  // measure 77
0000
1000
0100
0010
,  // measure 78
0100
1000
0100
0010
,  // measure 79
0000
0001
0010
0100
,  // measure 80
0010
0001
0010
0100
,  // measure 81
0000
1000
0010
0100
,  // measure 82
0001
1000
0010
0100
,  // measure 83
0000
1000
0001
1000
,  // measure 84
0001
1000
0001
1000
,  // measure 85
0000
0100
0010
0100
,  // measure 86
0010
0100
0010
0100
,  // measure 87
0000
0001
1000
0010
,  // measure 88
0100
0010
1000
0010
,  // measure 89
0100
0010
0100
0001
,  // measure 90
1000
0001
0100
0010
,  // measure 91
0100
0001
0010
0001
,  // measure 92
1000
0001
0000
1000
,  // measure 93
0100
0010
0100
1000
,  // measure 94
0001
1000
0001
0010
,  // measure 95
0001
0100
0010
0100
,  // measure 96
0001
0010
0100
1000
,  // measure 97
0100
1000
0100
0000
,  // measure 98
1000
0100
1000
0100
,  // measure 99
0010
0001
1000
0010
,  // measure 100
0100
0000
0010
1000
,  // measure 101
0001
0100
0010
0100
,  // measure 102
0010
0100
0010
0000
,  // measure 103
1000
0000
0100
0000
0000
0000
0000
0010
0000
0001
0000
0000
,  // measure 104
0000
1000
0000
0001
0000
0000
0000
1001
0000
0000
0000
0000
;

//---------------dance-single - ----------------
#NOTEDATA:;
#CHARTNAME:;
#STEPSTYPE:dance-single;
#DESCRIPTION:;
#CHARTSTYLE:;
#DIFFICULTY:Beginner;
#METER:6;
#RADARVALUES:0.289577,0.406698,0.000000,0.064555,0.000000,157.000000,157.000000,0.000000,5.000000,0.000000,0.000000,0.000000,0.000000,0.000000,0.289577,0.406698,0.000000,0.064555,0.000000,157.000000,157.000000,0.000000,5.000000,0.000000,0.000000,0.000000,0.000000,0.000000;
#CREDIT:;
#NOTES:
// measure 0
0000
0000
0000
0000
,  // measure 1
0000
0000
0000
0000
,  // measure 2
0000
0000
0000
0000
,  // measure 3
0000
0000
0000
0000
,  // measure 4
0000
0000
0000
0000
,  // measure 5
0001
0000
1000
0000
,  // measure 6
0001
0000
0100
0000
,  // measure 7
0100
0000
0010
0000
,  // measure 8
0100
0000
0001
0001
,  // measure 9
0001
0000
0100
0000
,  // measure 10
0010
0000
0010
0000
,  // measure 11
0100
0000
0010
0000
,  // measure 12
0100
0000
0010
0000
,  // measure 13
0001
0000
0000
0000
,  // measure 14
0000
0000
0000
0000
,  // measure 15
0001
0000
0001
0000
,  // measure 16
0010
0000
0100
0000
,  // measure 17
0100
0000
1000
0000
,  // measure 18
0100
0000
0010
0000
,  // measure 19
0010
0000
0001
0000
,  // measure 20
0001
0000
0100
0000
,  // measure 21
0100
0000
0001
0000
,  // measure 22
0100
0000
0100
0000
,  // measure 23
0020
0030
0010
0000
,  // measure 24
0000
0000
0100
0000
,  // measure 25
1000
0000
0000
0000
,  // measure 26
0100
0000
1000
0000
,  // measure 27
0000
0000
0001
0000
,  // measure 28
0010
0000
0000
0000
,  // measure 29
0100
0000
0001
0000
,  // measure 30
0010
0000
0100
0000
,  // measure 31
0000
0000
0001
0001
,  // measure 32
0001
0000
1000
0000
,  // measure 33
0010
0000
0000
0000
,  // measure 34
0100
0000
0001
0000
,  // measure 35
0100
0000
0100
0000
,  // measure 36
0100
0000
0100
0000
,  // measure 37
0100
0000
0100
0000
,  // measure 38
0100
0000
0200
0000
,  // measure 39
0000
0000
0000
0000
,  // measure 40
0300
0000
0000
0000
,  // measure 41
0000
0000
0000
0000
,  // measure 42
0000
0000
0000
1000
,  // measure 43
1000
1000
0000
2000
,  // measure 44
0000
0000
0000
0000
,  // measure 45
0000
0000
0000
0000
,  // measure 46
0000
0000
0000
0000
,  // measure 47
0000
0000
0000
0000
,  // measure 48
0000
0000
0000
0000
,  // measure 49
3000
0000
0000
0000
,  // measure 50
0000
0000
0000
0000
,  // measure 51
0000
0000
0000
0000
,  // measure 52
0000
0000
0000
0010
,  // measure 53
0000
0100
0000
0010
,  // measure 54
0000
0100
0000
0001
,  // measure 55
0000
0001
0000
0100
,  // measure 56
0000
0100
0000
0001
,  // measure 57
0000
0001
0000
1000
,  // measure 58
0000
1000
0000
0001
,  // measure 59
0000
0010
0000
0001
,  // measure 60
0000
1000
0000
1000
,  // measure 61
0000
0001
0000
0010
,  // measure 62
0000
0001
0000
1000
,  // measure 63
0000
0100
0000
0100
,  // measure 64
0000
0010
0000
0001
,  // measure 65
0000
0001
0000
0100
,  // measure 66
0000
0001
0000
0100
,  // measure 67
0000
0010
0000
0100
,  // measure 68
0000
0010
0000
2000
,  // measure 69
0000
0000
0000
3000
,  // measure 70
0000
0000
0000
0000
,  // measure 71
0000
0000
0000
0000
,  // measure 72
0000
0000
0000
1000
,  // measure 73
0000
1000
0000
0010
,  // measure 74
0000
0010
0000
1000
,  // measure 75
0000
1000
0000
0100
,  // measure 76
0000
1000
0000
1000
,  // measure 77
0000
0001
0000
0010
,  // measure 78
0000
0001
0000
0010
,  // measure 79
0000
0100
0000
0010
,  // measure 80
0000
1000
0000
0100
,  // measure 81
0000
1000
0000
0001
,  // measure 82
0000
1000
0000
0100
,  // measure 83
0000
1000
0000
0001
,  // measure 84
0000
1000
0000
0001
,  // measure 85
0000
0100
0000
0010
,  // measure 86
0000
0100
0000
0010
,  // measure 87
0000
1000
0000
0010
,  // measure 88
0000
1000
0000
0001
,  // measure 89
0000
0100
0000
0001
,  // measure 90
0000
1000
0000
0010
,  // measure 91
0000
0100
0000
1000
,  // measure 92
0000
0001
0000
1000
,  // measure 93
0000
0010
0000
1000
,  // measure 94
0000
1000
0000
0010
,  // measure 95
0000
0100
0000
0100
,  // measure 96
0000
0010
0000
1000
,  // measure 97
0000
1000
0000
0000
,  // measure 98
0000
0100
0000
0100
,  // measure 99
0000
0001
0000
0010
,  // measure 100
0000
0000
0000
1000
,  // measure 101
0000
0100
0000
0100
,  // measure 102
0000
0100
0000
0200
,  // measure 103
0000
0000
0000
0000
,  // measure 104
0000
0000
0000
0000
,  // measure 105
0300
0000
0000
0000
;
