#VERSION:0.83;
#TITLE:Calling;
#SUBTITLE:(Metro Edit);
#ARTIST:GERI HALLIWELL;
#TITLETRANSLIT:;
#SUBTITLETRANSLIT:;
#ARTISTTRANSLIT:;
#GENRE:Latin House;
#ORIGIN:;
#CREDIT:;
#BANNER:;
#BACKGROUND:;
#PREVIEWVID:;
#JACKET:;
#CDIMAGE:;
#DISCIMAGE:;
#LYRICSPATH:;
#CDTITLE:./CDTITLES/Dancemania 22.png;
#MUSIC:Calling (Metro Edit).ogg;
#OFFSET:-0.288555;
#SAMPLESTART:40.595013;
#SAMPLELENGTH:12.000000;
#SELECTABLE:YES;
#BPMS:0.000=125.000;
#STOPS:;
#DELAYS:;
#WARPS:;
#TIMESIGNATURES:0.000=4=4;
#TICKCOUNTS:0.000=4;
#COMBOS:0.000=1;
#SPEEDS:0.000=1.000=0.000=0;
#SCROLLS:0.000=1.000;
#FAKES:;
#LABELS:0.000=Song Start;
#BGCHANGES:;
#KEYSOUNDS:;
#ATTACKS:
;

//---------------dance-single - ----------------
#NOTEDATA:;
#CHARTNAME:;
#STEPSTYPE:dance-single;
#DESCRIPTION:;
#CHARTSTYLE:;
#DIFFICULTY:Hard;
#METER:10;
#RADARVALUES:0.336565,0.349914,0.159052,0.119289,0.024852,237.000000,221.000000,16.000000,12.000000,0.000000,0.000000,0.000000,0.000000,0.000000,0.336565,0.349914,0.159052,0.119289,0.024852,237.000000,221.000000,16.000000,12.000000,0.000000,0.000000,0.000000,0.000000,0.000000;
#CREDIT:;
#NOTES:
0000
0000
0000
0000
,
0000
0000
0000
0000
,
0000
0000
0000
0000
,
0000
0000
0000
0000
,
0000
0000
0000
0000
,
1000
0100
0010
0001
0100
0010
0000
1000
,
0000
0000
0001
0000
0010
0000
0001
0000
0000
0000
1000
0000
0000
0100
0000
0000
,
0010
0001
0100
0010
1000
0100
0000
0010
,
0000
0000
0001
0000
1000
0000
0100
0000
0000
0000
0010
0000
0000
0001
0000
0000
,
0100
0010
1000
0100
0010
0001
0000
1000
,
0000
0010
0100
0001
0000
1000
0000
0100
,
0000
2002
0000
0000
3003
0000
0001
0100
,
0000
0000
2002
0000
0000
0000
0000
0000
3003
0000
0010
0000
0000
0010
0000
0000
,
1000
0100
0001
0100
1000
0001
0000
0011
,
0000
1000
0100
0010
0001
0001
1000
1000
,
0010
0000
0100
0001
0010
0100
0000
1000
,
0000
0000
0001
0000
0100
0000
0010
0000
0000
0000
1000
0000
0000
1000
0000
0000
,
0001
0000
0100
0010
1000
0100
0000
0010
,
0000
0001
0100
0010
0000
1010
0000
1100
,
0000
1002
0000
0023
0000
0230
0000
1300
,
0001
0000
0001
1000
0000
0000
0000
0000
,
0110
0000
1000
0010
0100
0001
0000
0001
,
0100
0010
1000
0100
0010
0001
1000
0000
,
0110
0000
0001
0010
0100
1000
0000
1000
,
0100
0010
0001
0100
0010
1000
0001
0000
,
1001
0000
0100
0010
0100
0001
0000
1000
,
0200
0000
0310
0000
0010
0100
1000
0001
,
2000
0010
3000
0010
0000
0100
0002
0010
,
0000
0000
0013
0000
0000
0000
0100
0000
0000
0000
1000
0000
0000
0000
1000
0001
,
1000
0000
0010
0100
0001
0010
0000
0010
,
0100
0010
0001
0100
1000
0100
0001
0000
,
1001
0000
0010
0001
0100
0010
0000
0010
,
0100
0010
1000
0100
0001
0100
1000
0000
,
1100
0000
0100
0010
0001
1000
0000
1000
,
0001
0000
0010
0100
1000
0010
0100
0001
,
1000
0100
0000
0110
0000
1000
0001
0100
,
0000
0110
0000
0101
0000
1100
0000
1001
,
1000
0000
1000
0010
0100
0010
0000
1000
,
0010
0001
1000
0100
0001
0010
0100
0000
,
0001
0000
0001
0010
0100
0010
0000
0001
,
0010
1000
0001
0100
1000
0010
0100
0000
,
1000
0000
1000
0010
1000
0001
0010
0100
,
2000
0100
0001
0010
,
0200
0000
0000
0000
,
3300
0000
0000
0000
;

//---------------dance-single - ----------------
#NOTEDATA:;
#CHARTNAME:;
#STEPSTYPE:dance-single;
#DESCRIPTION:;
#CHARTSTYLE:;
#DIFFICULTY:Medium;
#METER:7;
#RADARVALUES:0.184614,0.240566,0.049704,0.208756,0.000000,130.000000,125.000000,5.000000,21.000000,0.000000,0.000000,0.000000,0.000000,0.000000,0.184614,0.240566,0.049704,0.208756,0.000000,130.000000,125.000000,5.000000,21.000000,0.000000,0.000000,0.000000,0.000000,0.000000;
#CREDIT:;
#NOTES:
0000
0000
0000
0000
,
0000
0000
0000
0000
,
0000
0000
0000
0000
,
0000
0000
0000
0000
,
0000
0000
0000
0000
,
2000
0010
0100
3001
,
0010
0010
0010
0000
,
0002
0010
0100
1003
,
0010
0010
0010
0000
,
1000
0100
0001
0100
,
1000
0000
0001
1000
0001
0000
0100
0000
,
0020
0030
0200
0310
,
0020
0030
0100
0100
,
1001
0010
1000
0100
,
0010
0000
0001
0000
1000
0001
1000
0000
,
0020
0030
0100
0100
,
0001
0010
0100
0100
,
0200
0310
0001
1000
,
0100
0000
0010
0000
0100
0000
1000
0001
,
2000
0010
3010
0000
,
0002
0010
0013
0000
,
1001
0000
0010
0100
0000
0001
0000
0020
,
0000
0000
0030
0000
,
1000
0000
0100
0010
0000
0001
0000
0002
,
0000
0000
0003
0000
,
1000
0000
0010
0100
0000
0010
0000
2000
,
0000
0000
3000
0001
,
0001
0100
0000
0010
,
0010
1000
0000
0000
,
1001
0000
0010
0100
0000
1000
0000
0020
,
0000
0000
0030
0000
,
0001
0000
0100
0010
0000
1000
0000
2000
,
0000
0000
3000
0000
,
0001
0000
0010
0100
0000
0010
0000
0002
,
0000
0000
0003
1000
,
1000
0100
0000
0010
,
0010
0001
0100
0010
,
2001
0100
0001
0001
,
0020
0000
3030
0000
,
1002
0100
0010
0010
,
2000
0000
3003
0000
,
0010
0000
0100
1000
0000
0001
0000
0020
,
0000
0000
0000
0000
0030
0100
1000
0001
,
0000
0200
0000
0000
0000
0000
0010
0000
,
0310
0000
0000
0000
;

//---------------dance-single - ----------------
#NOTEDATA:;
#CHARTNAME:;
#STEPSTYPE:dance-single;
#DESCRIPTION:;
#CHARTSTYLE:;
#DIFFICULTY:Easy;
#METER:5;
#RADARVALUES:0.183194,0.221182,0.079526,0.188874,0.000000,129.000000,121.000000,8.000000,19.000000,0.000000,0.000000,0.000000,0.000000,0.000000,0.183194,0.221182,0.079526,0.188874,0.000000,129.000000,121.000000,8.000000,19.000000,0.000000,0.000000,0.000000,0.000000,0.000000;
#CREDIT:;
#NOTES:
0000
0000
0000
0000
,
0000
0000
0000
0000
,
0000
0000
0000
0000
,
0000
0000
0000
0000
,
0000
0000
0000
0000
,
0001
0001
0100
0000
,
1000
1000
0100
0000
,
0001
0010
0100
1000
,
0010
0000
0010
0000
,
0100
0001
1000
0100
,
0010
0000
0010
0001
,
1000
1000
0100
0000
,
0001
0001
0100
0000
,
1000
0010
0100
0001
,
1000
0000
1000
0000
,
0010
0100
0001
0010
,
0100
0100
0010
0000
,
0001
1000
0100
0010
,
0100
0100
1000
0001
,
0010
0010
0010
0000
,
0100
0100
0100
0000
,
1001
0001
0100
0010
,
2000
3000
2000
3000
,
0110
0001
0010
0100
,
2000
3000
2000
3000
,
0100
0010
0001
0100
,
0020
0030
0020
0030
,
0101
0001
1000
0000
,
1100
1000
0001
0000
,
0110
1000
0001
0010
,
0200
0300
0200
0300
,
1000
0010
0100
0001
,
2000
3000
2000
3000
,
0010
0100
0001
0010
,
0200
0300
0100
0010
,
0001
0001
0100
0010
,
1000
1000
0100
0010
,
2001
0100
0002
0003
,
0002
0000
0000
3003
,
1002
0100
2000
3000
,
2000
0000
0000
3003
,
0110
0001
0010
0100
,
2000
0100
0100
0000
,
0001
0000
0001
0000
,
0020
0000
3030
0000
;

//---------------dance-single - ----------------
#NOTEDATA:;
#CHARTNAME:;
#STEPSTYPE:dance-single;
#DESCRIPTION:;
#CHARTSTYLE:;
#DIFFICULTY:Beginner;
#METER:2;
#RADARVALUES:0.073846,0.109348,0.029822,0.109348,0.000000,52.000000,49.000000,3.000000,11.000000,0.000000,0.000000,0.000000,0.000000,0.000000,0.073846,0.109348,0.029822,0.109348,0.000000,52.000000,49.000000,3.000000,11.000000,0.000000,0.000000,0.000000,0.000000,0.000000;
#CREDIT:;
#NOTES:
0000
0000
0000
0000
,
0000
0000
0000
0000
,
0000
0000
0000
0000
,
0000
0000
0000
0000
,
0000
0000
0000
0000
,
0010
0000
0000
0000
,
0010
0000
0000
0000
,
0100
0000
0000
0000
,
0100
0000
0000
0000
,
0001
0000
0000
0000
,
0001
0000
0000
0000
,
1000
0000
0000
0000
,
1000
0000
0001
0000
,
1000
0000
0000
0000
,
0100
0000
0000
0000
,
0010
0000
0000
0000
,
0001
0000
0000
0000
,
0100
0000
0000
0000
,
0010
0000
0010
0000
,
1000
0000
0000
0000
,
0002
0000
0003
0000
,
1001
0000
0000
0000
,
0200
0000
0300
0000
,
1001
0000
0000
0000
,
0200
0000
0300
0000
,
0110
0000
0000
0000
,
2000
0000
3000
0000
,
0020
0000
0000
0000
,
0030
0000
0000
0000
,
0100
0000
0100
0000
,
0200
0000
0300
0000
,
0010
0000
0010
0000
,
0020
0000
0030
0000
,
1000
0000
0001
0000
,
2000
0000
3000
0000
,
0001
0000
0010
0000
,
0002
0000
0003
0000
,
0010
0000
0010
0000
,
0010
0000
0010
0000
,
0100
0000
0100
0000
,
0100
0000
0100
0000
,
1000
0000
1000
0000
,
0002
0000
0000
0003
,
2000
0000
0000
0000
,
3000
0000
0000
0000
;
