#TITLE:CHILDREN;
#SUBTITLE:;
#ARTIST:SPEEDOGANG;
#TITLETRANSLIT:;
#SUBTITLETRANSLIT:;
#ARTISTTRANSLIT:;
#GENRE:Happy Hardcore;
#CREDIT:;
#BANNER:;
#BACKGROUND:DDR CD-bg.JPG;
#LYRICSPATH:;
#CDTITLE:;
#MUSIC:Children.ogg;
#OFFSET:-0.000888;
#SAMPLESTART:61.754608;
#SAMPLELENGTH:12.000000;
#SELECTABLE:YES;
#BPMS:0.000000=182.000000
;
#STOPS:
;
#BGCHANGES:;
#KEYSOUNDS:;
#ATTACKS:;

//---------------dance-single - ----------------
#NOTES:
     dance-single:
     :
     Hard:
     14:
     0.698258,0.845774,0.694343,0.127905,0.091361,535.000000,459.000000,76.000000,14.000000,0.000000,0.000000,0.698258,0.845774,0.694343,0.127905,0.091361,535.000000,459.000000,76.000000,14.000000,0.000000,0.000000:
0000
0000
0000
0000
,
0000
0000
0000
0000
,
0000
0000
0000
0000
,
0000
0000
0000
0000
,
0001
0000
0001
0100
1000
0100
0001
0010
,
0100
0000
1000
0100
0001
0100
1000
0010
,
0100
0000
1000
0100
1000
0100
0010
0001
,
1000
0110
0001
0110
,
1001
0000
1000
0010
0001
0010
1000
0100
,
0010
0000
0001
0010
1000
0010
0001
0100
,
0010
0000
0001
0010
0001
0010
0100
1000
,
0001
0110
1000
0110
,
1001
1000
0001
0010
0100
1000
0010
0000
,
1001
0001
0010
0100
1000
0001
0100
0000
,
1010
1000
0100
0000
0011
0001
0100
0000
,
1010
1100
0101
0011
,
2001
3010
2010
3001
,
2001
3100
2100
3001
,
0210
0001
0010
0001
,
0320
1000
0100
1030
,
1002
0013
0012
1003
,
1002
0103
0102
1003
,
0210
1000
0010
1000
,
0320
0001
0100
0031
,
1000
0100
0010
0001
0100
0001
0100
0010
,
1000
0100
1000
0001
0010
0100
0010
0001
,
1000
0010
0100
0010
1000
0010
1000
0010
,
0100
0001
1000
0100
0010
0001
1000
0100
,
0010
0100
1000
0001
0010
0100
0010
0001
,
1000
0010
0100
0010
0100
0001
0100
0010
,
1000
0001
0010
0100
1000
0010
0100
0010
,
1000
0000
0001
0000
0100
0000
0010
0000
0100
0000
0001
0000
1000
0001
1000
0001
,
1000
1010
0001
0011
,
1000
0100
0000
0001
0000
0010
0000
1000
,
0100
0100
0010
0010
,
0001
0000
0000
0000
0001
0000
0000
0000
1000
0000
0000
0000
0001
1000
0001
1000
,
0001
0101
1000
1010
,
0001
0100
0000
1000
0000
0010
0000
0001
,
0100
0100
0010
0010
,
1000
0000
0000
0000
1000
0000
0000
0000
0001
0000
0000
0000
1000
0001
1000
0001
,
1000
0000
1001
0000
0000
0100
1000
0001
,
1000
0000
0110
0000
0000
0100
0001
1000
,
0001
0000
0110
0000
0000
0001
0010
0001
,
1000
0000
1010
0000
0000
1000
0010
1000
,
0001
0000
0011
0000
0000
0100
1000
0001
,
0100
0000
0110
0000
0000
0100
0001
1000
,
0100
0000
0000
0000
0000
0000
1000
0001
1000
0000
0000
0000
0000
0000
0001
1000
,
0001
0000
1000
0001
1000
0000
0001
1000
0001
0000
1000
0001
1000
0001
1000
0001
,
1000
0100
0010
0100
1000
0100
0010
0001
,
0010
0100
1000
0001
0100
0000
0100
0010
,
1000
0010
0100
0001
1000
0100
0010
0001
,
1000
0100
1000
0001
0010
0000
0010
0001
,
1000
0100
0001
0100
0010
0100
1000
0100
,
0010
0100
0001
0100
1000
0000
1000
0001
,
0100
0010
1000
0010
0100
0001
1000
0100
,
0010
0000
0001
0000
0100
0000
0010
0000
1000
0000
0000
0000
0001
1000
0001
1000
,
0001
0100
0010
0100
0001
0000
1000
0100
,
0000
0001
0010
0100
1000
0000
1000
0001
,
1000
0100
0010
0100
1000
0000
0001
0100
,
0000
1000
0010
0100
0001
0000
0001
0100
,
0010
0100
0001
1000
0100
0000
0010
0001
,
0000
1000
0010
0100
0010
0000
1000
0001
,
0010
0100
1000
0001
0100
1000
0100
0010
,
1000
0000
0001
0000
0010
0000
0100
0000
1000
0000
0001
0000
1000
0001
1000
0001
,
1000
1010
0011
0101
,
1100
0000
1001
0000
0011
0000
1000
0100
,
0001
0011
1100
1010
,
0101
0000
1001
0000
1010
0000
0100
0010
,
1000
1100
0101
0011
,
1001
0000
0101
0000
0110
0000
0001
1000
,
0100
1100
0011
1001
,
0101
0000
0000
0000
1010
0000
0000
0000
1001
0000
0000
0000
0001
1000
0001
1000
,
0001
0011
0101
1100
,
1010
0000
1001
0000
1100
0000
0001
0100
,
1000
1010
0101
1001
,
0011
0000
0000
0000
0101
0000
0000
0000
1100
0000
0000
0000
0001
0000
0010
0100
,
0010
0001
1000
0100
0010
0000
0001
0000
,
0101
0000
1000
0010
0100
0010
1000
0001
,
0100
0010
1100
0010
,
1001
1100
0011
0101
,
2020
0000
3030
0000
;

//---------------dance-single - ----------------
#NOTES:
     dance-single:
     :
     Medium:
     10:
     0.455499,0.514819,0.255811,0.155314,0.000000,349.000000,321.000000,28.000000,17.000000,0.000000,0.000000,0.455499,0.514819,0.255811,0.155314,0.000000,349.000000,321.000000,28.000000,17.000000,0.000000,0.000000:
0000
0000
0000
0000
,
0000
0000
0000
0000
,
0000
0000
0000
0000
,
0000
0000
0000
0000
,
1000
1000
0001
0001
,
1000
1000
0001
0001
,
1000
1000
0001
0001
,
0010
1001
0100
1001
,
1000
0010
0001
0100
,
1000
0010
0001
0100
,
1000
0010
0100
0001
,
1000
0100
1000
0000
0001
0100
0001
0000
,
0010
0100
0001
1000
,
0100
0010
0001
0100
,
1000
0010
0100
0001
,
0020
0100
0100
0130
,
2001
3001
2100
3100
,
2010
3010
2001
3001
,
0102
0100
0100
0100
,
0010
0010
0010
0013
,
1002
1003
0102
0103
,
0012
0013
1002
1003
,
2100
0100
0100
0100
,
0010
0010
0010
3010
,
0100
0001
0000
0010
0000
0100
0000
1000
,
0000
0001
0000
0010
0000
0100
0000
0010
,
0000
0001
0000
0100
0000
0010
0000
1000
,
0000
0001
0000
0100
0000
0010
0000
0100
,
0001
0100
0000
0010
0000
1000
0000
0100
,
0000
0010
0000
0001
0000
1000
0000
0100
,
0000
0010
0000
0100
0000
1000
0000
0001
,
0000
0010
0000
0100
0000
1000
0001
1000
,
0001
0000
0000
0000
,
1000
0010
0000
0100
0000
0001
0000
1000
,
0002
0010
0000
0010
,
0000
0000
1000
0003
0000
0001
1000
0001
,
1000
0000
0000
0000
,
0001
0010
0000
0100
0000
1000
0000
0001
,
2000
0010
0000
0010
,
0000
0001
0000
3001
,
0101
0000
0000
0000
0000
1000
0001
0000
,
1000
0000
1100
0000
0000
0001
1000
0000
,
0100
0000
0011
0000
0000
0100
0001
0000
,
0100
0000
1010
0000
0000
0100
1000
0000
,
1001
0000
0000
0000
,
1000
0100
0000
0010
0000
0001
0000
0100
,
0010
0000
0000
0001
0100
0000
0000
1000
,
0100
1000
0001
1000
0001
1000
0001
0010
,
0100
0100
1000
1000
,
0001
0000
0001
0000
1000
0000
1000
0010
,
0100
0100
0001
0001
,
1000
0000
1000
0000
0010
0000
0010
1000
,
0001
0001
0010
0010
,
0100
0000
0100
0000
1000
0000
1000
0001
,
0010
0010
0100
0100
,
1000
0000
1000
0000
0001
1000
0001
1000
,
0001
0100
1000
0010
,
0001
0000
0100
0000
1000
0000
0010
1000
,
0001
0010
1000
0100
,
0001
0000
0010
0000
1000
0000
0100
1000
,
0001
0100
1000
0010
,
0001
0000
0100
0000
1000
0000
0010
1000
,
0100
0010
0001
1000
,
0100
0000
1000
0000
0001
1000
0001
1000
,
0020
0100
1000
0100
,
1030
0000
0001
0000
0101
0000
1000
0100
,
1000
0010
0100
0001
,
1000
0000
0100
0000
0110
0000
0001
0010
,
0001
0100
0010
1000
,
0001
0000
1000
0000
0110
0000
0001
1000
,
0100
0010
0100
1000
,
0001
0000
0010
0000
1000
0001
1000
0001
,
0020
0100
0001
0100
,
0031
0000
1000
0000
1100
0000
0001
0100
,
0001
0010
0100
1000
,
0001
0000
0100
0000
0110
0000
1000
0010
,
1000
0100
0010
0001
,
1000
0000
0001
0000
0110
0000
1000
0001
,
0100
0010
0100
0001
,
1010
0011
0101
1100
,
2002
0000
3003
0000
;

//---------------dance-single - ----------------
#NOTES:
     dance-single:
     :
     Easy:
     6:
     0.272778,0.514819,0.091361,0.164450,0.000000,209.000000,199.000000,10.000000,18.000000,0.000000,0.000000,0.272778,0.514819,0.091361,0.164450,0.000000,209.000000,199.000000,10.000000,18.000000,0.000000,0.000000:
0000
0000
0000
0000
,
0000
0000
0000
0000
,
0000
0000
0000
0000
,
0000
0000
0000
0000
,
1000
1000
1000
0000
,
0001
0001
0001
0000
,
1000
1000
1000
0000
,
0001
0000
1000
0000
,
0100
0100
0100
0000
,
0010
0010
0010
0000
,
0100
0100
0100
0000
,
0010
0010
0010
0000
,
0001
0001
0001
0000
,
0100
0100
0100
0000
,
1000
1000
1000
0000
,
0020
0000
0000
0030
,
2000
3000
0002
0003
,
2000
3000
0002
0003
,
2000
0000
0000
0000
,
3000
0000
0000
0000
,
0020
0030
0200
0300
,
0020
0030
0200
0300
,
0020
0000
0000
0000
,
0030
0000
0000
0000
,
0001
0000
0100
0000
,
1000
0000
0010
0000
,
0001
0000
0001
0000
,
1000
0000
1000
0000
,
0001
0000
0010
0000
,
1000
0000
0100
0000
,
0001
0000
1000
0000
,
1000
0000
0100
0001
,
0001
0000
0000
0000
,
1000
1000
0010
0010
,
0100
0000
0000
0000
,
0000
0000
0000
1000
,
1000
0000
0000
0000
,
0001
0010
0100
1000
,
0001
0000
0001
0000
,
0100
0000
0100
0000
,
0010
1000
0000
1000
,
0100
1000
0000
1000
,
0001
1000
0000
1000
,
0010
1000
0000
0001
,
0100
0001
0000
0001
,
1000
0001
0000
0001
,
0011
0000
1010
0000
,
1100
1100
0101
0101
,
2002
0000
0000
0000
,
3003
0000
0010
0100
,
0200
0000
0000
0000
,
0300
0000
0010
0010
,
2000
0000
0000
0000
,
3000
0000
0100
0100
,
0002
0000
0000
0000
,
0003
0000
0000
0010
,
0100
0100
0100
0000
,
0010
0010
0010
0000
,
0001
0001
0001
0000
,
1000
1000
1000
0000
,
0010
0010
0010
0000
,
0100
0100
0100
0000
,
0001
0001
0001
0000
,
1000
1000
1000
0100
,
1001
1000
1000
1000
,
1000
1000
0010
0001
,
0100
0100
0100
0100
,
0100
0000
0010
1000
,
0100
0100
0100
0100
,
0100
0000
0001
0010
,
0100
0100
0100
0100
,
0100
1000
0001
0100
,
0110
0100
0100
0100
,
0010
0010
0010
0010
,
1000
1000
1000
1000
,
0001
0001
0001
0001
,
0010
1000
0100
0001
,
0100
1000
0010
0001
,
0100
0100
0010
0010
,
1000
1000
0001
0001
,
0220
0000
0330
0000
;

//---------------dance-single - ----------------
#NOTES:
     dance-single:
     :
     Beginner:
     3:
     0.150093,0.255811,0.100497,0.018272,0.000000,115.000000,104.000000,11.000000,2.000000,0.000000,0.000000,0.150093,0.255811,0.100497,0.018272,0.000000,115.000000,104.000000,11.000000,2.000000,0.000000,0.000000:
// measure 0
0000
0000
0000
0000
,  // measure 1
0000
0000
0000
0000
,  // measure 2
0000
0000
0000
0000
,  // measure 3
0000
0000
0000
0000
,  // measure 4
1000
0000
0000
0000
,  // measure 5
1000
0000
0000
0000
,  // measure 6
0001
0000
0000
0000
,  // measure 7
0001
0000
0000
0000
,  // measure 8
0010
0000
0000
0000
,  // measure 9
0100
0000
0000
0000
,  // measure 10
0010
0000
0000
0000
,  // measure 11
0100
0000
0000
0000
,  // measure 12
1000
0000
0000
0000
,  // measure 13
1000
0000
0000
0000
,  // measure 14
0001
0000
0000
0000
,  // measure 15
0001
0000
0000
0000
,  // measure 16
0200
0000
0000
0000
,  // measure 17
0000
0000
0000
0000
,  // measure 18
0300
0000
0000
0000
,  // measure 19
0000
0000
0000
0000
,  // measure 20
0020
0000
0000
0000
,  // measure 21
0000
0000
0000
0000
,  // measure 22
0030
0000
0000
0000
,  // measure 23
0000
0000
0000
0000
,  // measure 24
1000
0000
1000
0000
,  // measure 25
1000
0000
0000
0000
,  // measure 26
0001
0000
0001
0000
,  // measure 27
0001
0000
0000
0000
,  // measure 28
0010
0000
0010
0000
,  // measure 29
0010
0000
0000
0000
,  // measure 30
0100
0000
0100
0000
,  // measure 31
0100
0000
0000
0000
,  // measure 32
1001
0000
0000
0000
,  // measure 33
0010
0000
0000
0000
,  // measure 34
0100
0000
0000
0000
,  // measure 35
0000
0000
0000
0000
,  // measure 36
1001
0000
0000
0000
,  // measure 37
0100
0000
0000
0000
,  // measure 38
0010
0000
0000
0000
,  // measure 39
0000
0000
0000
0000
,  // measure 40
0110
0000
0000
0000
,  // measure 41
0001
0000
0001
0000
,  // measure 42
0001
0000
0000
0000
,  // measure 43
0000
0000
0000
0000
,  // measure 44
0110
0000
0000
0000
,  // measure 45
1000
0000
1000
0000
,  // measure 46
0001
0000
0100
0000
,  // measure 47
1000
0000
0010
0000
,  // measure 48
0110
0000
0100
0000
,  // measure 49
0100
0000
0000
0000
,  // measure 50
0110
0000
0010
0000
,  // measure 51
0010
0000
0000
0000
,  // measure 52
1000
0000
1000
0000
,  // measure 53
1000
0000
0000
0000
,  // measure 54
0001
0000
0001
0000
,  // measure 55
0001
0000
0000
0000
,  // measure 56
0100
0000
0100
0000
,  // measure 57
0100
0000
0100
0000
,  // measure 58
0010
0000
0010
0000
,  // measure 59
0010
0000
0010
0000
,  // measure 60
0001
0000
0001
0000
,  // measure 61
0001
0000
0001
0000
,  // measure 62
1000
0000
1000
0000
,  // measure 63
1000
0000
1000
0000
,  // measure 64
0110
0000
0100
0000
,  // measure 65
0100
0000
0010
0000
,  // measure 66
1000
0000
1000
0000
,  // measure 67
1000
0000
0001
0000
,  // measure 68
0010
0000
0010
0000
,  // measure 69
0010
0000
0100
0000
,  // measure 70
1000
0000
1000
0000
,  // measure 71
1000
0000
0110
0000
,  // measure 72
1001
0000
0001
0000
,  // measure 73
0001
0000
0100
0000
,  // measure 74
0010
0000
0010
0000
,  // measure 75
0010
0000
1000
0000
,  // measure 76
1001
0000
0001
0000
,  // measure 77
0010
0000
1000
0000
,  // measure 78
0100
0000
0001
0000
,  // measure 79
1000
0000
0010
0000
,  // measure 80
0110
0000
0000
0000
;
