#VERSION:0.83;
#TITLE:CELEBRATE NITE;
#SUBTITLE:(EURO TRANCE STYLE);
#ARTIST:N.M.R;
#TITLETRANSLIT:;
#SUBTITLETRANSLIT:;
#ARTISTTRANSLIT:;
#GENRE:Trance;
#ORIGIN:;
#CREDIT:;
#BANNER:CELEBRATE NITE(EURO TRANCE STYLE).png;
#BACKGROUND:CELEBRATE NITE(EURO TRANCE STYLE)-bg.png;
#PREVIEWVID:;
#JACKET:CELEBRATE NITE(EURO TRANCE STYLE)-jacket.png;
#CDIMAGE:;
#DISCIMAGE:;
#LYRICSPATH:;
#CDTITLE:;
#MUSIC:CELEBRATE NITE(EURO TRANCE STYLE).ogg;
#OFFSET:-0.007060;
#SAMPLESTART:21.667000;
#SAMPLELENGTH:15.000000;
#SELECTABLE:YES;
#DISPLAYBPM:144.000000;
#BPMS:0.000=144.000;
#STOPS:;
#DELAYS:;
#WARPS:;
#TIMESIGNATURES:0.000=4=4;
#TICKCOUNTS:0.000=4;
#COMBOS:0.000=1;
#SPEEDS:0.000=1.000=0.000=0;
#SCROLLS:0.000=1.000;
#FAKES:;
#LABELS:0.000=Song Start;
#BGCHANGES:;
#KEYSOUNDS:;
#ATTACKS:
;

//---------------dance-single - ----------------
#NOTEDATA:;
#CHARTNAME:;
#STEPSTYPE:dance-single;
#DESCRIPTION:;
#CHARTSTYLE:;
#DIFFICULTY:Hard;
#METER:11;
#RADARVALUES:0.456100,0.530331,0.107138,0.021428,0.096424,298.000000,288.000000,10.000000,2.000000,0.000000,0.000000,0.000000,0.000000,0.000000,0.456100,0.530331,0.107138,0.021428,0.096424,298.000000,288.000000,10.000000,2.000000,0.000000,0.000000,0.000000,0.000000,0.000000;
#CREDIT:;
#DISPLAYBPM:144.000000;
#NOTES:
0000
0000
0000
0000
,
0000
0000
0000
0000
,
0000
0000
0000
0000
,
1000
0000
0100
0000
,
0001
0000
0000
0000
0010
1000
0100
0000
,
1001
0100
0010
0000
0010
0001
0100
0000
,
0010
1000
0100
0100
0010
1000
0100
0000
,
1001
0100
0010
0000
0010
1000
0100
0000
,
0010
0001
0100
0100
0010
0001
0100
0000
,
0010
1000
0100
0001
0100
0010
0001
0100
,
0100
0010
0001
0100
0010
1000
0100
0000
,
0010
0001
0100
1000
0100
0010
1000
0100
,
0100
0010
1000
0100
0010
0001
0101
0000
,
0010
0000
1000
0000
0001
1000
0100
0000
,
1000
0100
0010
0000
0001
0000
0101
0000
,
1000
0100
0001
0100
,
0010
1000
0100
1000
0100
0001
0010
0000
,
0001
0000
0100
0000
0001
1000
0100
0000
,
0010
0001
1000
0000
0001
0000
1100
0000
,
0001
0100
1000
0100
,
0010
0001
0100
0010
0001
0100
1001
0000
,
0001
0000
0000
1000
0000
0000
0100
0000
0000
0000
0000
0000
0001
0000
0000
0000
,
1000
0100
0010
0000
1000
0000
0100
0000
,
1000
0000
0000
0001
0000
0000
0100
0000
0000
0000
0000
0000
1000
0000
0000
0000
,
0001
0100
0010
0000
0001
0000
0100
0000
,
1000
0000
0000
1000
0000
0000
0100
0000
0000
0000
0000
0000
0010
0000
0000
0000
,
0001
1000
0100
0000
0001
0000
1100
0000
,
0001
0000
0000
0001
0000
0000
0100
0000
0000
0000
0000
0000
0010
0000
0000
0000
,
0000
0000
0000
0100
1000
0010
0100
0001
,
0020
0000
0000
0030
,
0001
0000
0000
1000
0100
0000
0010
0000
0001
0000
0000
0100
0001
0000
0100
0000
,
0010
0000
0000
0001
1000
0000
0100
0000
0010
0000
0000
0001
0010
0000
0001
0000
,
1000
0000
0000
0010
0100
0000
0001
0000
0010
0000
0000
0100
1000
0000
0100
0000
,
0110
0000
0001
0000
0100
0000
0001
0010
,
0100
0000
1000
0000
1000
0000
1000
0010
,
0100
0001
0010
0100
,
0010
1000
0100
0100
0010
1000
0100
0000
,
1001
0000
0000
0000
0100
0000
0000
0000
0010
0000
0000
0000
0001
0100
0000
0000
,
0001
0000
0000
0000
1000
0000
0000
0000
0100
0000
0000
0000
0010
0001
0000
0000
,
0010
0000
0000
0000
0100
0000
0000
0000
1000
0000
0000
0000
0010
0100
0010
0000
,
0100
0000
0000
0000
1000
0000
0000
0000
0001
0000
0000
0000
0010
0001
0010
0000
,
0001
0000
0000
0000
1000
0000
0000
0000
0010
0000
0000
0000
0100
0001
0100
0001
,
0100
0000
0000
0000
0010
0000
0000
0000
1000
0000
0000
0000
1000
0100
1000
0100
,
1000
0100
0010
0001
,
0010
0010
1000
0001
0100
0010
1001
0000
,
0010
1000
0100
0000
1000
0001
0100
0000
,
0001
0010
0100
0010
1000
0001
0100
0000
,
1000
0001
0100
0000
0010
0001
1000
0000
,
0100
0010
0001
0100
1000
0010
0100
0000
,
0001
0010
0100
0000
1000
0010
0100
0000
,
0001
1000
0010
0100
1000
0100
0001
0000
,
1000
0010
0100
0100
0010
0001
0100
0000
,
0000
0000
0000
0100
1000
0010
0100
0001
,
0020
0000
0000
0001
0000
0001
0000
0001
,
0000
0000
0000
0000
,
0030
0000
0000
0000
;

//---------------dance-single - ----------------
#NOTEDATA:;
#CHARTNAME:;
#STEPSTYPE:dance-single;
#DESCRIPTION:;
#CHARTSTYLE:;
#DIFFICULTY:Challenge;
#METER:14;
#RADARVALUES:0.606092,0.766033,0.139279,0.042855,0.482119,396.000000,383.000000,13.000000,4.000000,0.000000,0.000000,0.000000,0.000000,0.000000,0.606092,0.766033,0.139279,0.042855,0.482119,396.000000,383.000000,13.000000,4.000000,0.000000,0.000000,0.000000,0.000000,0.000000;
#CREDIT:;
#DISPLAYBPM:144.000000;
#NOTES:
0000
0000
0000
0000
,
0000
0000
0000
0000
,
0000
0000
0000
0000
,
0000
0000
0000
0000
,
0000
0000
0000
0000
0000
0000
0000
0000
0001
1000
0001
1000
0002
0000
0003
0000
,
1000
0100
0001
0100
1000
0010
0001
0010
,
1000
0001
0100
0001
1000
0001
0010
0001
,
1000
0010
0100
0001
1000
0010
0100
0001
,
1000
0100
0010
0001
1000
0100
0010
0001
,
0001
0010
1000
0010
0001
0100
1000
0100
,
0001
0010
0100
1000
0010
0100
0001
0010
,
0100
1000
0001
1000
0010
1000
0001
1000
,
0100
0010
0001
1000
0010
0100
0001
0010
,
0100
0000
1000
0000
0010
0000
0000
0100
0000
0001
1000
0000
0001
0000
0000
0000
,
0010
0000
0100
0000
1000
0000
0000
0001
0000
0100
0010
0000
0100
0000
0000
0000
,
0001
0000
1000
0000
0010
0000
0000
0100
0000
0010
1000
0000
0100
0000
0000
0000
,
0010
0000
0001
0000
1000
0000
0000
0001
0000
0010
0100
0000
0010
0000
0000
0000
,
0001
0000
1000
0000
0100
0000
0000
0010
0000
0001
1000
0000
0001
0000
0000
0000
,
0100
0000
0010
0000
1000
0000
0000
0001
0000
0100
0010
0000
0100
0000
0000
0000
,
0001
0000
1000
0000
0100
0000
0000
0010
0000
0100
1000
0000
0001
0000
0000
0000
,
0010
0001
1000
0001
0100
0001
0000
0100
0010
1000
0001
1000
0100
1000
0100
0000
,
0010
0000
0001
0000
1000
0000
0010
0000
0100
0001
0000
0001
0000
0000
1000
0000
,
1000
0010
0010
0001
0001
0010
1000
0000
,
0010
0000
1000
0000
0001
0000
0010
0000
0100
1000
0000
1000
0000
0000
0001
0000
,
0001
0000
0010
0000
0010
0000
1000
0000
0010
0000
0000
0011
0000
0000
0000
0000
,
0100
0000
0000
1000
0000
0000
0010
0000
0100
0000
0000
0000
0001
0000
0010
0000
,
0200
1000
0000
1000
0000
0010
0000
0310
,
0001
0000
1000
0000
0000
0001
0000
0000
0100
0000
0000
0000
0010
0000
1000
0001
,
0010
0000
0000
0000
0100
0010
0000
0100
0000
0000
0000
0000
0000
0000
0000
0000
,
1000
0000
0000
1000
0000
0000
1000
0000
0001
0000
0000
0001
0000
0000
0001
0000
,
0100
0000
0000
0100
0000
0000
0100
0000
0010
0000
0000
0010
0000
0000
0010
0000
,
1000
0000
0000
0100
0000
0000
1000
0000
0001
0000
0000
0100
0000
0000
0001
0000
,
1000
0000
0000
0010
0000
0000
0100
0000
0001
0000
0000
0010
0000
0000
0001
0000
,
1001
0000
0000
0100
0000
0000
1000
0000
1010
0000
0000
0001
0000
0000
0100
0000
,
0110
0000
0000
0001
0000
0000
1000
0000
1100
0000
0000
0010
0000
0000
0001
0000
,
0101
0000
0000
0001
0000
0000
0010
0000
0110
0000
0000
1000
0000
0000
0001
0000
,
1000
0010
1000
0010
0000
0000
0001
0010
0001
0010
0001
0010
0000
0000
0000
0000
,
0100
0000
1000
0000
1000
0010
0000
0000
0100
0001
0100
0000
0010
0000
0000
0000
,
1000
0010
1000
0001
0000
0001
1000
0000
0100
0010
0000
0001
1000
0010
0000
0100
,
0010
0100
0010
0000
0000
1000
0001
0000
0010
0100
0010
0000
0001
0000
1000
0100
,
0010
0000
0000
0000
0010
0000
0001
1000
0000
0001
1000
0000
0010
0000
0100
0000
,
0001
0000
0010
0001
0010
0100
0000
0100
1000
0000
0001
1000
0001
0000
0100
0000
,
0010
0000
1000
0001
1000
0000
0100
0000
0010
0000
0001
0010
0001
1000
0001
0000
,
0100
0000
0010
1000
0001
0000
0010
0001
0000
0010
0001
0000
1000
0000
0010
0100
,
0001
0010
0001
0010
0001
0010
0000
0100
1000
0010
1000
0001
1000
0100
1000
0000
,
0010
0000
1000
0000
0001
0000
0100
0000
0001
1000
0000
1001
0000
0000
0100
0000
,
0100
0001
0001
0010
0100
1000
1001
0000
,
0010
0000
1000
0000
0001
0000
0010
0000
0100
1000
0000
1000
0000
0000
0001
0000
,
0001
0010
0010
1000
1000
0010
0001
0000
,
0010
0001
1000
0010
0100
0001
0010
0100
,
0110
0001
0000
0011
0000
1000
0000
1010
,
0001
0000
0100
0000
0000
0000
0010
0000
0010
0000
0000
0000
0100
0000
0001
1000
,
0001
0000
0010
0100
1000
0100
0010
0001
,
1002
0100
0000
0010
0000
1000
0000
0020
,
0000
0000
0000
0000
,
0033
0000
0000
0000
;

//---------------dance-single - ----------------
#NOTEDATA:;
#CHARTNAME:;
#STEPSTYPE:dance-single;
#DESCRIPTION:;
#CHARTSTYLE:;
#DIFFICULTY:Medium;
#METER:9;
#RADARVALUES:0.362737,0.376053,0.032141,0.085710,0.000000,237.000000,234.000000,3.000000,8.000000,0.000000,0.000000,0.000000,0.000000,0.000000,0.362737,0.376053,0.032141,0.085710,0.000000,237.000000,234.000000,3.000000,8.000000,0.000000,0.000000,0.000000,0.000000,0.000000;
#CREDIT:;
#DISPLAYBPM:144.000000;
#NOTES:
0000
0000
0000
0000
,
0000
0000
0000
0000
,
0000
0000
0000
0000
,
2000
3000
0020
0030
,
0200
0000
0000
0000
,
0301
0001
0010
0010
,
0100
0000
1000
0000
0001
1000
0001
0000
,
1000
1000
0010
0010
,
0100
0000
0100
0000
1000
0010
1000
0000
,
0001
0100
0010
0100
,
0001
0000
0010
0000
0100
0010
0100
0000
,
0001
0010
0100
1000
,
0001
0000
0100
0000
1000
0010
1000
0000
,
0100
1000
0100
1000
0000
0100
1000
0000
,
0001
0100
0001
0100
0000
0001
0100
0000
,
0001
0010
0001
0010
0000
0001
0010
0000
,
1000
0010
1000
0010
0000
1000
0010
0000
,
0100
0001
0100
0001
0000
0100
0001
0000
,
1000
0100
1000
0100
0000
0100
1000
0000
,
0001
0010
0001
0010
0000
0001
0010
0000
,
0200
0000
0000
0300
,
0010
0000
0001
0100
0001
0000
1000
0000
,
0010
0100
0001
0100
0000
0010
0000
0000
,
1000
0000
0001
0000
0010
0100
0010
0000
,
0001
1000
0100
0000
0010
0000
0010
0000
,
0001
1000
0200
0300
,
1000
0001
0200
0300
,
0010
0000
1000
0000
0001
0000
1000
0100
,
0010
0000
0100
0000
1000
0001
1000
0000
,
0010
0010
0100
0100
,
0001
0001
0010
0010
,
0100
0100
1000
1000
,
0001
0001
0100
0100
,
1010
0100
1000
0001
,
0011
0100
0010
0001
,
0101
1000
0010
0100
,
0001
1000
0000
0001
1000
0001
1000
0000
,
0100
0010
0001
0000
0010
0000
0100
0000
,
1000
0010
0100
0000
0010
0000
1000
0000
,
0001
0100
0010
0000
0100
0000
0001
0010
,
0100
0100
0010
0001
,
1000
0100
0010
0000
0100
0000
1000
0000
,
0001
0100
0010
0000
0100
0000
0001
0000
,
1000
0010
0100
0000
0001
0000
1000
0100
,
0020
0000
0000
0030
,
0001
0100
0001
0000
0001
0100
0001
0000
,
0010
0100
1000
0001
,
1000
0100
1000
0000
1000
0100
1000
0000
,
0010
0100
0001
0001
,
1000
0000
0010
0000
1000
0000
0100
0010
,
0100
0000
1000
0000
0001
0000
0010
0100
,
0010
0001
0000
0100
0010
0000
0100
0000
,
0001
0000
1000
0010
0100
0000
0001
0000
,
0020
0100
0000
0100
0000
0100
0000
0100
,
0030
0000
0000
0000
;

//---------------dance-single - ----------------
#NOTEDATA:;
#CHARTNAME:;
#STEPSTYPE:dance-single;
#DESCRIPTION:;
#CHARTSTYLE:;
#DIFFICULTY:Easy;
#METER:5;
#RADARVALUES:0.228050,0.287932,0.010714,0.192848,0.000000,149.000000,148.000000,1.000000,18.000000,0.000000,0.000000,0.000000,0.000000,0.000000,0.228050,0.287932,0.010714,0.192848,0.000000,149.000000,148.000000,1.000000,18.000000,0.000000,0.000000,0.000000,0.000000,0.000000;
#CREDIT:;
#DISPLAYBPM:144.000000;
#NOTES:
0000
0000
0000
0000
,
0000
0000
0000
0000
,
0000
0000
0000
0000
,
0002
0000
0000
0000
,
0003
0000
0000
0000
,
1000
0000
1000
0000
,
0100
0010
0001
0000
,
0100
0000
0100
0000
,
1000
0010
0100
0000
,
0001
0000
0001
0000
,
0010
0100
1000
0000
,
0010
0000
0010
0000
,
1000
0100
0010
0000
,
0001
0001
0001
0001
,
0100
0100
0100
0100
,
0010
0010
0010
0010
,
1000
1000
1000
1000
,
0002
0000
0000
0000
,
0000
0000
0000
0000
,
0003
0000
0000
0000
,
0010
0000
0010
0000
,
0100
1000
0100
0010
,
0001
0100
1000
0100
,
0001
0100
1000
0100
,
0001
0100
1000
0100
,
0001
0010
0100
1000
,
2000
0000
3000
0000
,
0010
0100
0001
0000
,
1000
1000
0010
0000
,
2000
3000
2000
3000
,
0200
0300
0200
0300
,
0020
0030
0020
0030
,
0002
0003
0002
0003
,
0100
0100
0001
0001
,
1000
1000
0010
0010
,
1000
0100
0010
0001
,
2002
0000
3003
0000
,
1000
0010
0001
0010
,
1000
0010
0001
0010
,
1000
0100
0001
0010
,
0100
0010
0001
0100
,
1000
0010
0100
0001
,
1000
0100
0010
0001
,
1000
0010
0100
0001
,
0020
0000
0030
0000
,
0100
1000
0100
1000
,
0001
0010
0001
0010
,
0100
0010
0001
0100
,
0020
0100
0130
0000
,
1000
0001
1000
0100
,
0200
0000
0300
0000
,
0010
0001
0200
0300
,
0010
1000
0100
1000
,
0002
1000
1000
1003
;

//---------------dance-single - ----------------
#NOTEDATA:;
#CHARTNAME:;
#STEPSTYPE:dance-single;
#DESCRIPTION:;
#CHARTSTYLE:;
#DIFFICULTY:Beginner;
#METER:2;
#RADARVALUES:0.082649,0.144636,0.010714,0.182134,0.000000,54.000000,53.000000,1.000000,17.000000,0.000000,0.000000,0.000000,0.000000,0.000000,0.082649,0.144636,0.010714,0.182134,0.000000,54.000000,53.000000,1.000000,17.000000,0.000000,0.000000,0.000000,0.000000,0.000000;
#CREDIT:;
#DISPLAYBPM:144.000000;
#NOTES:
0000
0000
0000
0000
,
0000
0000
0000
0000
,
0000
0000
0000
0000
,
0000
0000
0000
0000
,
0000
0000
0000
0000
,
1000
0000
0000
0000
,
2000
0000
3000
0000
,
0001
0000
0000
0000
,
0002
0000
0003
0000
,
0010
0000
0000
0000
,
0020
0000
0030
0000
,
0100
0000
0000
0000
,
0200
0000
0300
0000
,
2000
0000
0000
0000
,
3000
0000
0000
0000
,
0020
0000
0000
0000
,
0030
0000
0000
0000
,
0200
0000
0000
0000
,
0000
0000
0000
0000
,
0300
0000
0000
0000
,
1001
0000
0000
0000
,
0001
0000
0001
0000
,
0001
0000
0000
0000
,
1000
0000
1000
0000
,
1000
0000
0000
0000
,
0100
0000
0100
0000
,
0100
0000
0000
0000
,
0010
0000
0010
0000
,
0010
0000
0000
0000
,
0200
0000
0000
0000
,
0300
0000
0000
0000
,
0020
0000
0000
0000
,
0030
0000
0000
0000
,
0002
0000
0003
0000
,
0002
0000
0003
0000
,
2000
0000
3000
0000
,
2000
0000
3000
0000
,
0010
0000
0010
0000
,
0010
0000
0000
0000
,
0100
0000
0100
0000
,
0100
0000
0000
0000
,
0001
0000
0001
0000
,
0001
0000
0000
0000
,
1000
0000
1000
0000
,
1000
0000
0000
0000
,
0002
0000
0000
0000
,
0003
0000
0001
0000
,
2000
0000
0000
0000
,
3000
0000
1000
0000
,
0020
0000
0000
0000
,
0030
0000
0010
0000
,
0200
0000
0000
0000
,
0300
0000
0100
0000
,
0001
0000
0010
0000
,
0100
0000
0000
0000
;
