#TITLE:CAPTAIN JACK;
#SUBTITLE:;
#ARTIST:CAPTAIN JACK;
#TITLETRANSLIT:;
#SUBTITLETRANSLIT:;
#ARTISTTRANSLIT:;
#GENRE:;
#CREDIT:;
#BANNER:;
#BACKGROUND:;
#LYRICSPATH:;
#CDTITLE:;
#MUSIC:Captain Jack.ogg;
#OFFSET:-0.080000;
#SAMPLESTART:83.699829;
#SAMPLELENGTH:12.000000;
#SELECTABLE:YES;
#BPMS:0.000000=149.839981
,240.000000=149.899994
;
#STOPS:
;
#BGCHANGES:;
#KEYSOUNDS:;
#ATTACKS:;

//---------------dance-single - ----------------
#NOTES:
     dance-single:
     :
     Hard:
     14:
     0.623814,0.770199,0.294685,0.062509,0.245571,489.000000,456.000000,33.000000,7.000000,0.000000,0.000000,0.623814,0.770199,0.294685,0.062509,0.245571,489.000000,456.000000,33.000000,7.000000,0.000000,0.000000:
0000
0000
0000
0000
,
0000
0000
0000
0000
,
0000
0000
0000
0000
,
0000
0000
0000
0000
,
1000
0100
1000
0100
0010
0001
0010
0001
1000
0001
1000
0001
0100
0010
0100
0010
,
1000
0100
1000
0001
0100
0010
1000
0000
,
1000
0100
0010
0001
0010
0100
1000
0000
,
0001
0101
0000
1001
0000
1010
0000
1100
,
0000
1100
0000
1010
0000
1001
0000
0110
,
1001
0000
0000
0100
0000
0000
1000
0000
0100
0000
1000
0000
0100
0000
0000
0000
,
1001
0000
0000
0100
0000
0000
0001
0000
0100
0000
0001
0000
0100
0000
0000
0000
,
1000
0000
0000
0100
0000
0000
1000
0000
0001
0000
0000
0100
0000
0000
0001
0000
,
1000
0001
1000
0001
1000
0001
1000
0001
0100
0010
0100
0010
0100
0010
0100
0010
,
1000
0100
0001
0100
1000
0100
0001
0100
,
1000
0010
0001
0010
1000
0010
0001
0010
,
1000
0100
0001
0100
1000
0010
0001
0010
,
1000
0100
0001
0100
1000
0010
0001
0010
,
1000
0100
1000
0100
0001
0100
0001
0100
,
1000
0010
1000
0010
0001
0010
0001
0010
,
1000
0100
0010
0001
0010
0100
1000
0000
,
0001
0100
0001
0100
0001
0100
0001
0100
0010
1000
0010
1000
0010
1000
0010
1000
,
0010
1000
0100
1000
0100
1000
0010
0100
,
0000
0100
0001
0100
0010
1000
0010
1000
,
0100
1000
0010
0100
0001
0010
0100
1000
,
0000
1000
0100
1000
0010
0100
0010
1000
,
0100
1000
0010
0100
0010
1000
0001
0100
,
0000
0100
0010
1000
0100
1000
0010
0100
,
0001
0100
0010
1000
0100
1000
0010
1000
,
0001
1000
0010
1000
0001
1000
0010
1000
0001
1000
0100
1000
0001
1000
0100
1000
,
0001
0000
0101
0000
0010
1000
0010
0000
,
1000
0000
1100
0000
1000
0001
0100
0000
,
0001
0100
0010
1000
0010
0100
0001
0000
,
1000
0100
1000
0010
0100
0010
1000
0000
,
1000
1000
1000
0000
0100
1000
1000
0000
,
0001
0001
0001
0000
0100
0001
0001
0000
,
1000
0001
0100
0100
0010
1000
1001
0000
,
0001
1000
0100
0100
0010
0001
1001
0000
,
1100
0101
1100
0000
,
1100
0000
0101
0000
1100
0000
0000
0100
,
1000
0100
0010
0001
0010
0000
0000
0010
,
0001
0010
0100
1000
0100
0000
0000
1000
,
0101
0000
1100
0000
0101
0000
0000
0001
,
1100
0000
0101
0000
1100
0000
0000
1000
,
0001
0100
0001
0000
0100
0000
0010
0000
1000
0000
0000
0000
0000
0000
1000
0000
,
0010
1000
0100
0000
1000
0000
0010
0000
0100
0000
0000
0000
0000
0000
0000
0000
,
2002
0000
0000
3003
,
1001
0000
0100
0000
0010
0000
0100
0000
0010
0100
0010
0000
0100
0000
0010
0000
,
0100
0010
0100
0010
0200
0010
0310
0000
,
0000
1000
0000
0001
0000
0100
0000
0100
,
2002
0000
0000
3003
,
1001
0000
0100
0000
0010
0000
0100
0000
0010
0100
0010
0000
0100
0000
0010
0000
,
0100
0010
0100
0010
0200
0010
0020
0000
,
0000
0330
1001
1100
,
1001
0100
0001
0100
0001
0100
0001
0000
,
1000
0010
1000
0010
1000
0010
0100
0000
,
0001
0100
0010
0000
1000
0010
0100
0000
,
0001
0100
0010
1000
0010
0100
0001
0000
,
1000
0100
0010
0001
0010
0100
1000
0000
,
0001
0100
0010
1000
0010
0100
0001
0000
,
1000
1000
0100
0000
1000
1000
0010
0000
,
0100
0001
0100
0010
0100
0001
0100
0000
,
1000
0000
0000
1000
0000
0000
1000
0000
0000
0000
0001
0000
0100
0000
0001
0000
,
0100
0000
0000
0100
0000
0000
0100
0000
0000
0000
1000
0000
0010
0000
1000
0000
,
0010
0000
0000
0010
0000
0000
0010
0000
0000
0000
0100
0000
0001
0000
0100
0000
,
0001
0000
0000
0001
0000
0000
0001
0000
0000
0000
0100
0000
0010
0000
1000
0000
,
0100
0000
0000
0010
0000
0000
0001
0000
0000
0000
0100
0000
0010
0000
1000
0000
,
0010
0000
0000
0100
0000
0000
0001
0000
0000
0000
0100
0000
0010
0000
1000
0000
,
0100
0000
0000
1000
0000
0000
0001
0000
0000
0000
0100
0000
0010
0000
1000
0000
,
0100
1000
0100
1000
0100
1000
0100
1000
0100
1000
0100
1000
0100
1000
0100
1000
,
0100
0000
0000
0000
;

//---------------dance-single - ----------------
#NOTES:
     dance-single:
     :
     Medium:
     11:
     0.469455,0.492928,0.473282,0.142878,0.000000,368.000000,315.000000,53.000000,16.000000,0.000000,0.000000,0.469455,0.492928,0.473282,0.142878,0.000000,368.000000,315.000000,53.000000,16.000000,0.000000,0.000000:
// measure 0
0000
0000
0000
0000
,  // measure 1
0000
0000
0000
0000
,  // measure 2
0000
0000
0000
0000
,  // measure 3
0000
0000
0000
0000
,  // measure 4
0010
1000
0010
0100
0010
1000
0010
0100
,  // measure 5
0010
1000
0100
1000
,  // measure 6
0010
0000
0100
0000
0001
0001
0001
0000
,  // measure 7
1000
1000
1000
0000
0001
0001
0001
0000
,  // measure 8
0100
0100
0100
0000
0010
0010
0010
0000
,  // measure 9
1001
1000
0100
1000
,  // measure 10
0001
0000
0100
0000
0001
0001
0001
0000
,  // measure 11
0100
0100
0100
0000
0010
0010
0010
0000
,  // measure 12
1000
0001
1000
0010
1000
0001
1000
0010
,  // measure 13
1000
0000
1000
0000
0001
0100
0001
0100
,  // measure 14
0001
0000
0001
0000
1000
0010
1000
0010
,  // measure 15
1000
1000
0001
0001
,  // measure 16
1000
0000
1000
0010
1000
0010
1000
0010
,  // measure 17
1000
0001
0100
0001
,  // measure 18
0001
0001
0001
0000
1000
1000
1000
0000
,  // measure 19
1000
0100
0010
0001
0010
0100
1000
0000
,  // measure 20
1000
0001
0010
0100
1000
0100
0010
0001
,  // measure 21
1000
0101
0101
0101
,  // measure 22
0010
0101
0101
0101
,  // measure 23
0010
1100
1100
1100
,  // measure 24
0010
0101
0101
0101
,  // measure 25
1000
0101
0101
0101
,  // measure 26
0001
1100
1100
1100
,  // measure 27
1000
0110
0110
0110
,  // measure 28
0001
1001
1100
1001
,  // measure 29
1000
0000
0100
0000
1000
0100
1000
0000
,  // measure 30
0001
0000
0100
0000
0001
0100
0001
0000
,  // measure 31
1000
0010
1000
0010
1000
0010
1000
0000
,  // measure 32
0001
0100
0001
0100
0001
0100
0001
0000
,  // measure 33
1000
1000
1000
0000
0100
0100
0100
0000
,  // measure 34
0001
0001
0001
0000
0100
0100
0100
0000
,  // measure 35
1000
0100
0001
0100
1000
0100
0001
0000
,  // measure 36
1000
0100
0001
0100
1000
0100
0001
0000
,  // measure 37
2000
3002
2003
3001
,  // measure 38
2000
0000
3002
0000
2003
0000
3001
0100
,  // measure 39
0001
0100
0001
0100
0001
0000
1000
0010
,  // measure 40
1000
0010
1000
0010
1000
0000
0000
0100
,  // measure 41
1001
0000
0101
0000
1001
0000
0000
0100
,  // measure 42
1001
0000
1100
0000
1001
0000
0000
0100
,  // measure 43
0020
0000
0100
0100
0130
0000
0000
0010
,  // measure 44
0200
0000
0010
0010
0310
0000
0000
0000
,  // measure 45
2002
0000
0000
3003
,  // measure 46
1000
0100
1000
0100
1000
0100
1000
0100
,  // measure 47
0010
0001
0010
0100
1000
0000
0000
0000
,  // measure 48
0000
0000
0000
0000
,  // measure 49
2002
0000
0000
3003
,  // measure 50
0001
0010
0001
0010
0001
0010
0001
0010
,  // measure 51
0100
1000
0100
0010
0001
0000
0000
0000
,  // measure 52
2002
0000
0000
3003
,  // measure 53
1000
0001
1000
0100
,  // measure 54
1000
0010
0100
0001
,  // measure 55
0100
0101
0100
0101
,  // measure 56
0010
1010
0010
1010
,  // measure 57
1000
0001
0100
0010
,  // measure 58
1000
0100
0010
0001
,  // measure 59
0100
0110
0001
0110
,  // measure 60
1001
0110
1001
0110
,  // measure 61
1001
0100
1000
0100
,  // measure 62
1001
0100
0001
0100
,  // measure 63
1001
1000
0001
0001
,  // measure 64
1000
0110
0001
0110
,  // measure 65
1001
0100
1000
0100
,  // measure 66
1001
0100
0001
0100
,  // measure 67
0001
0010
0001
0100
0001
0010
0001
0000
,  // measure 68
2002
0000
0000
3003
,  // measure 69
1001
0000
0000
0000
;

//---------------dance-single - ----------------
#NOTES:
     dance-single:
     :
     Easy:
     6:
     0.313820,0.400504,0.276825,0.142878,0.000000,246.000000,215.000000,31.000000,16.000000,0.000000,0.000000,0.313820,0.400504,0.276825,0.142878,0.000000,246.000000,215.000000,31.000000,16.000000,0.000000,0.000000:
// measure 0
0000
0000
0000
0000
,  // measure 1
0000
0000
0000
0000
,  // measure 2
0000
0000
0000
0000
,  // measure 3
0000
0000
0000
0000
,  // measure 4
0000
0000
0000
0000
,  // measure 5
1000
0001
0100
0101
,  // measure 6
0001
1000
0100
1100
,  // measure 7
1000
0001
0100
0010
,  // measure 8
1000
0001
0100
0010
,  // measure 9
2000
0000
3100
0100
,  // measure 10
0002
0000
0100
0103
,  // measure 11
1000
0100
0001
0100
,  // measure 12
1000
0100
0001
0100
,  // measure 13
1000
0001
1000
0001
,  // measure 14
0100
0010
0100
0010
,  // measure 15
1000
1000
0001
0001
,  // measure 16
1000
0100
0010
0001
,  // measure 17
1000
0001
0100
0010
,  // measure 18
1000
0100
1000
0001
,  // measure 19
0010
0100
1000
0100
,  // measure 20
0010
0001
0100
0001
,  // measure 21
0100
0101
0100
0001
,  // measure 22
0001
1001
1000
0100
,  // measure 23
0100
1100
1000
0010
,  // measure 24
0100
0110
0100
0010
,  // measure 25
0100
0101
0001
0010
,  // measure 26
0001
0011
0010
0100
,  // measure 27
1000
1100
1000
1100
,  // measure 28
0001
0101
0001
0101
,  // measure 29
1000
0100
1100
0100
,  // measure 30
1000
0001
0101
0001
,  // measure 31
1000
0010
0100
0010
,  // measure 32
1000
0010
0100
0010
,  // measure 33
0100
0001
0101
0101
,  // measure 34
0001
1000
1100
1100
,  // measure 35
1000
0001
0100
0100
,  // measure 36
0001
1000
0010
0010
,  // measure 37
1000
0001
1000
0000
,  // measure 38
1000
0001
1000
0000
,  // measure 39
1000
0100
1000
0100
,  // measure 40
1000
0100
1000
0100
,  // measure 41
0010
0001
0010
0000
,  // measure 42
0010
0001
0010
0000
,  // measure 43
0010
0001
0010
0001
,  // measure 44
0010
0001
0010
0000
,  // measure 45
2002
0000
0000
3003
,  // measure 46
1001
0100
1001
1001
,  // measure 47
1001
0100
1001
0000
,  // measure 48
0000
0000
0000
0000
,  // measure 49
2002
0000
0000
3003
,  // measure 50
1001
0100
1001
1001
,  // measure 51
1001
0100
1001
0000
,  // measure 52
0000
0000
2000
3002
,  // measure 53
0103
0001
0100
0010
,  // measure 54
1000
0100
1000
0001
,  // measure 55
0100
0001
1000
0010
,  // measure 56
1000
0001
0100
0001
,  // measure 57
1000
0100
0010
0001
,  // measure 58
1000
0100
0010
0001
,  // measure 59
1000
0001
0100
0010
,  // measure 60
0100
0100
0100
0100
,  // measure 61
2002
0000
0000
3000
,  // measure 62
0200
0000
0000
0003
,  // measure 63
0020
0000
0000
0300
,  // measure 64
2000
0000
0000
0030
,  // measure 65
0200
0000
0000
3000
,  // measure 66
0020
0000
0000
0300
,  // measure 67
0002
0000
0000
0030
,  // measure 68
0100
1000
0100
1000
,  // measure 69
0103
0000
0000
0000
;

//---------------dance-single - ----------------
#NOTES:
     dance-single:
     :
     Beginner:
     3:
     0.190078,0.246464,0.125018,0.089298,0.000000,149.000000,135.000000,14.000000,10.000000,0.000000,0.000000,0.190078,0.246464,0.125018,0.089298,0.000000,149.000000,135.000000,14.000000,10.000000,0.000000,0.000000:
// measure 0
0000
0000
0000
0000
,  // measure 1
0000
0000
0000
0000
,  // measure 2
0000
0000
0000
0000
,  // measure 3
0000
0000
0000
0000
,  // measure 4
0000
0000
0000
0000
,  // measure 5
1000
1000
1000
0000
,  // measure 6
0001
0001
0001
0000
,  // measure 7
1000
0000
0001
0000
,  // measure 8
1000
0000
0001
0000
,  // measure 9
0100
0100
0100
0000
,  // measure 10
0010
0010
0010
0000
,  // measure 11
0100
0000
0010
0000
,  // measure 12
0100
0000
0010
0000
,  // measure 13
0000
1000
1000
1000
,  // measure 14
0000
0001
0001
0001
,  // measure 15
0000
1000
1000
1000
,  // measure 16
0000
0001
0001
0001
,  // measure 17
0001
0000
0000
0000
,  // measure 18
1000
0000
0000
0000
,  // measure 19
0100
0000
0100
0000
,  // measure 20
0200
0000
0000
0300
,  // measure 21
0100
0000
1000
0000
,  // measure 22
0100
0000
1000
0000
,  // measure 23
0010
0000
0100
0000
,  // measure 24
0001
0000
0100
0000
,  // measure 25
0010
0000
1000
0000
,  // measure 26
0100
0000
1000
0000
,  // measure 27
0001
0000
0100
0000
,  // measure 28
0010
0010
0010
0010
,  // measure 29
0010
0000
1001
0000
,  // measure 30
0100
0000
1001
0000
,  // measure 31
0010
0000
1001
0000
,  // measure 32
0100
0000
1001
0000
,  // measure 33
1000
0000
0110
0000
,  // measure 34
0001
0000
0110
0000
,  // measure 35
1000
0000
0110
0000
,  // measure 36
0001
0000
0110
0000
,  // measure 37
2000
0000
3000
0000
,  // measure 38
2000
0000
3000
0000
,  // measure 39
0002
0000
0003
0000
,  // measure 40
0002
0000
0003
0000
,  // measure 41
0100
0100
0100
0000
,  // measure 42
0100
0100
0100
0000
,  // measure 43
0010
0010
0010
0000
,  // measure 44
0010
0010
0010
0000
,  // measure 45
2002
0000
3003
0000
,  // measure 46
0100
0100
0100
0100
,  // measure 47
0100
0100
0100
0000
,  // measure 48
0000
0000
0000
0000
,  // measure 49
2002
0000
3003
0000
,  // measure 50
0010
0010
0010
0010
,  // measure 51
0010
0010
0010
0000
,  // measure 52
0000
0000
0100
0100
,  // measure 53
0100
0000
0001
0000
,  // measure 54
0100
0000
0010
0000
,  // measure 55
1000
0000
0100
0000
,  // measure 56
1000
0000
0100
0000
,  // measure 57
1000
0000
0001
0000
,  // measure 58
0100
0000
0010
0000
,  // measure 59
0100
0000
0001
0000
,  // measure 60
0100
0000
0010
0000
,  // measure 61
1001
0000
0000
0000
,  // measure 62
1001
0000
0000
0000
,  // measure 63
0110
0000
0000
0000
,  // measure 64
0110
0000
0000
0000
,  // measure 65
1000
0000
1000
0000
,  // measure 66
0001
0000
0001
0000
,  // measure 67
0100
0100
0100
0100
,  // measure 68
0200
0000
0000
0300
,  // measure 69
0100
0000
0000
0000
;
