#TITLE:CANDY POP;
#SUBTITLE:;
#ARTIST:LUV LIMITED -NM-;
#TITLETRANSLIT:;
#SUBTITLETRANSLIT:;
#ARTISTTRANSLIT:;
#GENRE:;
#CREDIT:;
#BANNER:candy pop.png;
#BACKGROUND:candy pop-bg.png;
#LYRICSPATH:;
#CDTITLE:;
#MUSIC:Candy Pop - Luv Limited -NM- [SMX Cut].mp3;
#OFFSET:0.180000;
#SAMPLESTART:32.753048;
#SAMPLELENGTH:15.000000;
#SELECTABLE:YES;
#BPMS:0.000000=182.033005
,4.000000=182.039993
;
#STOPS:
;
#BGCHANGES:;
#KEYSOUNDS:;
#ATTACKS:;

//---------------dance-single - ----------------
#NOTES:
     dance-single:
     :
     Beginner:
     2:
     0.142467,0.220986,0.079328,0.000000,0.000000,88.000000,81.000000,7.000000,0.000000,0.000000,0.000000,0.142467,0.220986,0.079328,0.000000,0.000000,88.000000,81.000000,7.000000,0.000000,0.000000,0.000000:
0000
0000
0000
0000
,
0000
0000
0000
0000
,
0000
0000
0000
0000
,
0000
0000
0000
0000
,
0000
0000
0000
0000
,
0010
0000
0000
0000
,
0100
0000
0000
0000
,
0001
0000
0000
0000
,
0001
0000
0000
0000
,
0010
0000
0000
0000
,
0100
0000
0000
0000
,
1001
0000
0000
0000
,
1000
0000
0000
0000
,
0110
0000
0000
0000
,
0001
0000
0000
0000
,
1001
0000
0000
0000
,
0001
0000
0000
0000
,
0110
0000
0000
0000
,
1000
0000
0001
0001
,
0001
0000
0000
0000
,
1000
0000
0000
0000
,
0001
0000
0000
0000
,
0001
0000
0000
0000
,
1000
0000
0000
0000
,
1000
0000
0000
0000
,
1000
0000
0000
0000
,
0001
0001
0001
0000
,
0010
0000
0010
0000
,
0100
0000
0100
0000
,
0010
0000
0010
0000
,
0100
0000
0100
0000
,
0001
0000
0000
0000
,
1000
0000
0000
0000
,
0001
0000
0000
0000
,
0100
0000
0000
0000
,
0001
0000
0001
0000
,
1000
0000
1000
0000
,
0001
0000
0001
0000
,
1000
0000
1000
0000
,
0010
0000
0000
0000
,
0010
0000
0000
0000
,
0100
0000
0000
0000
,
0100
0000
0000
0000
,
1000
0000
0000
0000
,
0100
0000
0000
0000
,
1000
0000
0000
0000
,
0100
0000
0000
0000
,
1000
0000
0000
0000
,
0010
0000
0000
0000
,
1000
0000
0000
0000
,
0010
0000
0000
0000
,
1000
1000
1000
0000
,
1000
0000
0000
0000
,
0010
0010
0010
0000
,
0010
0000
0000
0000
,
1001
0000
0000
0000
,
0001
0000
0000
0000
,
1000
0000
0000
0000
,
0001
0000
0000
0000
,
0010
0010
0010
0000
,
0010
0000
0000
0000
,
0001
0001
0001
0000
,
0001
0000
0000
0000
,
1001
0000
0000
0000
,
0001
0000
0000
0000
,
1001
0000
0000
0000
;

//---------------dance-single - ----------------
#NOTES:
     dance-single:
     :
     Easy:
     5:
     0.271982,0.335303,0.113326,0.022665,0.000000,168.000000,158.000000,10.000000,2.000000,0.000000,0.000000,0.271982,0.335303,0.113326,0.022665,0.000000,168.000000,158.000000,10.000000,2.000000,0.000000,0.000000:
0000
0000
0000
0000
,
0000
0000
0000
0000
,
0000
0000
0000
0000
,
0000
0000
0000
0000
,
0000
0000
0000
0000
,
0010
0000
1001
0000
,
0100
0100
1001
0000
,
0001
0000
0001
0000
,
0001
0001
0001
0000
,
0010
0000
0010
0000
,
0100
0000
0100
0000
,
1000
0000
1001
0000
,
1000
0001
1000
0000
,
0001
0000
0001
0000
,
0001
1000
1001
0000
,
1000
0000
1000
0000
,
0001
0000
0001
0000
,
1000
0000
0001
0000
,
1000
1000
0001
0000
,
0001
0000
1001
0000
,
1000
0001
0100
0000
,
0001
0000
0001
0000
,
0001
1000
0100
0000
,
1000
0000
0001
0000
,
1000
0001
0100
0000
,
1000
0000
1000
0000
,
0001
1000
0100
0000
,
0010
1000
0100
0000
,
0100
1000
0010
0000
,
0010
1000
0100
0000
,
0100
1000
0010
0000
,
0001
0000
0001
0000
,
1000
0000
1000
0000
,
0001
0000
0001
0000
,
0100
0000
0100
0000
,
0010
0001
0100
0000
,
0100
0001
0010
0000
,
0010
0001
0100
0000
,
0100
0001
0010
0000
,
0010
0000
1000
0000
,
0010
0000
1000
0000
,
0100
0000
0001
0000
,
0100
0000
0001
0000
,
1000
0010
0001
0010
,
0100
0010
0100
0010
,
1000
0010
0001
0010
,
0100
0010
0100
0010
,
1000
0100
0001
0100
,
0010
0100
0010
0100
,
1000
0100
0001
0100
,
0010
0100
0010
0100
,
1000
0000
0001
0000
,
1000
0000
0001
0000
,
0010
0000
0100
0000
,
0010
1000
0100
0000
,
1001
0000
1000
0000
,
0001
0000
1001
0000
,
1000
0100
0001
0000
,
0001
0100
1000
0000
,
1000
0000
0001
0000
,
1000
0000
0001
0000
,
0010
0000
0100
0000
,
0010
1000
0100
0000
,
1001
0000
1000
0000
,
0001
0000
1001
0000
,
2002
0000
0000
3003
;

//---------------dance-single - ----------------
#NOTES:
     dance-single:
     :
     Medium:
     7:
     0.375595,0.484327,0.181322,0.203987,0.000000,232.000000,216.000000,16.000000,18.000000,0.000000,0.000000,0.375595,0.484327,0.181322,0.203987,0.000000,232.000000,216.000000,16.000000,18.000000,0.000000,0.000000:
0000
0000
0000
0000
,
0000
0000
0000
0000
,
0000
0000
0000
0000
,
0000
0000
0000
0000
,
0000
0000
0000
0000
,
0001
0000
0000
0000
,
1000
0000
0000
0000
,
0001
0000
1000
0000
,
0001
1000
0100
0000
,
1000
0000
0000
1000
0000
0000
0000
0000
,
0001
0000
0000
0001
0000
0000
0000
0000
,
0010
0001
1000
1001
,
0100
1000
0001
1001
,
0010
0001
0100
1000
,
0010
1000
0100
0100
,
0010
1000
0001
1001
,
0100
0001
1000
1001
,
0010
1000
0001
0010
,
0100
1000
0001
0000
,
0110
0001
0110
1000
,
0010
0100
0001
0010
,
1100
0010
1000
0100
,
0010
0001
1000
1000
,
0010
1000
0100
1000
,
0001
0101
1000
0100
,
0010
0110
0001
0010
,
0100
1000
0010
0000
,
0010
0000
0001
0000
0100
0000
0001
1000
,
0000
1000
0001
0000
0100
0000
0001
0000
,
0010
0000
0100
0000
1000
0000
0100
0010
,
0000
0010
0100
0000
1000
0000
0001
0000
,
2000
0000
0200
3300
,
0001
0100
1000
1000
,
0010
0000
1000
0000
0100
0000
0010
0100
,
0000
1000
0001
0000
0100
0000
0010
0000
,
0010
0000
1000
0000
0100
0000
1000
0001
,
0000
0001
1000
0000
0100
0000
1000
0000
,
0010
0000
0100
0000
0001
0000
0100
0010
,
0000
0010
0100
0000
0001
0000
1000
0000
,
0020
0000
0200
0330
,
0001
0001
1000
0001
,
0010
0000
0001
0000
1000
0000
0010
0100
,
0000
0001
1000
0000
0001
0000
0100
0000
,
2000
0000
3010
0000
,
0002
0000
0013
0000
,
2000
3000
0002
0003
,
0100
0001
1000
0100
,
2000
0000
3010
0000
,
0002
0000
0013
0000
,
0200
0300
0020
0030
,
0001
1000
0001
0100
,
0010
0000
1001
0000
0100
0000
0001
1000
,
0000
1000
0001
0000
0100
0000
1001
0000
,
0001
0000
0101
0000
1000
0000
1000
0100
,
0000
0001
0100
0000
1000
0000
0100
0000
,
0020
0030
0200
0300
,
0010
0100
0010
0100
,
0010
1000
0100
1000
,
1000
0100
0001
0100
,
1000
0000
1100
0000
0001
0000
0001
0100
,
0000
1000
0100
0000
0001
0000
0100
0000
,
0010
0000
1001
0000
0100
0000
1000
0001
,
0000
0001
1000
0000
0100
0000
1001
0000
,
2000
0000
0002
3003
,
1000
0100
0001
0100
,
2002
0000
0000
3003
;

//---------------dance-single - ----------------
#NOTES:
     dance-single:
     :
     Hard:
     13:
     0.697764,0.782374,0.226652,0.090661,0.050997,431.000000,411.000000,20.000000,8.000000,0.000000,0.000000,0.697764,0.782374,0.226652,0.090661,0.050997,431.000000,411.000000,20.000000,8.000000,0.000000,0.000000:
0000
0000
0000
0000
,
0000
0000
0000
0000
,
0000
0000
0000
0000
,
0000
0000
0000
0000
,
0000
0000
0000
0000
,
1100
0000
0001
0000
1000
0010
0001
0010
,
0000
0010
0000
0100
0001
1000
0100
0000
,
1000
0000
1000
0000
0001
0100
0010
1000
,
0100
1000
0010
0100
0000
0010
1000
0000
,
1000
0100
1000
0100
0000
1000
0001
0100
,
0000
0010
0100
0001
0100
0010
0100
0010
,
0000
0100
0010
0100
0000
0010
0100
0001
,
0000
0010
0001
0010
0001
1000
0010
1000
,
0000
1000
0010
0100
0000
0010
0100
0001
,
0000
0010
0001
0010
0100
1000
0010
1000
,
0000
0010
0100
0010
0000
1000
0001
0010
,
0001
0010
0001
0010
0001
0100
0010
1000
,
0000
0100
0010
0100
0000
1000
0100
1000
,
0100
1000
0010
1000
0100
1000
0010
0100
,
0001
0010
0001
0010
0000
0001
1000
0100
,
1000
0001
0100
0010
0100
0001
0100
0001
,
0000
1000
0010
1000
0000
0010
0100
0001
,
1000
0100
1000
0100
1000
0010
0100
0010
,
1000
0010
0100
0001
0010
0000
0010
0001
,
0000
1000
0010
1000
0100
0000
1001
0000
,
0010
1000
0001
1000
0100
1000
0010
0100
,
0010
1000
0010
0100
0001
0100
0010
1000
,
0001
0100
0010
0100
0001
0010
0100
1000
,
0100
1000
0100
1000
0010
0100
0001
0100
,
0010
0100
0010
1000
0001
0100
0010
1000
,
0001
0100
0010
1000
0010
1000
0100
0010
,
0001
0010
0100
0010
0001
0010
0100
1000
,
0000
0100
1000
0001
0100
0001
0100
0010
,
1000
0100
1000
0001
0100
0001
0100
0010
,
0100
0010
1000
0100
1000
0001
0100
0010
,
1000
0100
0010
0100
1000
0010
0100
0010
,
1000
0001
0100
0001
0010
0001
1000
0000
,
1001
0000
0110
0000
0010
0100
0001
0010
,
0001
1000
0100
0010
0001
0010
0001
0100
,
0010
0100
0001
0000
0001
0100
0010
0000
,
0002
0100
0100
0100
0103
0000
1001
0000
,
1000
0000
0002
0000
1000
1000
0003
0200
,
0001
0000
0000
0000
0000
0301
0000
1000
,
1100
0000
1000
0100
1000
1000
0000
0100
,
0010
0100
1000
0010
0100
0010
1000
0100
,
1000
0000
0001
0010
0100
0010
0000
0001
,
0100
0010
0100
0001
0100
0000
1100
0000
,
1001
0000
0100
0000
0001
0100
0000
0001
,
0100
0001
0100
0001
0100
0000
0101
0000
,
1001
0000
1010
0000
0100
0001
0100
0000
,
0001
0100
0001
0000
1000
0100
1000
0100
,
0000
1000
0010
0000
0100
0001
0100
0001
,
0000
1000
0100
0000
0101
0000
1100
0000
,
0010
0000
0100
0000
0100
0001
0010
0001
,
0000
0001
0100
0010
1000
0010
0100
0000
,
1100
0101
1100
0101
,
0010
1000
0100
0001
0010
0000
1001
0000
,
0010
0000
1000
0010
1000
0000
0010
0000
0100
0000
0001
0000
0010
0000
0001
0000
,
0100
0000
0010
1000
0100
0000
1000
0000
0100
0000
0010
0000
0001
0000
0010
0000
,
0001
0000
0100
0010
1000
0000
0100
0000
1000
0000
0001
0000
0010
0000
0001
0000
,
0100
0000
0010
1000
0010
0000
1000
0100
1000
0000
0010
0100
0001
0000
1000
0000
,
0001
0000
0010
0001
0010
0000
0001
0000
1000
0000
0001
0000
0100
0000
0010
0000
,
1000
0000
0001
1000
0100
0000
0010
0000
0100
0000
1000
0000
0001
0000
0010
0000
,
0001
0000
0100
0010
1000
0000
0001
0000
0100
0000
0010
0000
1000
0000
0001
0000
,
2001
3002
2003
3001
,
0220
0000
0000
0330
;
