#TITLE:CAN'T TAKE MY EYES OFF YOU (70's Remix);
#SUBTITLE:;
#ARTIST:BEATBOX;
#TITLETRANSLIT:;
#SUBTITLETRANSLIT:;
#ARTISTTRANSLIT:;
#GENRE:;
#CREDIT:;
#BANNER:CAN'T TAKE MY EYES OFF YOU (70's Remix).png;
#BACKGROUND:CAN'T TAKE MY EYES OFF YOU (70's Remix)-bg.png;
#LYRICSPATH:CAN'T TAKE MY EYES OFF YOU (70's Remix).lrc;
#CDTITLE:;
#MUSIC:CAN'T TAKE MY EYES OFF YOU (70's Remix).mp3;
#OFFSET:-5.425000;
#SAMPLESTART:14.793000;
#SAMPLELENGTH:14.000000;
#SELECTABLE:YES;
#BPMS:0.000000=134.009995
;
#STOPS:
;
#BGCHANGES:;
#KEYSOUNDS:;
#ATTACKS:;

//---------------dance-single - ----------------
#NOTES:
     dance-single:
     :
     Easy:
     4:
     0.223813,0.257464,0.076691,0.000000,0.000000,143.000000,136.000000,7.000000,0.000000,0.000000,0.000000,0.223813,0.257464,0.076691,0.000000,0.000000,143.000000,136.000000,7.000000,0.000000,0.000000,0.000000:
0000
0000
0000
0000
,
1000
0000
0001
0000
,
1000
0000
0001
0000
,
1000
0000
0001
0000
,
1001
0010
0010
0010
,
0001
0000
1000
0000
,
0100
1001
0000
0100
,
0000
0001
0000
0100
,
0000
1000
0000
0100
,
0000
0001
0000
0100
,
0000
1000
0000
0100
,
0000
0001
0000
0100
,
0000
1001
0000
0100
,
0010
0010
0010
0010
,
1001
0100
0001
0100
,
1000
0100
1000
0100
,
0001
0100
0001
0100
,
1000
0100
1000
0100
,
0010
1000
0100
0001
,
0100
1000
0010
0001
,
1000
0100
0001
0100
,
1000
0001
0100
0100
,
1000
0000
0001
0000
,
1000
0000
0001
0000
,
1000
0000
0001
0000
,
1000
0000
0001
0000
,
1000
1000
0001
0001
,
1000
1000
0001
0001
,
1000
0001
1000
0001
,
0010
0000
0000
0000
,
1000
0000
0100
0000
,
0001
0000
0100
0000
,
1000
0000
0100
0000
,
0001
0000
0100
0000
,
1000
0000
0100
0000
,
0001
0000
0100
0000
,
1000
0000
0100
0000
,
0010
0010
0010
0010
,
1001
0100
1000
0100
,
0001
0100
0001
0100
,
1000
0100
1000
0100
,
0001
0100
0001
0100
,
1000
0100
1000
0100
,
0001
0100
0001
0100
,
1000
0100
1000
0100
,
1001
0100
0000
0100
,
0000
0100
0000
0100
,
1001
0000
0000
0000
;

//---------------dance-single - ----------------
#NOTES:
     dance-single:
     :
     Medium:
     7:
     0.322417,0.334703,0.021912,0.000000,0.000000,206.000000,204.000000,2.000000,0.000000,0.000000,0.000000,0.322417,0.334703,0.021912,0.000000,0.000000,206.000000,204.000000,2.000000,0.000000,0.000000,0.000000:
0000
0000
0000
0000
,
0010
0100
0010
1000
,
0100
0010
0001
0100
,
0010
0100
0010
1000
,
0100
0001
0100
1000
,
0010
0001
1000
0100
,
1001
0100
0100
0100
,
0001
0100
0010
1000
,
0100
0001
0100
1000
,
0010
0100
0001
0010
,
1000
0001
0100
0001
,
0100
0010
1000
0100
,
0001
0100
1000
0100
,
1000
0100
0010
0001
,
0010
0000
0001
0000
1000
0100
0001
0000
,
0100
0000
1000
0000
0001
0100
1000
0000
,
0100
0000
0001
0000
1000
0100
0001
0000
,
0100
0000
1000
0000
0001
0100
1000
0000
,
0100
0001
1000
0100
,
0001
0100
1000
1000
,
0001
0001
1000
1000
,
0001
0100
1000
0001
,
1000
1000
0100
0100
,
0001
0001
0100
0100
,
0010
0000
0010
0000
1000
0100
0001
0000
,
0100
0000
1000
0000
0001
0100
1000
0000
,
0100
0000
0001
0000
1000
0100
0001
0000
,
0100
0000
1000
0000
0010
0001
1000
0000
,
0001
0000
0100
0000
1000
0100
0001
0000
,
1000
0001
1000
0100
,
0001
0100
1000
0100
,
0001
0000
1000
0000
0001
0100
1000
0000
,
0100
0000
0001
0000
1000
0100
0001
0000
,
0100
0000
1000
0000
0001
0100
1000
0000
,
0100
0000
0001
0000
1000
0100
0001
0000
,
0001
0100
1000
0000
1000
0100
0001
0000
,
1000
0100
0001
0000
0001
0100
1000
0000
,
1000
0100
0001
0000
0001
0100
1000
0000
,
0001
0100
0001
0100
,
0010
0001
0010
0001
,
0010
1000
0010
1000
,
1000
0100
1000
0100
,
0001
0100
0001
0100
,
0010
1000
0010
1000
,
0010
0001
0010
0001
,
1000
0100
1000
0100
,
0001
0100
0001
0100
,
1001
0000
0000
0000
;

//---------------dance-single - ----------------
#NOTES:
     dance-single:
     :
     Hard:
     11:
     0.508667,0.463435,0.054780,0.000000,0.000000,325.000000,320.000000,5.000000,0.000000,0.000000,0.000000,0.508667,0.463435,0.054780,0.000000,0.000000,325.000000,320.000000,5.000000,0.000000,0.000000,0.000000:
0000
0000
0000
0000
,
0010
1000
0100
0000
0010
0001
0100
0000
,
0010
1000
0100
0001
0100
1000
0010
0000
,
1000
0100
0001
0000
0100
1000
0010
0000
,
1000
0100
0001
0100
1000
0010
0001
0010
,
1000
0100
0001
0100
1000
0010
0001
0010
,
0001
0000
0010
0000
1000
0100
0001
0000
,
0010
0000
0001
0000
0100
0000
0001
0100
,
1000
0000
0010
0000
1000
0100
0001
0000
,
1000
0000
0001
0000
0010
1000
0100
0000
,
1000
0000
0001
0000
1000
0100
0001
0000
,
0010
0010
0001
0001
1000
1000
0001
0001
,
0100
0001
0100
0001
1000
0100
1000
0100
,
0010
0001
1000
0100
0010
1000
0001
0100
,
1001
0000
0100
0001
0100
0100
0100
0000
,
1001
0000
0100
1000
0010
0010
0010
0000
,
1001
0000
0010
1000
0100
0100
0100
0000
,
1001
0000
0100
0001
0010
0010
0010
0000
,
1000
0100
0001
0100
1000
0010
0001
0010
,
1000
0100
0001
0100
1000
0010
0010
0000
,
0010
1000
0100
0001
0100
1000
0010
1000
,
0100
0001
0100
1000
0010
0001
0010
1000
,
0001
0001
1000
1000
,
0010
1000
0100
0010
0001
0100
0010
1000
,
0100
0010
0001
0100
0010
1000
0100
0001
,
0100
1000
0010
0001
0010
1000
0100
0001
,
0100
1000
0100
0010
0001
0100
0010
1000
,
0100
0010
0001
0100
0010
1000
0010
0001
,
0010
1000
0100
0010
0001
0100
0010
1000
,
0100
0010
0001
0100
1000
0100
0001
0010
,
1000
0010
0001
1000
0100
0010
0001
0100
,
0010
1000
0100
0010
0001
0100
0010
1000
,
0001
0010
0001
0100
0010
1000
0100
0001
,
0100
1000
0001
0100
0010
1000
0001
0010
,
0001
0100
1000
0100
0001
0010
1000
0010
,
0001
1000
0100
0010
0001
0100
0010
1000
,
0100
0001
0100
1000
0010
0001
0010
1000
,
0001
0010
1000
0010
0001
1000
0001
1000
,
0001
0001
1000
1000
,
0001
0100
1000
0100
0001
0010
1000
0010
,
0001
0001
1000
1000
,
0001
0010
1000
0010
0001
0100
1000
0100
,
0001
0001
1000
1000
,
0100
1000
0010
0001
0010
1000
0100
0001
,
1000
1000
0001
0001
,
0010
0001
0100
1000
0100
0001
0010
0001
,
1000
0100
0001
0100
1000
0100
0001
0100
,
1001
0000
0000
0000
;

//---------------dance-single - ----------------
#NOTES:
     dance-single:
     :
     Beginner:
     2:
     0.156513,0.181183,0.010956,0.032868,0.000000,100.000000,99.000000,1.000000,3.000000,0.000000,0.000000,0.156513,0.181183,0.010956,0.032868,0.000000,100.000000,99.000000,1.000000,3.000000,0.000000,0.000000:
0000
0000
0000
0000
,
1000
0000
0001
0000
,
1000
0000
0001
0000
,
1000
0000
0001
0000
,
1000
0000
0010
0000
,
0001
0000
0100
0100
,
0100
0100
0000
0100
,
0000
0001
0000
0100
,
0000
1000
0000
0100
,
0000
0001
0000
0100
,
0000
1000
0000
0100
,
0000
0001
0000
0100
,
0000
0001
0000
0010
,
0010
0010
0010
0010
,
0010
0000
0001
0000
,
1000
0000
1000
0000
,
0001
0000
0001
0000
,
1000
0000
1000
0000
,
0010
0000
0100
0000
,
0100
0000
0010
0000
,
1000
0000
0001
0000
,
1000
0000
0100
0000
,
1000
0000
0001
0000
,
1000
0000
0001
0000
,
1000
0000
0001
0000
,
1000
0000
0001
0000
,
1000
1000
0000
0000
,
1000
1000
0000
0000
,
1000
0000
1000
0000
,
0010
0000
0000
0000
,
1000
0000
0100
0000
,
0001
0000
0100
0000
,
1000
0000
0100
0000
,
0001
0000
0100
0000
,
1000
0000
0100
0000
,
0001
0000
0100
0000
,
1000
0000
0100
0000
,
0010
0010
0010
0000
,
1001
0000
1000
0000
,
0001
0000
0001
0000
,
1000
0000
1000
0000
,
0001
0000
0001
0000
,
1000
0000
1000
0000
,
0001
0000
0001
0000
,
1000
0000
1000
0000
,
0100
0100
0100
0100
,
0200
0300
0200
0300
,
0200
0300
0000
0000
;

//---------------dance-single - ----------------
#NOTES:
     dance-single:
     :
     Challenge:
     13:
     0.552491,0.695152,0.328677,0.087647,0.175294,353.000000,323.000000,30.000000,8.000000,0.000000,0.000000,0.552491,0.695152,0.328677,0.087647,0.175294,353.000000,323.000000,30.000000,8.000000,0.000000,0.000000:
0000
0000
0000
0000
,
1000
1000
1000
1000
1000
1000
1000
0000
,
0001
0001
0001
0001
0001
0001
0001
0000
,
0100
0100
0010
0010
0100
0010
0100
0010
,
1000
0100
1000
0000
1000
0100
1000
0000
1000
0100
1000
0000
1000
0100
1000
0000
,
0001
0100
0001
0000
0001
0100
0001
0000
0001
0100
0001
0100
0001
0100
0001
0100
,
0001
0100
0010
1000
0100
1000
0010
0100
,
0001
0100
0001
0010
0100
1000
0100
0010
,
0001
1000
0001
0100
0010
0100
0010
1000
,
0100
1000
0010
0100
0001
0100
0010
1000
,
0100
1000
0010
1000
0100
1000
0010
1000
,
0100
1000
0010
0100
0001
0100
0010
0100
,
0001
0100
0010
0100
0001
0010
0100
1000
,
0100
0010
0001
0010
0100
0010
0001
0100
,
0010
1000
0010
0100
0010
1000
0100
1000
,
0010
0100
0001
0100
0001
0010
0100
0010
,
1000
0010
0100
0010
0001
0010
0100
0010
,
1000
0010
0001
0100
0010
1000
0100
1000
,
0010
0100
0010
1000
0010
0100
0001
0100
,
0010
1000
0010
0100
0001
0100
0010
1000
,
0100
1000
0100
1000
0001
1000
0001
1000
,
0001
0000
1000
0000
0001
1000
0001
1000
0001
1000
0001
1000
0010
0100
0010
0100
,
0001
1100
0010
1100
,
0010
0101
0010
1100
,
1000
0101
0010
1100
,
0100
1100
0001
0011
,
0001
0101
0010
1010
,
1000
1100
0100
0110
,
0001
0011
0001
1001
,
1000
1001
0010
0110
,
1000
1100
0001
0011
,
0010
1001
0100
1001
,
0010
1100
1000
0101
,
0010
0110
1000
1100
,
0001
0101
0010
1100
,
0010
0101
0010
0011
,
1000
0101
1000
0101
,
1000
0100
0010
0001
1000
0100
0010
0001
1000
0001
0100
0010
1000
0001
0100
0010
,
2000
3100
0002
0013
,
1000
0100
0001
0010
1000
0100
0001
0010
,
2000
3100
0002
0013
,
1000
0100
0001
0010
1000
0100
0001
0010
,
2000
3100
0002
0013
,
1000
0100
0001
0010
1000
0100
0001
0010
,
2000
3100
0002
0013
,
1000
0100
1000
0100
0010
0001
0010
0001
,
1000
0100
1000
0100
0010
0001
0010
0001
1000
0100
1000
0100
0010
0001
0010
0001
,
0100
0000
0000
0000
;
