#VERSION:0.83;
#TITLE:Brutality in a suit;
#SUBTITLE:;
#ARTIST:Misery;
#TITLETRANSLIT:;
#SUBTITLETRANSLIT:;
#ARTISTTRANSLIT:;
#GENRE:;
#ORIGIN:;
#CREDIT:;
#BANNER:;
#BACKGROUND:;
#PREVIEWVID:;
#JACKET:;
#CDIMAGE:;
#DISCIMAGE:;
#LYRICSPATH:;
#CDTITLE:;
#MUSIC:Brutality In A Suit.ogg;
#OFFSET:-0.560000;
#SAMPLESTART:56.139942;
#SAMPLELENGTH:15.000000;
#SELECTABLE:YES;
#BPMS:0.000=177.000;
#STOPS:;
#DELAYS:;
#WARPS:;
#TIMESIGNATURES:0.000=4=4;
#TICKCOUNTS:0.000=4;
#COMBOS:0.000=1;
#SPEEDS:0.000=1.000=0.000=0;
#SCROLLS:0.000=1.000;
#FAKES:;
#LABELS:0.000=Song Start;
#BGCHANGES:;
#KEYSOUNDS:;
#ATTACKS:
;

//---------------dance-single - ----------------
#NOTEDATA:;
#CHARTNAME:;
#STEPSTYPE:dance-single;
#DESCRIPTION:;
#CHARTSTYLE:;
#DIFFICULTY:Hard;
#METER:14;
#RADARVALUES:0.640335,0.722387,0.083392,0.031272,0.135513,430.000000,422.000000,8.000000,3.000000,0.000000,0.000000,0.000000,0.000000,0.000000,0.640335,0.722387,0.083392,0.031272,0.135513,430.000000,422.000000,8.000000,3.000000,0.000000,0.000000,0.000000,0.000000,0.000000;
#CREDIT:;
#NOTES:
// measure 0
0000
0000
0000
0000
,  // measure 1
0000
0000
0000
0000
,  // measure 2
0000
0000
0000
0000
,  // measure 3
0000
0000
0000
0000
,  // measure 4
0000
0000
0000
0000
,  // measure 5
0000
0000
0000
0000
,  // measure 6
0000
0000
0000
0000
,  // measure 7
0000
0000
0000
0000
,  // measure 8
0000
0000
0000
0000
,  // measure 9
1000
0001
1000
0000
0100
0100
0100
0000
,  // measure 10
0001
1000
0001
0000
0100
0100
0100
0000
,  // measure 11
0001
1000
0100
1000
0001
0100
0001
0100
,  // measure 12
0001
1000
0100
1000
0100
1000
0010
0100
,  // measure 13
0001
0000
0101
0000
0001
0100
0001
0000
,  // measure 14
1000
0000
1100
0000
1000
0100
1000
0000
,  // measure 15
1000
0100
0010
0100
1000
0100
0010
0100
,  // measure 16
1000
0010
0100
0010
1000
0010
0100
0010
,  // measure 17
1000
0001
1000
0100
1000
0001
1000
1000
,  // measure 18
0001
1000
0001
0100
0001
1000
0001
0001
,  // measure 19
1000
1000
1000
0000
0100
0100
0100
0000
,  // measure 20
0001
0001
0001
0000
0010
0010
0010
0000
,  // measure 21
1000
0001
1000
0001
0100
0001
0100
0001
,  // measure 22
1000
0001
1000
0001
1000
0010
1000
0010
,  // measure 23
1000
0100
0010
0001
1000
0100
0010
0001
,  // measure 24
1000
0100
0010
0001
1000
0100
0010
0001
,  // measure 25
1000
0001
1000
0000
0100
0100
0100
0000
,  // measure 26
0001
1000
0001
0000
0100
0100
0100
0000
,  // measure 27
0001
1000
0100
1000
0001
0100
0001
0100
,  // measure 28
0001
1000
0100
1000
0100
1000
0010
0100
,  // measure 29
0001
0001
0001
0000
1000
1000
1000
0000
,  // measure 30
0001
0001
0001
0000
1000
1000
1000
0000
,  // measure 31
0001
0100
0001
1001
1000
0100
1000
1001
,  // measure 32
0001
0100
0001
1001
1000
0100
1000
1001
,  // measure 33
1000
0000
0000
1000
0001
0000
0100
0000
0001
0000
0010
0000
0100
0000
1000
0000
,  // measure 34
0001
0000
0000
0001
0010
0000
0001
0000
0100
0000
0010
0000
1000
0000
0100
0000
,  // measure 35
1000
0000
0000
1000
0010
0000
0100
0000
0010
0000
0001
0000
0010
0000
0100
0000
,  // measure 36
0001
0001
1000
0100
0010
0100
1000
0010
,  // measure 37
1000
0000
0000
1000
0001
0000
1000
0000
0010
0000
0100
0000
0001
0000
1000
0000
,  // measure 38
0001
0000
0000
0001
0100
0000
0010
0000
0100
0000
0001
0000
0100
0000
0010
0000
,  // measure 39
1000
0000
0000
1000
0100
0000
0100
0000
1000
0000
1000
0000
0001
0000
0001
0000
,  // measure 40
0100
0010
0100
0100
0100
0100
0100
0000
,  // measure 41
1001
0000
0000
1000
0100
0000
1000
0000
0100
0000
1000
0000
0010
0000
0100
0000
,  // measure 42
0001
0100
0010
0100
0001
1000
0100
1000
,  // measure 43
0010
0100
0001
1000
0100
1000
0100
1000
,  // measure 44
0010
0100
0010
0100
0001
0100
0001
0100
,  // measure 45
0010
0000
1000
0100
1000
0000
0001
0000
0001
0000
1000
0000
0010
0000
0100
0000
,  // measure 46
0001
0000
1000
0001
0100
0000
0100
0000
0001
0000
1000
0000
0100
0000
0010
0000
,  // measure 47
0100
0000
1000
0001
0010
0000
0100
0000
0010
0000
0001
0000
0100
0000
0100
0000
,  // measure 48
0001
0000
0010
0001
1000
0000
1000
0000
0001
0000
0100
0000
0001
0000
0100
0000
,  // measure 49
0010
0000
1000
0001
0100
0000
0100
0000
0001
0000
0100
0000
0010
0000
1000
0000
,  // measure 50
0001
0000
1000
0001
0100
0000
0010
0000
0010
0000
1000
0000
0001
0000
0100
0000
,  // measure 51
0010
0000
0100
0001
0100
0000
0100
0000
0010
0000
1000
0000
0100
0000
0010
0000
,  // measure 52
0001
0000
1000
0010
1000
0000
0010
0000
0100
0000
0000
0100
0000
0000
0100
0000
,  // measure 53
0100
0000
0001
0010
0001
0000
0100
0000
0010
0000
1000
0000
0100
0000
1000
0000
,  // measure 54
0010
0000
0100
0001
0100
0000
0001
0000
0010
0000
0001
0000
1000
0000
0100
0000
,  // measure 55
0010
0000
0100
1000
0100
0000
1000
0000
0100
0000
0010
0000
0100
0000
1000
0000
,  // measure 56
0001
0000
0100
0001
1000
0000
0100
0000
0010
0000
0000
0010
0000
0000
0010
0000
,  // measure 57
0010
0000
0001
0100
0001
0000
0100
0000
0010
0000
1000
0000
0100
0000
0010
0000
,  // measure 58
0100
0000
1000
0100
1000
0000
0010
0000
0100
0000
0001
0000
0010
0000
0001
0000
,  // measure 59
0100
0000
0010
1000
0010
0000
1000
0000
0100
0000
0010
0000
0001
0000
1000
0000
,  // measure 60
0001
0000
1000
0000
0001
0000
1000
0000
0100
0000
0000
0100
0000
0000
0100
0000
,  // measure 61
1000
0001
1000
0002
0000
0100
0000
0100
,  // measure 62
0000
0000
0000
1000
0000
1000
0000
1000
,  // measure 63
0000
0000
0000
0010
0000
0010
0000
0010
,  // measure 64
0000
0000
0000
0000
0000
0000
1003
0000
0010
0000
0000
0100
0000
0000
0001
0000
,  // measure 65
2002
0000
0000
0000
,  // measure 66
3003
0000
0000
0000
;

//---------------dance-single - ----------------
#NOTEDATA:;
#CHARTNAME:;
#STEPSTYPE:dance-single;
#DESCRIPTION:;
#CHARTSTYLE:;
#DIFFICULTY:Medium;
#METER:11;
#RADARVALUES:0.466104,0.550390,0.250177,0.271025,0.020848,313.000000,289.000000,24.000000,26.000000,0.000000,0.000000,0.000000,0.000000,0.000000,0.466104,0.550390,0.250177,0.271025,0.020848,313.000000,289.000000,24.000000,26.000000,0.000000,0.000000,0.000000,0.000000,0.000000;
#CREDIT:;
#NOTES:
0000
0000
0000
0000
,
0000
0000
0000
0000
,
0000
0000
0000
0000
,
0000
0000
0000
0000
,
0000
0000
0000
0000
,
0000
0000
0000
0000
,
0000
0000
0000
0000
,
0000
0000
0000
0000
,
0000
0000
0000
0000
,
1000
1000
1000
0000
1001
0000
0100
0000
,
0001
0001
0001
0000
1001
0000
0100
0000
,
1000
1000
1000
0000
1001
0000
0100
0000
,
0001
0001
0001
0000
1001
0000
0100
0000
,
0001
0000
0101
0000
0001
0100
0001
0000
,
1000
0000
1100
0000
1000
0100
1000
0000
,
1000
0000
1010
0000
1000
0010
1000
0000
,
0001
0000
0011
0000
0001
0010
0001
0000
,
1000
0001
1000
0000
1000
0000
1000
1000
,
0001
1000
0001
0000
0001
0000
0001
0001
,
1000
0100
0001
0010
,
1000
0100
0001
0010
,
1000
0001
1000
0000
0001
0100
0001
0000
,
1000
0100
1000
0000
0001
0010
0001
0000
,
1000
0110
1000
0110
,
0001
0110
0001
0110
,
1000
0001
1000
0000
0100
0100
0100
0000
,
0001
1000
0001
0000
0100
0100
0100
0000
,
0001
1000
0100
0000
1000
0100
1000
0000
,
0001
1000
0100
0000
1000
0010
0100
0000
,
0001
1001
1000
1001
,
0001
1001
1000
1001
,
0001
0100
0001
0000
1000
0100
1000
0000
,
0001
0100
0001
0000
1000
0100
1000
0000
,
2000
0000
3001
0100
0001
0010
0100
1000
,
0002
0000
0013
0001
0100
0010
1000
0100
,
2000
0000
3010
0100
0010
0001
0010
0100
,
0001
0001
1000
0100
0010
0100
1000
0010
,
2000
0000
3001
1000
0010
0100
0001
1000
,
0002
0000
0103
0010
0100
0001
0100
0010
,
2000
0000
3100
1000
0100
1000
0001
0100
,
0001
0100
0010
0100
0010
0100
0010
0000
,
2001
0000
3100
0000
0100
1000
0010
0000
,
0201
0000
0310
0000
0001
1000
0100
0000
,
0210
0000
1300
0000
0001
1000
0100
0000
,
2010
0000
3010
0000
1000
0100
1000
0000
,
1002
0000
0103
0000
0001
1000
0010
0000
,
2001
0000
3100
0000
0001
1000
0100
0000
,
0100
1000
0010
0000
0010
1000
0100
0000
,
1000
0010
1000
0000
0001
0100
0001
0000
,
1002
0000
0000
0100
0000
0100
0000
0103
,
0200
0000
0000
0010
0000
0010
0000
0310
,
2000
0000
0000
0001
0000
0001
0000
3001
,
0120
0000
0000
0000
0000
0000
0100
0000
0100
0000
0000
0100
0000
0000
0130
0000
,
0200
0000
0000
0001
0000
0010
0000
0310
,
2000
0000
0000
0001
0000
0100
0000
3001
,
0002
0000
0000
1000
0000
0010
0000
1003
,
2000
0000
0000
0000
0000
0000
0010
0000
0010
0000
0000
0010
0000
0000
3010
0000
,
0020
0000
0000
0100
0000
1000
0000
0130
,
0200
0000
0000
0010
0000
0001
0000
0301
,
0002
0000
0000
1000
0000
0010
0000
1003
,
2000
0000
0000
0000
0000
0000
0100
0000
0100
0000
0000
0100
0000
0000
3100
0000
,
0002
0000
0000
0100
0000
0100
0000
0100
,
0000
0000
0000
1000
0000
1000
0000
1000
,
0000
0000
0000
0010
0000
0010
0000
0010
,
0000
0000
0000
0000
0000
0000
1000
0000
1000
0000
0000
1000
0000
0000
1000
0000
,
2000
0000
0000
0000
,
3003
0000
0000
0000
;

//---------------dance-single - ----------------
#NOTEDATA:;
#CHARTNAME:;
#STEPSTYPE:dance-single;
#DESCRIPTION:;
#CHARTSTYLE:;
#DIFFICULTY:Easy;
#METER:9;
#RADARVALUES:0.384201,0.481591,0.218905,0.291873,0.000000,258.000000,237.000000,21.000000,28.000000,0.000000,0.000000,0.000000,0.000000,0.000000,0.384201,0.481591,0.218905,0.291873,0.000000,258.000000,237.000000,21.000000,28.000000,0.000000,0.000000,0.000000,0.000000,0.000000;
#CREDIT:;
#NOTES:
0000
0000
0000
0000
,
0000
0000
0000
0000
,
0000
0000
0000
0000
,
0000
0000
0000
0000
,
0000
0000
0000
0000
,
0000
0000
0000
0000
,
0000
0000
0000
0000
,
0000
0000
0000
0000
,
0000
0000
0000
0000
,
1000
1000
1001
0100
,
0001
0001
1001
0100
,
1000
1000
1001
0100
,
0001
0001
1001
0100
,
0001
0101
0001
0001
,
1000
1100
1000
1000
,
1000
1010
1000
1000
,
0001
0011
0001
0001
,
1000
0001
1000
0000
1000
0000
1000
0000
,
0001
1000
0001
0000
0001
0000
0001
0000
,
1000
0100
0001
0010
,
1000
0100
0001
0010
,
1000
0001
1000
0000
0001
0000
0001
0000
,
1000
0100
1000
0000
0001
0000
0001
0000
,
2002
0000
0000
0000
,
0000
0000
0000
3003
,
1000
0001
1000
0000
0100
0000
0100
0000
,
0001
1000
0001
0000
0100
0000
0100
0000
,
0001
1000
0100
0000
1000
0000
1000
0000
,
0001
1000
0100
0000
1000
0000
0100
0000
,
0001
1001
1000
1001
,
0001
1001
1000
1001
,
0001
0000
0001
0000
1000
0100
1000
0000
,
0001
0000
0001
0000
1000
0100
1000
0000
,
2000
0000
3001
0000
0001
0010
0100
1000
,
0002
0000
0013
0000
0100
0010
1000
0100
,
2000
0000
3010
0000
0010
1000
0010
0100
,
0001
0000
1000
0100
0010
0000
1000
0000
,
2000
0000
3001
0000
0010
0100
0001
1000
,
0002
0000
0103
0000
0100
0001
0100
0010
,
2000
0000
3100
0000
0100
1000
0001
0100
,
0001
0000
1000
0100
0010
0000
0001
0000
,
2001
0000
3100
0000
0100
1000
0010
0000
,
0201
0000
0310
0000
0001
1000
0100
0000
,
0210
0000
1300
0000
0001
1000
0100
0000
,
2010
0000
3010
0000
1000
0100
1000
0000
,
1002
0000
0103
0000
0001
1000
0010
0000
,
2001
0000
3100
0000
0001
1000
0100
0000
,
0100
1000
0010
0000
0010
1000
0100
0000
,
1000
0010
1000
0000
0001
0100
0001
0000
,
1002
0000
0000
0100
0000
0100
0000
0103
,
0200
0000
0000
0010
0000
0010
0000
0310
,
2000
0000
0000
0001
0000
0001
0000
3001
,
0120
0000
0000
0000
0000
0000
0000
0030
,
0200
0000
0000
0001
0000
0010
0000
0310
,
2000
0000
0000
0001
0000
0100
0000
3001
,
0002
0000
0000
1000
0000
0010
0000
1003
,
2000
0000
0000
0000
0000
0000
0000
3000
,
0020
0000
0000
0100
0000
1000
0000
0130
,
0200
0000
0000
0010
0000
0001
0000
0301
,
0002
0000
0000
1000
0000
0010
0000
1003
,
2000
0000
0000
0000
0000
0000
0000
3000
,
0002
0000
0000
0100
0000
0100
0000
0100
,
0000
0000
0000
1000
0000
1000
0000
1000
,
0000
0000
0000
0010
0000
0010
0000
0010
,
0000
0000
0000
0000
,
2000
0000
0000
0000
,
3003
0000
0000
0000
;

//---------------dance-single - ----------------
#NOTEDATA:;
#CHARTNAME:;
#STEPSTYPE:dance-single;
#DESCRIPTION:;
#CHARTSTYLE:;
#DIFFICULTY:Beginner;
#METER:4;
#RADARVALUES:0.174231,0.240796,0.010424,0.052120,0.000000,117.000000,116.000000,1.000000,5.000000,0.000000,0.000000,0.000000,0.000000,0.000000,0.174231,0.240796,0.010424,0.052120,0.000000,117.000000,116.000000,1.000000,5.000000,0.000000,0.000000,0.000000,0.000000,0.000000;
#CREDIT:;
#NOTES:
0000
0000
0000
0000
,
0000
0000
0000
0000
,
0000
0000
0000
0000
,
0000
0000
0000
0000
,
0000
0000
0000
0000
,
0000
0000
0000
0000
,
0000
0000
0000
0000
,
0000
0000
0000
0000
,
0000
0000
0000
0000
,
1000
1000
0000
0000
,
0001
0001
0000
0000
,
1000
1000
0000
0000
,
0001
0001
0000
0000
,
0001
0001
0000
0000
,
1000
1000
0000
0000
,
1000
1000
0000
0000
,
0001
0001
0000
0000
,
1000
1000
0000
0000
,
0001
0001
0000
0000
,
1000
0000
0001
0000
,
1000
0000
0001
0000
,
1000
1000
0000
0000
,
0001
0001
0000
0000
,
2000
0000
0000
0000
,
0000
0000
0000
3000
,
1000
1000
0000
0000
,
0001
0001
0000
0000
,
0001
0000
1000
0000
,
0001
0000
1000
0000
,
0001
0001
0000
0000
,
0010
0010
0000
0000
,
0100
0100
0000
0000
,
1000
1000
0000
0000
,
0001
0001
0000
0000
,
0010
0010
0000
0000
,
1000
1000
0000
0000
,
0100
0100
0000
0000
,
0010
0010
0000
0000
,
0001
0001
0000
0000
,
0100
0100
0000
0000
,
0010
0010
0000
0000
,
1000
1000
0000
0000
,
0010
0010
0000
0000
,
1000
1000
0000
0000
,
0010
0010
0000
0000
,
1000
0000
0001
0000
,
1000
0000
0001
0000
,
0100
0000
0010
0000
,
1000
0000
0001
0000
,
1000
1000
1000
0000
,
1000
1000
1000
0000
,
0001
0001
0001
0000
,
0001
0001
0001
0000
,
0100
0100
0100
0000
,
0010
0010
0010
0000
,
0100
0100
0100
0000
,
0010
0010
0010
0000
,
1000
1000
1000
0000
,
0001
0001
0001
0000
,
1000
1000
1000
0000
,
0001
0001
0001
0000
,
2000
0000
0000
0000
,
3000
0000
0000
0000
,
0002
0000
0000
0000
,
0003
0000
0000
0000
,
2002
0000
0000
0000
,
3003
0000
0000
0000
;
