#VERSION:0.83;
#TITLE:Brand New World;
#SUBTITLE:;
#ARTIST:GTS featuring Melodie Sexton;
#TITLETRANSLIT:;
#SUBTITLETRANSLIT:;
#ARTISTTRANSLIT:;
#GENRE:;
#ORIGIN:;
#CREDIT:;
#BANNER:;
#BACKGROUND:;
#PREVIEWVID:;
#JACKET:Brand New World-jacket.jpg;
#CDIMAGE:;
#DISCIMAGE:;
#LYRICSPATH:;
#CDTITLE:;
#MUSIC:Brand New World.ogg;
#OFFSET:-0.458000;
#SAMPLESTART:47.153877;
#SAMPLELENGTH:12.000000;
#SELECTABLE:YES;
#BPMS:0.000=128.491;
#STOPS:;
#DELAYS:;
#WARPS:;
#TIMESIGNATURES:0.000=4=4;
#TICKCOUNTS:0.000=4;
#COMBOS:0.000=1;
#SPEEDS:0.000=1.000=0.000=0;
#SCROLLS:0.000=1.000;
#FAKES:;
#LABELS:0.000=Song Start;
#BGCHANGES:;
#KEYSOUNDS:;
#ATTACKS:
;

//---------------dance-single - ----------------
#NOTEDATA:;
#CHARTNAME:;
#STEPSTYPE:dance-single;
#DESCRIPTION:;
#CHARTSTYLE:;
#DIFFICULTY:Hard;
#METER:14;
#RADARVALUES:0.587882,0.736667,0.927184,0.228621,0.463592,324.000000,251.000000,73.000000,18.000000,0.000000,0.000000,0.000000,0.000000,0.000000,0.587882,0.736667,0.927184,0.228621,0.463592,324.000000,251.000000,73.000000,18.000000,0.000000,0.000000,0.000000,0.000000,0.000000;
#CREDIT:;
#NOTES:
0000
0000
0000
0000
,
0101
0000
0000
0000
1010
0000
0000
0100
0000
0100
0001
0000
0000
0000
1001
0000
,
1000
0010
0000
0000
1001
0000
0000
0110
0000
0100
0010
0000
0000
0000
0011
0000
,
1100
0000
0000
0000
0101
0000
0000
1100
0000
1000
0001
0000
0000
0000
1010
0000
,
1000
0001
0000
0000
1001
0000
0000
0101
0000
0100
0001
0000
0000
0000
0101
0000
,
1100
0000
0000
0000
1001
0000
0000
1010
0000
1000
0010
0000
0000
0000
1010
0000
,
1000
0010
0000
0000
1001
0000
0000
0101
0000
0001
0010
0000
0000
0000
1001
0000
,
1010
0000
0000
0000
0110
0000
0000
1001
0000
0100
0010
0000
0000
0000
0110
0000
,
1000
0001
0000
0000
1001
0000
1000
0001
0000
0001
1000
0000
1000
0001
1000
0001
,
2000
0000
0000
0000
3020
0000
0000
0230
,
0302
0000
0000
0000
2000
0000
3000
0203
,
0320
0000
0030
0000
0002
0000
0003
2000
,
3200
0300
0002
0003
,
0200
1000
0010
1300
,
0002
1000
0010
1003
,
2000
0000
3020
0000
,
0030
0000
0000
0000
1001
0000
0000
1010
0000
1000
0001
0000
0000
0000
0000
0000
,
0020
0100
1000
0100
,
2030
0001
0100
0100
,
3020
0100
0001
1000
,
0031
0000
0000
0000
0101
0000
0000
0101
0000
0100
0001
0000
0000
0000
0000
0000
,
0011
0000
0000
0100
0001
0000
1000
0000
0001
0000
0000
0100
0010
0000
0100
0000
,
0101
0000
0000
0001
0100
0000
0000
0000
0101
0000
0000
0100
0001
0000
0000
0000
,
0011
0000
0000
0001
0010
0000
0001
0000
1000
0000
0000
0001
0100
0000
0010
0000
,
1000
0000
0000
0000
0101
0000
0000
0100
0001
0100
0001
0000
0101
0000
0000
0000
,
1100
0000
0000
1000
0010
0000
1000
0000
0100
0000
0000
1000
0010
0000
0100
0000
,
1010
0000
0000
0100
0010
0000
1000
0000
0101
0000
0000
1000
0010
0000
0100
0000
,
1010
0000
0100
0001
0000
0000
0110
0000
0101
0000
0000
0100
0010
0000
1000
0000
,
1000
0001
1000
0000
1000
0000
1000
0001
1000
0001
1000
0000
1000
0100
1000
0001
,
1000
0000
0000
0000
0001
0000
0000
1000
0000
1000
0100
0000
0000
0000
0100
0000
,
0100
0010
0000
0000
0101
0000
0000
1100
0000
1000
0001
0000
0000
0000
1001
0000
,
1010
0000
0000
0000
1001
0000
0000
1010
0000
0100
0010
0000
0000
0000
0110
0000
,
1000
0010
0000
0000
1001
0000
0000
1010
0000
1000
0100
0000
0000
0000
1001
0000
,
0101
0000
0000
0000
0110
0000
0000
1001
0000
0100
0010
0000
0000
0000
0101
0000
,
1000
0010
0000
0000
0101
0000
0000
0011
0000
0100
0010
0000
0000
0000
1001
0000
,
0110
0000
0000
0000
1001
0000
0000
0101
0000
0001
0100
0000
0000
0000
0011
0000
,
0001
0010
0000
0000
1001
0000
1000
0010
1000
0010
1000
0000
0010
1000
0010
1000
,
0010
0000
0000
0000
1001
0000
1000
0010
1000
0000
0101
0000
0001
0000
1000
0010
,
0100
0000
0011
0000
0101
0000
1000
0010
0100
0000
0101
0000
1010
0000
0100
0001
,
0100
0000
0101
0000
1010
0000
0010
0100
0010
0000
1010
0000
0110
0000
0100
0001
,
0010
0000
0000
0000
;

//---------------dance-single - ----------------
#NOTEDATA:;
#CHARTNAME:;
#STEPSTYPE:dance-single;
#DESCRIPTION:;
#CHARTSTYLE:;
#DIFFICULTY:Medium;
#METER:10;
#RADARVALUES:0.373777,0.457242,0.177816,0.025402,0.095259,206.000000,192.000000,14.000000,2.000000,0.000000,0.000000,0.000000,0.000000,0.000000,0.373777,0.457242,0.177816,0.025402,0.095259,206.000000,192.000000,14.000000,2.000000,0.000000,0.000000,0.000000,0.000000,0.000000;
#CREDIT:;
#NOTES:
0000
0000
0000
0000
,
1000
0000
0000
0000
1000
0000
0000
1000
0000
0000
1000
0000
0000
0000
1000
0000
,
0001
0000
0000
0000
0001
0000
0000
0001
0000
0000
0001
0000
0000
0000
0001
0000
,
1000
0000
0000
0000
1000
0000
0000
1000
0000
0000
1000
0000
0000
0000
1000
0000
,
0001
0000
0000
0000
0001
0000
0000
0001
0000
0000
0001
0000
0000
0000
0001
0000
,
0100
0000
0000
0000
0100
0000
0000
0100
0000
0000
0100
0000
0000
0000
0100
0000
,
0010
0000
0000
0000
0010
0000
0000
0010
0000
0000
0010
0000
0000
0000
0010
0000
,
0100
0000
0000
0000
0100
0000
0000
0100
0000
0000
0100
0000
0000
0000
0100
0000
,
0010
0000
0000
0000
0010
0000
0000
0010
0000
0000
0010
0000
0000
0000
0010
0000
,
1001
1000
0100
1000
,
0010
0100
0001
0100
,
0010
1000
0001
1000
,
0100
0010
0001
0100
,
0010
1000
0100
1000
,
0001
0100
0001
1000
,
0010
0100
0001
0100
,
0010
1000
0100
1000
,
0001
0100
0010
0100
,
0010
1000
0100
1000
,
0001
0100
0010
0100
,
0001
1000
0100
1000
,
1001
0000
0100
0100
0100
0000
0001
0001
,
0001
0000
1000
1000
1000
0000
0010
0010
,
0010
0000
1000
1000
1000
0000
0100
0100
,
0100
0000
1000
1000
1000
0000
0001
0001
,
0001
0100
0001
0000
1000
0100
1000
0000
,
0001
0100
0001
0000
1000
0100
1000
0000
,
0001
0100
0001
0100
0010
0100
0010
0100
,
0010
1000
0010
1000
0100
1000
0100
1000
,
1001
0000
0000
0000
1000
0000
0000
1000
0000
0000
1000
0000
0000
0000
0010
0000
,
0100
0000
0000
0000
0001
0000
0000
0001
0000
0000
0001
0000
0000
0000
0100
0000
,
0010
0000
0000
0000
1000
0000
0000
1000
0000
0000
1000
0000
0000
0000
0010
0000
,
0100
0000
0000
0000
0001
0000
0000
0100
0000
0000
0010
0000
0000
0000
1000
0000
,
1100
0011
1100
0011
,
0101
1010
0101
1010
,
2001
0100
0100
3100
,
1002
0100
0100
0103
,
0100
0000
0000
0000
0001
0000
0000
0100
0000
0000
0001
0000
0000
0000
0100
0000
,
0010
0000
0000
0000
1000
0000
0000
0100
0000
0000
0010
0000
0000
0000
0001
0000
,
0100
0000
0000
0000
0010
0000
0000
1000
0000
0000
0100
0000
0000
0000
1000
0000
,
1001
0000
0000
0000
;

//---------------dance-single - ----------------
#NOTEDATA:;
#CHARTNAME:;
#STEPSTYPE:dance-single;
#DESCRIPTION:;
#CHARTSTYLE:;
#DIFFICULTY:Easy;
#METER:5;
#RADARVALUES:0.317529,0.355632,0.228621,0.088908,0.000000,175.000000,157.000000,18.000000,7.000000,0.000000,0.000000,0.000000,0.000000,0.000000,0.317529,0.355632,0.228621,0.088908,0.000000,175.000000,157.000000,18.000000,7.000000,0.000000,0.000000,0.000000,0.000000,0.000000;
#CREDIT:;
#NOTES:
0000
0000
0000
0000
,
1000
1001
1000
1000
,
0001
1001
0001
0001
,
1000
1001
1000
0001
,
0001
1001
0001
1000
,
0100
0110
0100
0100
,
0010
0110
0010
0010
,
0100
0110
0100
0010
,
0010
0110
0010
0100
,
1001
1000
0100
1000
,
0010
0100
0001
0100
,
0010
1000
0001
1000
,
0100
0010
0001
0100
,
0010
1000
0100
1000
,
0001
0100
0001
1000
,
0010
0100
0001
0100
,
0010
1000
0100
1000
,
0001
0100
0010
0100
,
0010
1000
0100
1000
,
0001
0100
0010
0100
,
0001
1000
0100
1000
,
1001
0100
0100
0001
,
0001
1000
1000
0010
,
0010
1000
1000
0100
,
0100
1000
1000
0001
,
0001
0001
1000
1000
,
0001
0001
1000
1000
,
0001
0001
0010
0010
,
2010
0010
0100
0100
,
3001
0200
0001
0301
,
0100
0020
1000
1030
,
0010
2000
0001
3001
,
0100
0002
0010
0013
,
1000
0101
1000
0101
,
0001
1100
0001
1100
,
2001
0100
0100
3100
,
1002
0100
0100
0103
,
0100
0001
0010
1000
,
0100
0001
0010
1000
,
0100
0001
0010
1000
,
1001
0000
0000
0000
;

//---------------dance-single - ----------------
#NOTEDATA:;
#CHARTNAME:;
#STEPSTYPE:dance-single;
#DESCRIPTION:;
#CHARTSTYLE:;
#DIFFICULTY:Beginner;
#METER:2;
#RADARVALUES:0.163301,0.177816,0.012701,0.000000,0.000000,90.000000,89.000000,1.000000,0.000000,0.000000,0.000000,0.000000,0.000000,0.000000,0.163301,0.177816,0.012701,0.000000,0.000000,90.000000,89.000000,1.000000,0.000000,0.000000,0.000000,0.000000,0.000000,0.000000;
#CREDIT:;
#NOTES:
// measure 0
0000
0000
0000
0000
,  // measure 1
1000
1000
1000
0000
,  // measure 2
0001
0001
0001
0000
,  // measure 3
1000
1000
1000
0000
,  // measure 4
0001
0001
0001
0000
,  // measure 5
0100
0100
0100
0000
,  // measure 6
0010
0010
0010
0000
,  // measure 7
0100
0100
0100
0000
,  // measure 8
0010
0010
0010
0000
,  // measure 9
1000
0000
0100
0000
,  // measure 10
0010
0000
0001
0000
,  // measure 11
0010
0000
1000
0000
,  // measure 12
0100
0000
1000
0000
,  // measure 13
0010
0000
0100
0000
,  // measure 14
0001
0000
0001
0000
,  // measure 15
0010
0000
0001
0000
,  // measure 16
0010
0000
0100
0000
,  // measure 17
1000
0000
1000
0000
,  // measure 18
0010
0000
0100
0000
,  // measure 19
1000
0000
0010
0000
,  // measure 20
1000
0000
0100
0000
,  // measure 21
0001
0000
0100
0000
,  // measure 22
0001
0000
1000
0000
,  // measure 23
0010
0000
1000
0000
,  // measure 24
0100
0000
1000
0000
,  // measure 25
0001
0001
0000
0000
,  // measure 26
0001
0001
0000
0000
,  // measure 27
1000
1000
0000
0000
,  // measure 28
1000
1000
1000
1000
,  // measure 29
1000
0000
0001
0000
,  // measure 30
0100
0000
1000
0000
,  // measure 31
0010
0000
0001
0000
,  // measure 32
0100
0000
0010
0000
,  // measure 33
1000
0000
1000
0000
,  // measure 34
0001
0000
0001
0000
,  // measure 35
0001
0000
0100
0000
,  // measure 36
1000
0000
0100
0000
,  // measure 37
0100
0000
0010
0000
,  // measure 38
0100
0000
0010
0000
,  // measure 39
0100
0000
0010
0000
,  // measure 40
1001
0000
0000
0000
;
