#VERSION:0.83;
#TITLE:Body (Airvox Vocal Mix);
#SUBTITLE:;
#ARTIST:Tomoki Hirata;
#TITLETRANSLIT:;
#SUBTITLETRANSLIT:;
#ARTISTTRANSLIT:;
#GENRE:;
#ORIGIN:;
#CREDIT:;
#BANNER:;
#BACKGROUND:Body Airvox-bg.jpg;
#PREVIEWVID:;
#JACKET:Body Airvox-jacket.jpg;
#CDIMAGE:;
#DISCIMAGE:;
#LYRICSPATH:;
#CDTITLE:;
#MUSIC:Body Airvox.ogg;
#OFFSET:-0.634000;
#SAMPLESTART:29.272606;
#SAMPLELENGTH:12.000000;
#SELECTABLE:YES;
#BPMS:0.000=133.873;
#STOPS:;
#DELAYS:;
#WARPS:;
#TIMESIGNATURES:0.000=4=4;
#TICKCOUNTS:0.000=4;
#COMBOS:0.000=1;
#SPEEDS:0.000=1.000=0.000=0;
#SCROLLS:0.000=1.000;
#FAKES:;
#LABELS:0.000=Song Start;
#BGCHANGES:;
#KEYSOUNDS:;
#ATTACKS:
;

//---------------dance-single - ----------------
#NOTEDATA:;
#CHARTNAME:;
#STEPSTYPE:dance-single;
#DESCRIPTION:;
#CHARTSTYLE:;
#DIFFICULTY:Beginner;
#METER:1;
#RADARVALUES:0.054095,0.122149,0.012215,0.000000,0.000000,31.000000,30.000000,1.000000,0.000000,0.000000,0.000000,0.000000,0.000000,0.000000,0.054095,0.122149,0.012215,0.000000,0.000000,31.000000,30.000000,1.000000,0.000000,0.000000,0.000000,0.000000,0.000000,0.000000;
#CREDIT:;
#NOTES:
// measure 0
0000
0000
0000
0000
,  // measure 1
0000
0000
0000
0000
,  // measure 2
0000
0000
0000
0000
,  // measure 3
0000
0000
0000
0000
,  // measure 4
0000
0000
0000
0000
,  // measure 5
0000
0000
0000
0000
,  // measure 6
0000
0000
0000
0000
,  // measure 7
0000
0000
0000
0000
,  // measure 8
1000
0000
0000
0000
,  // measure 9
0000
0000
0000
0000
,  // measure 10
0100
0000
0000
0000
,  // measure 11
0000
0000
0000
0000
,  // measure 12
1000
0000
0000
0000
,  // measure 13
0000
0000
0000
0000
,  // measure 14
0001
0000
0000
0000
,  // measure 15
0000
0000
0000
0000
,  // measure 16
0100
0000
0000
0000
,  // measure 17
0100
0000
0000
0001
,  // measure 18
1000
0000
0000
0000
,  // measure 19
0000
0000
0000
0000
,  // measure 20
0010
0000
0000
0000
,  // measure 21
0100
0000
0000
1000
,  // measure 22
0001
0000
0000
0000
,  // measure 23
0100
0000
0000
0000
,  // measure 24
0010
0000
0000
0000
,  // measure 25
1000
0000
0000
0100
,  // measure 26
0010
0000
0000
0000
,  // measure 27
1000
0000
0000
0000
,  // measure 28
0001
0000
0000
0000
,  // measure 29
0100
0000
0000
1000
,  // measure 30
0001
0000
0000
0000
,  // measure 31
0001
0000
0000
0000
,  // measure 32
0100
0000
0000
0000
,  // measure 33
0000
0000
0000
0000
,  // measure 34
1000
0000
0000
0000
,  // measure 35
0000
0000
0000
0001
,  // measure 36
0000
0000
0000
0000
,  // measure 37
0000
0000
0000
0000
,  // measure 38
1000
0000
0001
0000
,  // measure 39
1000
0000
0000
0000
,  // measure 40
1001
0000
0000
0000
;

//---------------dance-single - ----------------
#NOTEDATA:;
#CHARTNAME:;
#STEPSTYPE:dance-single;
#DESCRIPTION:;
#CHARTSTYLE:;
#DIFFICULTY:Easy;
#METER:5;
#RADARVALUES:0.226849,0.268729,0.085505,0.000000,0.000000,130.000000,123.000000,7.000000,0.000000,0.000000,0.000000,0.000000,0.000000,0.000000,0.226849,0.268729,0.085505,0.000000,0.000000,130.000000,123.000000,7.000000,0.000000,0.000000,0.000000,0.000000,0.000000,0.000000;
#CREDIT:;
#NOTES:
// measure 0
0000
0000
0000
0000
,  // measure 1
0000
0000
0000
0000
,  // measure 2
0000
0000
0000
0000
,  // measure 3
0000
0000
0000
0000
,  // measure 4
0000
0000
0000
0000
,  // measure 5
0000
0000
0000
0000
,  // measure 6
0000
0000
0000
0000
,  // measure 7
0000
0000
0000
0000
,  // measure 8
0110
1000
0001
1000
,  // measure 9
0100
1000
0010
0100
,  // measure 10
1010
0001
0100
0001
,  // measure 11
0001
1000
0100
1000
,  // measure 12
0001
1000
0100
0010
,  // measure 13
0001
0100
0010
1000
,  // measure 14
1000
0001
0100
0010
,  // measure 15
0010
1000
0100
1000
,  // measure 16
1000
0001
0000
0000
1000
0001
0000
0000
,  // measure 17
1000
1000
0001
0001
,  // measure 18
0001
1000
0001
0100
,  // measure 19
0010
1000
0100
1000
,  // measure 20
1000
0001
0000
0000
1000
0001
0000
0000
,  // measure 21
1000
0100
1000
1000
,  // measure 22
0001
0100
0001
0001
,  // measure 23
0001
0100
0010
1000
,  // measure 24
0100
0010
0000
0000
0100
0010
0000
0000
,  // measure 25
0100
0010
0100
0001
,  // measure 26
0001
1000
0010
1000
,  // measure 27
0001
0001
0001
0001
,  // measure 28
0100
0010
0000
0000
0100
0010
0000
0000
,  // measure 29
1000
0010
0100
0001
,  // measure 30
0001
1000
0001
0001
,  // measure 31
0001
1000
0100
1000
,  // measure 32
1001
0100
0100
0100
,  // measure 33
0100
0100
0100
0100
,  // measure 34
1001
0010
0010
0010
,  // measure 35
0010
0010
0010
0010
,  // measure 36
1001
0000
0000
0000
,  // measure 37
0110
0000
0000
0000
,  // measure 38
1000
0001
1000
0001
,  // measure 39
0100
0010
0100
0001
,  // measure 40
1001
0000
0000
0000
;

//---------------dance-single - ----------------
#NOTEDATA:;
#CHARTNAME:;
#STEPSTYPE:dance-single;
#DESCRIPTION:;
#CHARTSTYLE:;
#DIFFICULTY:Medium;
#METER:5;
#RADARVALUES:0.242554,0.282165,0.000000,0.000000,0.000000,139.000000,139.000000,0.000000,0.000000,0.000000,0.000000,0.000000,0.000000,0.000000,0.242554,0.282165,0.000000,0.000000,0.000000,139.000000,139.000000,0.000000,0.000000,0.000000,0.000000,0.000000,0.000000,0.000000;
#CREDIT:;
#NOTES:
// measure 0
0000
0000
0000
0000
,  // measure 1
0000
0000
0000
0000
,  // measure 2
0000
0000
0000
0000
,  // measure 3
0000
0000
0000
0000
,  // measure 4
0000
0000
0000
0000
,  // measure 5
0000
0000
0000
0000
,  // measure 6
0000
0000
0000
0000
,  // measure 7
0000
0000
0000
0000
,  // measure 8
0100
1000
0001
0100
,  // measure 9
1000
0100
0001
1000
,  // measure 10
0100
0010
1000
0100
,  // measure 11
0010
1000
0001
1000
,  // measure 12
0001
0100
0010
1000
,  // measure 13
0001
0100
0010
0001
,  // measure 14
1000
0100
0010
0001
,  // measure 15
0100
0010
1000
0001
,  // measure 16
1000
0001
0000
0000
0001
1000
0000
0000
,  // measure 17
1000
0100
1000
0000
0100
1000
0100
0000
,  // measure 18
1000
0000
0000
0010
,  // measure 19
0000
0100
0000
0001
,  // measure 20
0100
0001
0000
0000
0001
0100
0000
0000
,  // measure 21
0001
0100
0001
0000
0100
0001
0100
0000
,  // measure 22
0001
0000
1000
0000
,  // measure 23
0100
1000
0001
0100
,  // measure 24
0100
0010
0000
0000
0010
0100
0000
0000
,  // measure 25
0100
0001
0100
0000
0001
0100
0001
0000
,  // measure 26
0100
0000
0010
0000
,  // measure 27
1000
0100
1000
0001
,  // measure 28
0100
0001
0000
0000
0001
0100
0000
0000
,  // measure 29
0001
1000
0001
0000
1000
0001
1000
0000
,  // measure 30
1000
0001
1000
0100
,  // measure 31
1000
0001
1000
0010
,  // measure 32
1000
1000
1000
1000
,  // measure 33
0010
0100
0010
1000
,  // measure 34
1000
0001
0100
0010
,  // measure 35
1000
0001
0100
0010
,  // measure 36
0100
0001
0001
1000
,  // measure 37
0001
0010
0001
0001
,  // measure 38
1000
0001
1000
0010
,  // measure 39
1000
0001
1000
0001
,  // measure 40
0100
0010
0000
0000
0010
0100
0000
0000
,  // measure 41
0100
0001
1000
0000
0100
0010
0100
0000
,  // measure 42
1000
0000
0000
0000
;

//---------------dance-single - ----------------
#NOTEDATA:;
#CHARTNAME:;
#STEPSTYPE:dance-single;
#DESCRIPTION:;
#CHARTSTYLE:;
#DIFFICULTY:Hard;
#METER:10;
#RADARVALUES:0.362958,0.436073,0.012215,0.000000,0.219869,208.000000,207.000000,1.000000,0.000000,0.000000,0.000000,0.000000,0.000000,0.000000,0.362958,0.436073,0.012215,0.000000,0.219869,208.000000,207.000000,1.000000,0.000000,0.000000,0.000000,0.000000,0.000000,0.000000;
#CREDIT:;
#NOTES:
0000
0000
0000
0000
,
0000
0000
0000
0000
,
0000
0000
0000
0000
,
0000
0000
0000
0000
,
0000
0000
0000
0000
,
0000
0000
0000
0000
,
0000
0000
0000
0000
,
0000
0000
0000
0000
,
1000
0010
1000
0000
0001
0000
0010
0000
,
1000
0000
0001
0000
0100
0001
0100
0000
,
0100
0010
1000
0000
0100
0001
1000
0000
,
0001
0100
1000
0000
0100
0001
1000
0000
,
1000
0100
1000
0000
0100
0000
0001
0000
,
1000
0010
0100
0001
,
0000
1000
0001
1000
0000
0100
0010
0100
,
0000
1000
0001
1000
0000
0000
0000
0000
,
1000
0000
0000
0010
0000
0000
0000
0000
1000
0000
0000
0100
0000
0000
0100
0000
,
0001
0000
1000
0001
0000
0100
0000
0001
0000
0100
0001
0000
0100
0000
0010
0000
,
1000
0100
0001
1000
,
0100
0000
0000
0001
0000
0100
0001
0000
1000
0000
0010
0000
0100
0000
0001
0000
,
0100
0000
0000
0010
0000
0000
0000
0000
0010
0000
0000
0100
0000
0000
1000
0000
,
0001
0000
0100
0001
0000
0100
0000
0010
0000
0100
0010
0000
0100
0000
0001
0000
,
0100
0000
0000
0001
0010
0000
0000
0100
0001
0000
0000
0000
1000
0000
0000
0000
,
0100
0000
0000
0010
0000
0000
0100
0000
0001
0000
1000
0000
0001
0000
0100
0000
,
0001
0000
0000
0100
0000
0000
0000
0000
0100
0000
0000
0010
0000
0000
0100
0000
,
0001
0000
0100
0001
0000
0100
0000
0001
0000
0100
0010
0000
1000
0000
0010
0000
,
0100
0000
0001
0000
0100
0000
0000
0001
0100
0000
0000
0000
0001
0000
0000
0000
,
0100
0000
0000
0001
0000
0100
0001
0000
0100
0000
0001
0000
1000
0000
0010
0000
,
0100
0000
0000
0001
0000
0000
0000
0000
0001
0000
0100
0000
0000
0000
0100
0000
,
0001
0000
0100
0001
0000
0100
0000
0010
0000
1000
0010
0000
0100
0000
0001
0000
,
0100
0000
0000
0001
1000
0000
0000
0001
0100
0000
0000
0000
0001
0000
0000
0000
,
0100
0000
0000
0001
0000
0000
1000
0000
0001
0000
0100
0000
0001
0000
1000
0000
,
0000
0100
1000
1000
0000
0000
1000
0000
,
0000
0100
0001
0100
,
0100
0010
0100
0000
0100
0001
0100
0000
,
0100
0010
1000
0100
0100
0010
1000
0000
,
0100
0001
0010
0001
0100
0010
1000
0001
,
0100
0001
0010
0001
0100
0001
1000
0010
,
0100
0001
0010
0001
0100
0001
1000
0010
,
0100
1000
0001
0010
,
0100
0000
0000
0001
0000
0000
0000
0000
0001
0000
0000
0100
0000
0000
0000
0000
,
1000
0001
1000
0000
0001
1000
0001
0000
,
1001
0000
0000
0000
;
