#TITLE:Believe Again;
#SUBTITLE:;
#ARTIST:Emotion of Sound featuring miryam;
#TITLETRANSLIT:;
#SUBTITLETRANSLIT:;
#ARTISTTRANSLIT:;
#GENRE:;
#CREDIT:;
#BANNER:Believe Again.png;
#BACKGROUND:Believe Again-bg.png;
#LYRICSPATH:;
#CDTITLE:;
#MUSIC:Believe Again.ogg;
#OFFSET:-1.656000;
#SAMPLESTART:39.419975;
#SAMPLELENGTH:15.000000;
#SELECTABLE:YES;
#BPMS:0.000000=130.160004
,80.000000=130.119995
;
#STOPS:
;
#BGCHANGES:;
#KEYSOUNDS:;
#ATTACKS:;

//---------------dance-single - ----------------
#NOTES:
     dance-single:
     :
     Hard:
     10:
     0.404257,0.446899,0.360156,0.000000,0.205804,220.000000,192.000000,28.000000,0.000000,0.000000,0.000000,0.404257,0.446899,0.360156,0.000000,0.205804,220.000000,192.000000,28.000000,0.000000,0.000000,0.000000:
// measure 0
0000
0000
0000
0000
,  // measure 1
0000
0000
0000
0000
,  // measure 2
0000
0000
0000
0000
,  // measure 3
0000
0000
0000
0000
,  // measure 4
0110
0000
1000
1000
1000
0000
0000
0000
,  // measure 5
0110
0000
0001
0001
0001
0000
0000
0000
,  // measure 6
0110
0000
1000
0010
0100
0000
0000
0000
,  // measure 7
0110
0000
0001
0100
0010
0000
0000
0000
,  // measure 8
1001
0000
0100
0010
0100
0100
0100
0000
,  // measure 9
1001
0000
0010
0100
0010
0010
0010
0000
,  // measure 10
1001
0000
1000
0100
0010
0100
1000
0000
,  // measure 11
1001
0000
0001
0010
0100
0010
0001
0000
,  // measure 12
1001
0000
0100
0000
0001
0001
0001
0000
,  // measure 13
1001
0000
0100
0000
1000
1000
1000
0000
,  // measure 14
1001
0000
1000
0000
0010
0010
0010
0000
,  // measure 15
1001
0000
0001
0000
0100
0100
0100
0000
,  // measure 16
1001
0100
1001
0100
,  // measure 17
1001
0010
1001
0010
,  // measure 18
0110
0001
0110
1000
,  // measure 19
0110
0001
0110
1000
,  // measure 20
1001
0000
0000
0100
0000
0000
0100
0000
0100
0000
0000
0000
0000
0000
0000
0000
,  // measure 21
1000
0000
0000
1000
0001
0000
0000
0001
1000
0000
0000
1000
0001
0000
0000
0001
,  // measure 22
0100
0000
0000
0100
0010
0000
0000
0010
0100
0000
0000
0100
0010
0000
0000
0010
,  // measure 23
1000
0000
0000
1000
0100
0000
0000
0100
0010
0000
0000
0010
0001
0000
0000
0001
,  // measure 24
0100
0000
0000
0100
0010
0000
0000
0010
1000
0000
0001
0000
1000
0000
0001
0000
,  // measure 25
0100
1001
0100
0100
,  // measure 26
0100
1001
0010
0010
,  // measure 27
0010
1001
0100
0001
,  // measure 28
0010
1000
0100
0001
,  // measure 29
0010
0000
0000
0010
1000
0000
0000
1000
0001
0000
0000
0001
0100
0000
0000
0100
,  // measure 30
0010
0000
0000
0010
1000
0000
0000
1000
0100
0000
0000
0100
0010
0000
0000
0010
,  // measure 31
0001
0000
0000
0001
1000
0000
0000
1000
0010
0000
0000
0010
0100
0000
0000
0100
,  // measure 32
0010
0000
0000
0010
1000
0000
0000
1000
0100
0000
1000
0000
0001
0000
0100
0000
,  // measure 33
0100
1001
0100
0100
,  // measure 34
0100
1001
0010
0010
,  // measure 35
0010
1001
0100
0001
,  // measure 36
0010
1000
0100
0001
,  // measure 37
0010
0010
0010
0000
,  // measure 38
0100
0100
0100
0000
,  // measure 39
1000
0000
0000
1000
0000
0000
1000
0000
1000
0000
0000
0000
0000
0000
0000
0000
,  // measure 40
0001
0000
0000
0001
0000
0000
0001
0000
0001
0000
0000
0100
0000
0000
1001
0000
;

//---------------dance-single - ----------------
#NOTES:
     dance-single:
     :
     Medium:
     8:
     0.330756,0.393117,0.257255,0.000000,0.006431,180.000000,160.000000,20.000000,0.000000,0.000000,0.000000,0.330756,0.393117,0.257255,0.000000,0.006431,180.000000,160.000000,20.000000,0.000000,0.000000,0.000000:
0000
0000
0000
0000
,
0000
0000
0000
0000
,
0000
0000
0000
0000
,
0000
0000
0000
0000
,
1000
0001
1001
0000
,
0001
0000
1000
0001
1001
0000
0000
0000
,
0010
0100
0110
0000
,
0100
0000
0010
0100
0110
0000
0000
0000
,
1000
0100
1001
0000
,
0010
1000
0001
0000
1001
0000
0000
0000
,
0010
1000
0110
0000
,
0001
0100
0001
0000
1001
0000
0000
0000
,
0001
0000
0100
0001
0100
0000
0001
0000
,
1000
0000
1000
0010
0100
0000
1000
0000
,
0001
0000
0001
1000
0010
0000
0100
0000
,
0001
0000
1000
0000
0001
0100
1000
0000
,
0100
0001
0100
0101
,
0010
1000
0010
0000
1001
0000
1001
0000
,
0010
0000
0001
0000
0010
1000
0010
0000
,
1000
0000
0100
0000
0001
0100
0001
0000
,
0100
0000
0000
0010
0000
0000
0100
0000
0010
0000
0000
0000
0000
0000
0000
0000
,
1000
0001
0100
0000
0010
1000
0001
0000
,
1000
1000
0010
0000
0001
0001
0100
0000
,
0001
1000
0001
1000
,
0001
0100
0010
1000
,
1000
1001
0000
1001
,
0001
1001
0000
1001
,
1000
0000
0100
0000
0010
0000
0001
0010
,
0100
1000
0100
0010
0001
0000
1001
0000
,
1000
0001
0100
0000
0010
1000
0001
0000
,
1000
1000
0010
0000
0001
0001
0100
0000
,
0001
1000
0001
1000
,
0001
0100
0010
1000
,
1000
1001
0000
1001
,
0001
1001
0000
1001
,
1000
0000
0100
0000
0010
0000
0001
0010
,
0100
1000
0100
0010
0001
0000
0000
0000
,
1000
1000
1000
1000
,
0001
0001
0001
0001
,
0010
1000
0100
0001
,
0010
0001
0100
1000
;

//---------------dance-single - ----------------
#NOTES:
     dance-single:
     :
     Beginner:
     2:
     0.150678,0.205804,0.064314,0.000000,0.000000,82.000000,77.000000,5.000000,0.000000,0.000000,0.000000,0.150678,0.205804,0.064314,0.000000,0.000000,82.000000,77.000000,5.000000,0.000000,0.000000,0.000000:
0000
0000
0000
0000
,
0000
0000
0000
0000
,
0000
0000
0000
0000
,
0000
0000
0000
0000
,
0010
0000
0010
0000
,
0010
0000
0010
0000
,
0100
0000
0100
0000
,
0100
0000
0100
0000
,
0001
0000
0001
0000
,
0001
0000
0001
0000
,
1000
0000
1000
0000
,
1000
0000
1000
0000
,
0001
0001
0001
0000
,
1000
1000
1000
0000
,
1000
1000
1000
0000
,
0001
0001
0001
0000
,
0010
0010
0010
0000
,
0100
0100
0100
0000
,
0001
0001
0001
0000
,
1000
1000
1000
0000
,
1001
0000
0000
0000
,
1000
1000
0000
0000
,
0100
0100
0000
0000
,
0010
0010
0000
0000
,
0001
0001
0000
0000
,
0001
0001
0000
0000
,
0010
0010
0000
0000
,
0100
0100
0000
0000
,
1000
1000
0000
0000
,
1000
1000
0000
0000
,
0001
0001
0000
0000
,
0010
0010
0000
0000
,
0100
0100
0000
0000
,
1000
1000
0000
0000
,
0010
0010
0000
0000
,
0100
0100
0000
0000
,
0001
0001
0000
0000
,
1001
0000
0000
0000
,
1001
0000
0000
0000
,
1001
0000
0000
0000
,
1001
0000
0000
0000
;

//---------------dance-single - ----------------
#NOTES:
     dance-single:
     :
     Easy:
     4:
     0.216829,0.340702,0.090039,0.000000,0.000000,118.000000,111.000000,7.000000,0.000000,0.000000,0.000000,0.216829,0.340702,0.090039,0.000000,0.000000,118.000000,111.000000,7.000000,0.000000,0.000000,0.000000:
0000
0000
0000
0000
,
0000
0000
0000
0000
,
0000
0000
0000
0000
,
0000
0000
0000
0000
,
1000
1000
1000
0000
,
0001
0001
0001
0000
,
1000
1000
1000
0000
,
0001
0001
0001
0000
,
0100
0100
0100
0000
,
0010
0010
0010
0000
,
0100
0100
0100
0000
,
0010
0010
0010
0000
,
0001
0100
0001
0100
,
0010
1000
0010
1000
,
0010
0100
0001
1000
,
0010
1000
0001
0100
,
0010
1001
0100
0110
,
0010
1001
0100
0110
,
0001
0001
0100
0100
,
0010
0010
1000
1000
,
1001
0000
0000
0000
,
1000
1000
1000
0000
,
0001
0001
0001
0000
,
0010
0010
0010
0000
,
0100
0100
0100
0000
,
1000
0000
0001
0000
,
0010
0000
0100
0000
,
0001
0100
1000
0010
,
0001
0010
1000
0100
,
0001
0001
0001
0000
,
1000
1000
1000
0000
,
0100
0100
0100
0000
,
0010
0010
0010
0000
,
0001
0001
0000
0000
,
1000
1000
0000
0000
,
0001
0000
1000
0000
,
0010
0000
0100
0000
,
1001
0000
0000
0000
,
1001
0000
0000
0000
,
0100
0100
0100
0100
,
0010
0010
0010
0010
;
