#TITLE:Believe Again (HYPER MEGA MIX);
#SUBTITLE:;
#ARTIST:dj nagureo featuring miryam;
#TITLETRANSLIT:;
#SUBTITLETRANSLIT:;
#ARTISTTRANSLIT:;
#GENRE:;
#CREDIT:;
#BANNER:Believe Again (HYPER MEGA MIX).png;
#BACKGROUND:Believe Again (HYPER MEGA MIX)-bg.png;
#LYRICSPATH:;
#CDTITLE:;
#MUSIC:Believe again (HYPER MEGA MIX).mp3;
#OFFSET:-0.496000;
#SAMPLESTART:38.179970;
#SAMPLELENGTH:15.000000;
#SELECTABLE:YES;
#BPMS:0.000000=130.160004
,80.000000=130.119995
,116.000000=130.220001
;
#STOPS:
;
#BGCHANGES:;
#KEYSOUNDS:;
#ATTACKS:;

//---------------dance-single - ----------------
#NOTES:
     dance-single:
     :
     Challenge:
     11:
     0.461132,0.463856,0.441317,0.000000,0.245877,256.000000,221.000000,35.000000,0.000000,0.000000,0.000000,0.461132,0.463856,0.441317,0.000000,0.245877,256.000000,221.000000,35.000000,0.000000,0.000000,0.000000:
// measure 0
0000
0000
0000
0000
,  // measure 1
0000
0000
0000
0000
,  // measure 2
0000
0000
0000
0000
,  // measure 3
0000
0000
0000
0000
,  // measure 4
1000
0000
0100
0000
1000
0000
1000
0100
0000
0000
0000
0000
0000
0000
1001
0000
,  // measure 5
0001
0000
0100
0000
0001
0000
0001
0100
0000
0000
0000
0000
0000
0000
1001
0000
,  // measure 6
1000
0000
0010
0000
0100
0000
0010
1000
0000
0000
0000
0000
0000
0000
1100
0000
,  // measure 7
0010
0000
0001
0000
0100
0000
0010
0100
0000
0000
0000
0000
0000
0000
0000
0000
,  // measure 8
1001
0001
0100
0010
0100
0100
0100
0010
,  // measure 9
1000
0001
0010
0100
0010
0010
0010
0001
,  // measure 10
1000
0001
1000
0100
0010
0100
1000
0010
,  // measure 11
0001
1000
0001
0010
0100
0010
0001
0100
,  // measure 12
1001
0000
0000
0100
0000
0000
0001
0000
0001
0000
0001
0000
0001
0000
0000
0000
,  // measure 13
1001
0000
0000
0100
0000
0000
1000
0000
1000
0000
1000
0000
1000
0000
0000
0000
,  // measure 14
1001
0000
0000
1000
0000
0000
0010
0000
0010
0000
0010
0000
0010
0000
0000
0000
,  // measure 15
1001
0000
0000
0001
0000
0000
0100
0000
0100
0000
0100
0000
0100
0000
0000
0000
,  // measure 16
1001
1000
0100
0000
1001
0001
0100
0000
,  // measure 17
1001
1000
0010
0000
1001
0001
0010
0000
,  // measure 18
0110
0100
0001
0000
0110
0010
1000
0000
,  // measure 19
0110
0100
0001
0000
0110
0010
1000
0000
,  // measure 20
1001
0000
0000
0100
0000
0000
0100
0000
0100
0000
0000
0000
0000
0000
0000
0000
,  // measure 21
1000
0000
0000
1000
0001
0000
0000
0001
1000
0000
0000
1000
0001
0000
0000
0001
,  // measure 22
0100
0000
0000
0100
0010
0000
0000
0010
0100
0000
0000
0100
0010
0000
0000
0010
,  // measure 23
1000
0000
0000
1000
0100
0000
0000
0100
0010
0000
0000
0010
0001
0000
0000
0001
,  // measure 24
0100
0000
0000
0100
0010
0000
0000
0010
1000
0000
0001
0000
1000
0000
0001
0000
,  // measure 25
0100
1001
0100
0101
,  // measure 26
0100
1001
0010
1010
,  // measure 27
0010
1001
0100
1001
,  // measure 28
0010
1010
0100
0101
,  // measure 29
0010
0000
0000
0010
1000
0000
0000
1000
0001
0000
0000
0001
0100
0000
0000
0100
,  // measure 30
0010
0000
0000
0010
1000
0000
0000
1000
0100
0000
0000
0100
0010
0000
0000
0010
,  // measure 31
0001
0000
0000
0001
1000
0000
0000
1000
0010
0000
0000
0010
0100
0000
0000
0100
,  // measure 32
0010
0000
0000
0010
1000
0000
0000
1000
0100
0000
1000
0000
0001
0000
0100
0000
,  // measure 33
0100
1001
0100
0110
,  // measure 34
0100
1001
0010
1010
,  // measure 35
0010
1001
0100
0101
,  // measure 36
0010
1100
0100
0011
,  // measure 37
0010
1000
0100
0001
,  // measure 38
0010
1000
0100
0000
,  // measure 39
1000
0000
0000
1000
0000
0000
1000
0000
1000
0000
0000
0000
0000
0000
0000
0000
,  // measure 40
0001
0000
0000
0001
0000
0000
0001
0000
0001
0000
0100
0000
1001
0000
1001
0000
;
