#TITLE:Bach is Back;
#SUBTITLE:;
#ARTIST:Hyena;
#TITLETRANSLIT:;
#SUBTITLETRANSLIT:;
#ARTISTTRANSLIT:;
#GENRE:;
#CREDIT:;
#BANNER:;
#BACKGROUND:DDR CD-bg.JPG;
#LYRICSPATH:;
#CDTITLE:;
#MUSIC:Bach is Back.ogg;
#OFFSET:-0.020000;
#SAMPLESTART:14.740007;
#SAMPLELENGTH:12.000000;
#SELECTABLE:YES;
#BPMS:0.000000=129.880005
;
#STOPS:
;
#BGCHANGES:;
#KEYSOUNDS:;
#ATTACKS:;

//---------------dance-single - ----------------
#NOTES:
     dance-single:
     :
     Hard:
     15:
     0.700950,0.715726,0.024949,0.024949,0.765105,590.000000,587.000000,3.000000,3.000000,0.000000,0.000000,0.700950,0.715726,0.024949,0.024949,0.765105,590.000000,587.000000,3.000000,3.000000,0.000000,0.000000:
// measure 0
0000
0000
0000
0000
,  // measure 1
0000
0000
0000
0000
,  // measure 2
0000
0000
0000
0000
,  // measure 3
0000
0000
0000
0000
,  // measure 4
1000
0000
0100
1000
0000
0100
1000
0000
0100
1000
0000
0100
1000
0000
0100
0000
,  // measure 5
0010
0000
0001
0010
0000
0001
0010
0000
0001
0010
0000
0001
0010
0000
0001
0000
,  // measure 6
0100
0000
0001
0100
0000
0001
0100
0000
0001
0100
0000
0001
0100
0000
0001
0000
,  // measure 7
1000
0010
1000
0010
1000
0100
1000
0100
1000
0010
1000
0010
1000
0100
1000
0100
,  // measure 8
1000
0010
0100
0001
1000
0010
0100
0001
,  // measure 9
1000
0010
0100
0010
1000
0100
1000
0010
1000
0010
0100
0010
1000
0100
1000
0010
,  // measure 10
1000
0001
0010
0100
1000
0001
0010
0100
,  // measure 11
0010
0001
0010
0001
0100
0001
0100
0001
0100
0010
1000
0010
0100
0010
1000
0001
,  // measure 12
1000
0100
1000
0010
0100
0001
0100
0010
,  // measure 13
0100
0001
0100
0010
0100
0001
0100
0010
1000
0010
0100
0010
1000
0010
0100
0010
,  // measure 14
0100
0001
0100
0010
1000
0010
0100
0001
,  // measure 15
0100
0010
0100
0001
0100
0010
1000
0100
1000
0010
0100
0001
0010
0001
0100
0010
,  // measure 16
1000
0010
1000
0010
0100
0001
0100
0001
,  // measure 17
1000
0010
1000
0010
0100
0001
0100
0001
1000
0010
1000
0010
0100
0001
0100
0001
,  // measure 18
0100
0100
0010
0010
0100
0100
0001
0001
,  // measure 19
0010
0001
0010
0100
0010
0001
0010
0100
0010
0001
0010
0100
0010
0001
0010
0100
,  // measure 20
0010
0001
0100
0001
0010
0001
0100
0010
,  // measure 21
1000
0100
1000
0100
1000
0010
0100
0010
0100
0001
0100
0010
0100
0010
1000
0010
,  // measure 22
0100
0001
0100
0010
0100
0010
0100
0001
,  // measure 23
0010
0001
0010
0001
0100
0001
0100
0001
0010
0001
0010
0001
0100
0001
0100
0001
,  // measure 24
1000
1000
1000
1000
,  // measure 25
1000
0000
1000
0000
1000
0100
1000
0000
,  // measure 26
0001
0001
0001
0001
,  // measure 27
0001
0000
0001
0000
0001
0100
0001
0100
,  // measure 28
0010
0010
0010
0010
,  // measure 29
0010
0000
0010
0000
0010
0100
0010
0100
,  // measure 30
0100
0100
0100
0100
,  // measure 31
0220
0000
0000
0330
,  // measure 32
1000
0000
1000
0100
0000
0001
0100
0000
1000
0100
0000
0001
0100
0000
1000
0000
,  // measure 33
0001
0000
0100
1000
0000
0100
0001
0000
0100
1000
0000
0100
0001
0000
0100
0000
,  // measure 34
1000
0000
0010
1000
0000
0100
1000
0000
0010
1000
0000
0100
1000
0000
0010
0000
,  // measure 35
0100
0000
0001
0010
0000
0001
0100
0000
0001
0010
0000
0001
0100
0000
0001
0000
,  // measure 36
1000
0000
0100
1000
0000
0010
0100
0000
0001
0100
0000
0010
0100
0000
0010
0000
,  // measure 37
1000
0000
1000
0100
0000
0100
0010
0000
0010
0001
0000
0001
0010
0000
0001
0000
,  // measure 38
0100
0000
0001
0100
0000
0010
0100
0000
0001
0100
0000
0010
0100
0000
0001
0000
,  // measure 39
1000
0100
1000
0100
1000
0010
0100
0010
0100
0001
0100
0010
0100
0001
0010
0001
,  // measure 40
1000
0010
0100
0001
1000
0010
0100
0001
,  // measure 41
1000
0010
0100
0010
1000
0100
1000
0010
1000
0010
0100
0010
1000
0100
1000
0010
,  // measure 42
1000
0001
0010
0100
1000
0001
0010
0100
,  // measure 43
0010
0001
0010
0001
0100
0001
0100
0001
0100
0010
1000
0010
0100
0010
1000
0001
,  // measure 44
1000
0100
1000
0010
0100
0001
0100
0010
,  // measure 45
0100
0001
0100
0010
0100
0001
0100
0010
1000
0010
0100
0010
1000
0010
0100
0010
,  // measure 46
0100
0001
0100
0010
1000
0010
0100
0001
,  // measure 47
0100
0010
0100
0001
0100
0010
1000
0100
1000
0010
0100
0001
0010
0001
0100
0010
,  // measure 48
1000
0010
1000
0010
0100
0001
0100
0001
,  // measure 49
1000
0010
1000
0010
0100
0001
0100
0001
1000
0010
1000
0010
0100
0001
0100
0001
,  // measure 50
0100
0100
0010
0010
0100
0100
0001
0001
,  // measure 51
0010
0001
0010
0100
0010
0001
0010
0100
0010
0001
0010
0100
0010
0001
0010
0100
,  // measure 52
0010
0001
0100
0001
0010
0001
0100
0010
,  // measure 53
1000
0100
1000
0100
1000
0010
0100
0010
0100
0001
0100
0010
0100
0010
1000
0010
,  // measure 54
0100
0001
0100
0010
0100
0010
0100
0001
,  // measure 55
0010
0001
0010
0001
0100
0001
0100
0001
0010
0001
0010
0001
0100
0001
0100
0001
,  // measure 56
1000
0001
1000
0001
,  // measure 57
0100
0000
0010
0000
0100
0000
0010
0010
,  // measure 58
1000
0001
0100
0000
0001
0000
0001
0000
,  // measure 59
0100
0000
0001
0000
1000
0000
0100
1000
,  // measure 60
0001
0100
0010
0100
,  // measure 61
0001
0000
0010
0000
0100
1000
0100
1000
,  // measure 62
0010
0100
0001
0100
,  // measure 63
2010
0100
3010
1001
;

//---------------dance-single - ----------------
#NOTES:
     dance-single:
     :
     Medium:
     10:
     0.384928,0.424134,0.316021,0.041582,0.000000,324.000000,286.000000,38.000000,5.000000,0.000000,0.000000,0.384928,0.424134,0.316021,0.041582,0.000000,324.000000,286.000000,38.000000,5.000000,0.000000,0.000000:
0000
0000
0000
0000
,
0000
0000
0000
0000
,
0000
0000
0000
0000
,
0000
0000
0000
0000
,
1000
0001
1000
0000
0100
0100
0100
0000
,
0001
1000
0001
0000
0100
0100
0100
0000
,
0001
0100
1000
0000
1000
0100
0001
0000
,
0001
0100
1000
0100
0001
0100
1000
0000
,
0110
0101
0001
1000
,
0100
1000
0010
0000
0100
0001
0100
0000
,
0101
0011
0001
1000
,
0010
0010
1000
0000
0001
0001
0100
0000
,
1010
0110
0100
0010
,
0100
0001
0010
0000
0010
0001
0100
0000
,
0101
1001
1000
0010
,
0100
0001
0010
0000
0100
1000
0010
0000
,
1001
0110
0001
1000
,
0001
0100
1000
0000
1000
0100
0001
0000
,
0110
1001
1000
0010
,
0100
0010
0100
0000
0001
0010
0001
0000
,
0011
1100
0010
0100
,
0010
1000
0100
0000
0100
1000
0010
0000
,
1010
1100
0011
0101
,
2002
0000
0000
3003
,
1000
0100
0100
0100
,
0001
0100
0100
0100
,
1000
0100
0100
0100
,
0001
0100
0100
0100
,
1000
0010
0010
0010
,
0001
0010
0010
0010
,
1000
0100
0001
0100
,
1000
0010
0001
0010
,
1000
0001
1000
0000
0100
0100
0100
0000
,
0001
1000
0001
0000
0100
0100
0100
0000
,
0001
0100
1000
0000
1000
0100
0001
0000
,
0001
0100
1000
0100
0001
0100
1000
0000
,
1000
0001
1000
0000
0100
0100
0100
0000
,
0001
1000
0001
0000
0100
0100
0100
0000
,
0001
0100
1000
0000
1000
0100
0001
0000
,
0001
0100
1000
0100
0001
0100
1000
0000
,
0110
0101
0001
1000
,
0100
1000
0010
0000
0100
0001
0100
0000
,
0101
0011
0001
1000
,
0010
0010
1000
0000
0001
0001
0100
0000
,
1010
0110
0100
0010
,
0100
0001
0010
0000
0010
0001
0100
0000
,
0101
1001
1000
0010
,
0100
0001
0010
0000
0100
1000
0010
0000
,
1001
0110
0001
1000
,
0001
0100
1000
0000
1000
0100
0001
0000
,
0110
1001
1000
0010
,
0100
0010
0100
0000
0001
0010
0001
0000
,
0011
1100
0010
0100
,
0010
1000
0100
0000
0100
1000
0010
0000
,
1010
1100
0011
0101
,
2002
0000
0000
3003
,
1000
0100
0100
0100
,
0001
0010
0010
0010
,
1000
0100
0100
0100
,
0001
0010
0010
0010
,
1000
1000
0100
0100
,
0001
0001
0010
0010
,
1000
0100
0001
0010
,
2000
0000
0000
3000
;

//---------------dance-single - ----------------
#NOTES:
     dance-single:
     :
     Easy:
     6:
     0.304141,0.291592,0.266123,0.133062,0.000000,256.000000,224.000000,32.000000,16.000000,0.000000,0.000000,0.304141,0.291592,0.266123,0.133062,0.000000,256.000000,224.000000,32.000000,16.000000,0.000000,0.000000:
0000
0000
0000
0000
,
0000
0000
0000
0000
,
0000
0000
0000
0000
,
0000
0000
0000
0000
,
1000
1000
0001
0001
,
1000
1000
1000
1000
,
0001
0001
1000
1000
,
0001
0001
0001
0001
,
1001
0100
0001
0100
,
1001
0100
1000
0100
,
1000
1000
0001
0001
,
0100
0100
0010
0010
,
1001
1000
0100
0010
,
1001
0001
0010
0100
,
0100
0100
0010
0010
,
1000
1000
0001
0001
,
0110
0001
1000
0001
,
0110
1000
0001
1000
,
0100
0100
1000
1000
,
0010
0010
0001
0001
,
0110
0100
0010
0001
,
0110
0010
0100
1000
,
0001
0100
1000
0010
,
0001
0100
1000
0010
,
1002
0100
0000
0103
,
2001
0100
0000
3100
,
1002
0010
0000
0013
,
2001
0010
0000
3010
,
1002
0100
0000
0103
,
2001
0100
0000
3100
,
1002
0010
0000
0013
,
2001
0010
0000
3010
,
1000
1000
0001
0001
,
1000
1000
1000
1000
,
0001
0001
1000
1000
,
0001
0001
0001
0001
,
0100
0100
0010
0010
,
0100
0100
0100
0100
,
0010
0010
0100
0100
,
0010
0010
0010
0010
,
1001
0100
0001
0100
,
1001
0100
1000
0100
,
1000
1000
0001
0001
,
0100
0100
0010
0010
,
1001
1000
0100
0010
,
1001
0001
0010
0100
,
0100
0100
0010
0010
,
1000
1000
0001
0001
,
0110
0001
1000
0001
,
0110
1000
0001
1000
,
0100
0100
1000
1000
,
0010
0010
0001
0001
,
0110
0100
0010
0001
,
0110
0010
0100
1000
,
0001
0100
1000
0010
,
0001
0100
1000
0010
,
1002
0100
0000
0103
,
2001
0100
0000
3100
,
1002
0010
0000
0013
,
2001
0010
0000
3010
,
1002
0100
0000
0103
,
2001
0100
0000
3100
,
1002
0010
0000
0013
,
2001
0010
0000
3010
;

//---------------dance-single - ----------------
#NOTES:
     dance-single:
     :
     Beginner:
     3:
     0.130686,0.183376,0.133062,0.066531,0.000000,110.000000,94.000000,16.000000,8.000000,0.000000,0.000000,0.130686,0.183376,0.133062,0.066531,0.000000,110.000000,94.000000,16.000000,8.000000,0.000000,0.000000:
0000
0000
0000
0000
,
0000
0000
0000
0000
,
0000
0000
0000
0000
,
0000
0000
0000
0000
,
1000
1000
1000
0000
,
1000
0000
1000
0000
,
0001
0001
0001
0000
,
0001
0000
0001
0000
,
1001
0000
0000
0000
,
0100
0000
0100
0000
,
1001
0000
0000
0000
,
0010
0000
0010
0000
,
1001
0000
0000
0000
,
0100
0000
0100
0000
,
1001
0000
0000
0000
,
0010
0000
0010
0000
,
0110
0000
0000
0000
,
0001
0000
0001
0000
,
0110
0000
0000
0000
,
1000
0000
1000
0000
,
0110
0000
0000
0000
,
0001
0000
0001
0000
,
0110
0000
0000
0000
,
1000
0000
1000
0000
,
2000
0000
3000
0000
,
1000
0000
0000
0000
,
0002
0000
0003
0000
,
0001
0000
0000
0000
,
0200
0000
0300
0000
,
0100
0000
0000
0000
,
0020
0000
0030
0000
,
0010
0000
0000
0000
,
1000
1000
1000
0000
,
1000
0000
1000
0000
,
0001
0001
0001
0000
,
0001
0000
0001
0000
,
0100
0100
0100
0000
,
0100
0000
0100
0000
,
0010
0010
0010
0000
,
0010
0000
0010
0000
,
1001
0000
0000
0000
,
0100
0000
0100
0000
,
1001
0000
0000
0000
,
0010
0000
0010
0000
,
1001
0000
0000
0000
,
0100
0000
0100
0000
,
1001
0000
0000
0000
,
0010
0000
0010
0000
,
0110
0000
0000
0000
,
0001
0000
0001
0000
,
0110
0000
0000
0000
,
1000
0000
1000
0000
,
0110
0000
0000
0000
,
0001
0000
0001
0000
,
0110
0000
0000
0000
,
1000
0000
1000
0000
,
2000
0000
3000
0000
,
1000
0000
0000
0000
,
0002
0000
0003
0000
,
0001
0000
0000
0000
,
0200
0000
0300
0000
,
0100
0000
0000
0000
,
0020
0000
0030
0000
,
0010
0000
0000
0000
;
