#TITLE:BURNIN' THE FLOOR;
#SUBTITLE:(BLUE FIRE mix);
#ARTIST:NAOKI;
#TITLETRANSLIT:;
#SUBTITLETRANSLIT:;
#ARTISTTRANSLIT:;
#GENRE:Techno;
#CREDIT:;
#BANNER:BURNIN' THE FLOOR (BLUE FIRE mix).png;
#BACKGROUND:BURNIN' THE FLOOR (BLUE FIRE mix)-bg.png;
#LYRICSPATH:;
#CDTITLE:;
#MUSIC:BURNIN' THE FLOOR (BLUE FIRE mix).ogg;
#OFFSET:0.004466;
#SAMPLESTART:64.992004;
#SAMPLELENGTH:15.000000;
#SELECTABLE:YES;
#DISPLAYBPM:155.000000;
#BPMS:0.000000=155.171997
,4.000000=155.048004
;
#STOPS:
;
#BGCHANGES:;
#KEYSOUNDS:;
#ATTACKS:;

//---------------dance-single - ----------------
#NOTES:
     dance-single:
     :
     Hard:
     10:
     0.459936,0.525848,0.333417,0.031258,0.010419,309.000000,277.000000,32.000000,3.000000,0.000000,0.000000,0.459936,0.525848,0.333417,0.031258,0.010419,309.000000,277.000000,32.000000,3.000000,0.000000,0.000000:
// measure 0
0000
0000
0000
0000
,  // measure 1
0000
0000
0000
0000
,  // measure 2
0000
0000
0000
0000
,  // measure 3
1000
0000
0000
0000
,  // measure 4
0001
0000
0000
0000
,  // measure 5
1000
1000
0100
0100
,  // measure 6
0001
0001
0100
0100
,  // measure 7
1000
1100
0001
0101
,  // measure 8
0010
1000
0100
1001
,  // measure 9
0001
1000
0100
0000
0010
0000
0101
0000
,  // measure 10
1000
0001
0100
0000
0010
0000
1100
0000
,  // measure 11
0010
1000
0100
0000
0010
1000
0100
0000
,  // measure 12
0001
0001
1000
1000
,  // measure 13
0001
1000
0100
0000
0010
0000
0101
0000
,  // measure 14
1000
0001
0100
0000
0010
0000
1100
0000
,  // measure 15
1000
0100
1000
0000
0001
0100
1000
0000
,  // measure 16
0010
1000
0100
1001
,  // measure 17
1000
0100
0010
0000
0010
0100
0010
0000
,  // measure 18
0010
0100
0001
1000
0010
0001
0100
0000
,  // measure 19
0001
0010
0100
0000
0010
0100
1000
0000
,  // measure 20
0010
1000
0100
0001
1000
0010
0001
0000
,  // measure 21
0001
0100
1000
0000
0001
0010
1000
0000
,  // measure 22
1000
0100
0001
0000
1000
0010
0001
0000
,  // measure 23
0100
0001
0100
1000
0010
0001
0010
0000
,  // measure 24
1010
0000
0000
0000
0101
0000
0000
0000
1000
0100
0000
1000
0010
0000
1000
0000
,  // measure 25
0010
0000
1100
0000
0001
0100
1000
0000
,  // measure 26
0010
0000
0101
0000
1000
0100
0001
0000
,  // measure 27
0010
1000
0100
0000
0010
0001
0100
0000
,  // measure 28
1100
0101
1000
0001
,  // measure 29
0100
0000
0110
0000
0001
1000
0100
0000
,  // measure 30
0100
0000
0110
0000
1000
0001
0100
0000
,  // measure 31
1000
0100
1000
0000
0001
0100
0001
0000
,  // measure 32
1100
0101
1000
1000
,  // measure 33
2000
0000
0001
0001
0000
0000
0000
0100
,  // measure 34
0000
0010
0010
0000
0100
0100
3000
0000
,  // measure 35
1002
0000
0010
0000
,  // measure 36
0100
0000
1000
0003
,  // measure 37
0100
1000
0100
0001
0010
1000
0010
0000
,  // measure 38
0100
0001
0100
1000
0010
0001
0010
0000
,  // measure 39
0100
1000
0100
0001
0010
1000
0010
0000
,  // measure 40
0100
0001
0100
1000
0010
0000
0200
0000
,  // measure 41
0000
0000
0000
0300
,  // measure 42
0100
0001
1000
0000
1100
0000
0001
0000
,  // measure 43
0010
0001
0100
0000
1100
0000
0010
0000
,  // measure 44
0100
0001
1000
0000
0100
1000
0001
0000
,  // measure 45
0010
0001
0100
1000
,  // measure 46
0010
1000
0100
0000
1001
0000
0100
0000
,  // measure 47
0010
0001
0100
0000
1001
0000
0100
0000
,  // measure 48
0010
1000
0100
0000
0010
1000
0100
0000
,  // measure 49
0001
0100
1000
0110
,  // measure 50
1000
0100
0010
0000
1100
0000
0001
0000
,  // measure 51
0001
0100
0010
0000
0101
0000
1000
0000
,  // measure 52
1000
0100
0010
0000
0100
1000
0001
0000
,  // measure 53
0010
0010
0100
0100
,  // measure 54
1000
0010
0100
0000
0001
0010
0100
0000
,  // measure 55
1001
0000
0110
0000
0001
1000
0100
0000
,  // measure 56
0110
0000
1000
0001
0000
0000
0110
0000
,  // measure 57
0001
1000
0000
0000
0110
0000
1000
0001
,  // measure 58
1000
0100
0000
0000
0001
0100
0000
0110
,  // measure 59
0000
1000
0001
0010
0000
0000
0000
0000
;

//---------------dance-double - ----------------
#NOTES:
     dance-double:
     :
     Hard:
     10:
     0.442075,0.494915,0.354255,0.031258,0.010419,297.000000,263.000000,34.000000,3.000000,0.000000,0.000000,0.442075,0.494915,0.354255,0.031258,0.010419,297.000000,263.000000,34.000000,3.000000,0.000000,0.000000:
00000000
00000000
00000000
00000000
,
00000000
00000000
00000000
00000000
,
00000000
00000000
00000000
00000000
,
00001000
00000000
00000100
00000000
,
00000001
00000000
00000100
00001000
,
00010000
01000000
00010000
00000000
11000000
00000000
10000000
00000000
,
00100000
10010000
00100000
00010000
,
00001000
00000100
00000001
00000000
00001100
00000000
00000001
00000000
,
00001000
00001000
00002000
00003000
,
00000001
00000100
00001000
00000000
00011000
00000000
01000000
00000000
,
00100000
01000000
10000000
00000000
00100000
01000000
10000000
00000000
,
01100000
10000000
01010000
10000000
,
00100000
00010000
00001000
00000110
,
00000100
00000001
00001000
00000000
00000110
00000000
00000001
00000000
,
00000100
00001000
00010000
00000000
00010000
01000000
00010000
00000000
,
00100000
01000000
10000000
00000000
00100000
01000000
10000000
00000000
,
00100000
10010000
00010000
00010000
,
00100000
00010000
01000000
00000000
00100000
00001000
00010000
00000000
,
00010000
01000000
00010000
00001000
00000100
00000001
00000010
00000000
,
00001000
00000100
00000001
00000000
00001000
00000010
00000001
00000000
,
00000100
00001000
00010000
00001000
00000100
00000010
00001000
00000000
,
00000010
00010000
00001000
00000000
00000100
00001000
00010000
00000000
,
00000010
00001000
00010000
00001000
00000100
00000010
00000100
00000000
,
00000100
00001000
00010000
01000000
00010000
01000000
00100000
00000000
,
10000000
00000000
00000000
00000000
00010000
00000000
00000000
00000000
10000000
01000000
00000000
00010000
01000000
00000000
10000000
00000000
,
11000000
00000000
00010000
00000000
00010000
01000000
10000000
00000000
,
10000000
01000000
00010000
00000000
01100000
00000000
00010000
00000000
,
00001000
00000000
00000110
00000000
00001000
00000100
00000001
00000000
,
00000001
00000100
00001000
00000000
00000101
00000000
00000010
00000000
,
00001000
00000100
00001000
00000000
00000001
00000000
00000001
00000000
,
00000001
00000100
00000001
00000000
00001000
00000000
00001000
00000000
,
00000001
00000100
00001000
00000000
00010000
00000000
00010000
00000000
,
01000000
01100000
10000000
10000000
,
10000000
00000000
01000000
01000000
00000000
00000000
00000000
00010000
,
00000000
00001000
00001000
00000000
00000010
00000020
00000000
00000000
,
00000001
00000000
00001000
00000000
,
00000100
00000000
00000001
00000030
,
00000110
00000000
00000001
00000000
00001000
00010000
01000000
00000000
,
01100000
00000000
10000000
00000000
00010000
00001000
00000100
00000000
,
00000110
00000000
00000001
00000000
00001000
00010000
01000000
00000000
,
01100000
10000000
01000000
00020000
,
00000000
00000000
00000000
00030000
,
00110000
00101000
00010000
01000000
,
10000000
01000000
00010000
00001000
,
00010100
00011000
00000100
00000001
,
00001000
00001100
00000010
00000001
,
00001010
00010010
00001000
00000100
,
00000001
00000100
00001000
00010000
,
01001000
00011000
01000000
10000000
,
00010000
01010000
00100000
10000000
,
00100000
10000000
01000000
00000000
01010000
00000000
11000000
00000000
,
00100000
00000000
00010000
00000000
00001000
00010000
01000000
00000000
,
01000000
00010000
00001000
00000000
00000110
00000000
00000001
00000000
,
00000010
00001000
00000110
00000001
,
00000110
00000000
00000001
00000000
00000100
00001000
00010000
00000000
,
01100000
00000000
10000000
00000000
01000000
00010000
00001000
00000000
,
00000100
00000000
00001000
00010000
00000000
00000000
01000000
00000000
,
00010000
00001000
00000000
00000000
00000100
00000000
00001000
00010000
,
01000000
10000000
00000000
00000000
00010000
10000000
00000000
01000000
,
00000000
00010000
00001000
00000100
00000000
00000000
00000000
00000000
,
00000000
00000000
00000000
00000000
;

//---------------dance-single - ----------------
#NOTES:
     dance-single:
     :
     Challenge:
     14:
     0.634087,0.921585,0.385513,0.072935,0.213595,426.000000,389.000000,37.000000,7.000000,0.000000,0.000000,0.634087,0.921585,0.385513,0.072935,0.213595,426.000000,389.000000,37.000000,7.000000,0.000000,0.000000:
0000
0000
0000
0000
,
0000
0000
0000
0000
,
0000
0000
0000
0000
,
0000
0000
0010
0200
0000
0000
0000
0000
,
0000
0000
0000
0300
,
1000
0100
0010
0001
0000
0001
0100
1000
,
0000
0010
1000
0100
1000
0001
0010
0100
,
1000
0001
0100
0010
0000
1000
0000
1100
,
0000
0010
0001
0100
0001
1000
0010
0100
,
0001
0000
0000
0001
0000
0000
0010
0100
0010
0000
0000
0010
0000
0000
0001
1000
,
0100
0000
0010
0100
0000
0000
1000
0001
0100
0000
0010
0100
0001
0000
1000
0000
,
0010
0000
0010
0100
0000
0000
0010
0000
1000
0000
1000
0100
0000
0000
0010
0000
,
0001
0000
0001
0000
1000
0100
0010
0001
1000
0000
1000
0100
0000
0000
0010
0000
,
0100
1000
0100
0010
0001
1000
0001
0000
,
1000
0000
0010
0000
0100
0000
0001
0100
0001
0000
0010
0000
0100
0000
0000
0001
,
1000
0000
0100
0000
0010
0000
0001
0000
0100
0000
0100
0010
0000
0000
0000
0000
,
1000
0000
1000
0100
1000
0000
0001
0000
0010
0000
0100
0000
0110
0000
0000
0000
,
1100
0000
0000
0000
0011
0000
0000
0000
0101
0000
0001
1000
0000
0000
0000
0000
,
0010
0100
0010
1000
0001
1000
0100
0010
0001
0000
1000
0100
0000
0000
0000
0000
,
0010
0000
0010
0100
0000
0000
1000
0000
0001
0000
0001
1000
0000
0000
0010
0000
,
0100
0000
0001
0000
0010
0000
0100
0000
1000
0000
0010
0100
0000
0000
0000
0000
,
0001
0100
0001
0000
1000
0000
0001
0000
0010
0000
0100
0000
0110
0000
0000
0000
,
1000
0100
1000
0000
0001
0000
0000
0000
0001
0000
1000
0000
1010
0000
0000
0100
,
0001
0000
1000
0000
0100
0000
1000
0000
0001
0000
0001
0010
0000
0000
0100
0000
,
0010
0000
0000
0000
0010
0000
0000
0000
0010
0000
0000
0001
1001
0000
1100
0000
,
0101
1000
0010
0100
0001
1000
0100
1000
,
0001
0010
0001
0100
0001
1000
1000
0000
,
0010
1000
0100
1000
0001
0100
0001
1000
,
0100
0001
0100
0010
0001
1000
1000
0001
,
0010
0000
0100
0010
0001
0100
0010
1000
,
0001
0001
1000
0010
0100
0001
1000
0100
,
0010
0000
1000
0100
0010
0001
1000
0000
,
0100
1000
0001
0000
0100
0001
1000
0000
0100
1000
0001
0000
0010
0000
0010
0000
,
0200
0000
0001
0001
0000
0000
0000
0010
,
0000
1000
1300
0000
0100
1000
0000
0001
,
0201
0000
1000
0000
,
0010
0000
0000
0000
0000
0000
0000
0000
0301
0000
0010
0000
0000
0100
0000
0000
,
1000
0001
0010
0001
0100
0001
1000
0100
,
1000
0010
1000
0001
0100
0010
1000
0100
,
0010
0000
0001
0000
0100
0000
1000
0000
0100
0000
0010
0000
1000
0000
0001
0010
,
0100
1100
0000
0101
0000
1001
0010
0120
,
0002
0000
0000
0033
,
1010
0000
0101
0000
0011
0000
1000
0010
,
0001
0010
1000
0100
0010
0001
1000
0100
,
1000
1000
0010
0100
0000
0001
0010
0100
,
0000
1000
1000
0100
0000
0001
0001
0100
,
0010
1000
0100
1000
0000
1100
0000
0011
,
0000
0100
0001
1000
0010
1000
0001
0100
,
0010
0010
0100
0001
0000
0010
0000
1000
,
0100
1000
0001
0010
0100
1000
0010
0100
,
0101
0000
1100
0000
1010
0000
0001
0010
,
1000
0010
0001
0100
1000
0100
0001
0010
,
0100
1000
0001
0010
0000
0010
0001
1000
,
0000
0100
0100
1000
0000
0100
0100
0001
,
0100
0010
0001
1000
0000
1010
0000
0011
,
0000
0101
0000
1100
0000
1001
1000
0100
,
0001
0100
1000
1001
0000
1001
0001
0100
,
1000
0110
0000
1001
0100
0010
0001
0100
,
0101
0000
1100
0000
0001
0010
0001
0010
0100
1000
0100
1000
0001
0010
0001
1000
,
0100
0110
1001
0220
0000
0000
0000
0000
,
0000
0000
0000
0000
,
0330
0000
0000
0000
;

//---------------dance-single - ----------------
#NOTES:
     dance-single:
     :
     Medium:
     8:
     0.322997,0.402119,0.052096,0.020839,0.000000,217.000000,212.000000,5.000000,2.000000,0.000000,0.000000,0.322997,0.402119,0.052096,0.020839,0.000000,217.000000,212.000000,5.000000,2.000000,0.000000,0.000000:
0000
0000
0000
0000
,
0000
0000
0000
0000
,
0000
0000
0000
0000
,
0000
0000
0000
0000
,
0000
0000
0000
0000
,
1000
1000
0010
0010
,
0100
0100
0001
0001
,
1000
0010
1000
0010
0000
0000
0000
0000
,
0100
0001
0010
0100
,
1000
1000
0001
0001
,
0010
0000
0010
0000
0100
0010
0100
0000
,
1000
1000
0001
0001
,
0100
0000
0100
0000
0010
1000
0010
0000
,
0100
0001
0010
0100
,
1000
0000
0001
0000
0100
0001
1000
0000
,
0100
1000
0001
0010
,
0100
0000
0100
0000
1000
0001
0100
0000
,
1010
0001
1010
0001
,
0100
0001
0100
0000
0010
0000
1000
0000
,
0100
0100
0010
0010
,
0001
1000
0001
0000
0010
0000
0010
0000
,
1000
1000
0100
0100
,
0001
0001
0010
0010
,
1000
0001
1000
0001
,
0100
0000
0100
0000
0010
0000
1000
0001
,
1000
0000
0000
1000
0000
0000
0000
0000
,
0001
0100
0001
0000
0100
0000
0010
0000
,
1000
0000
0000
0001
0000
0000
0000
0000
,
0010
0100
0010
0000
0001
0000
1000
0000
,
0100
0100
0010
0000
,
0001
1000
0100
1000
,
0002
0000
2000
3003
,
1000
0010
0100
0000
,
0001
0001
0001
0000
,
0010
0100
1000
0000
,
0001
0000
0001
0000
,
1000
0010
0100
0000
,
1000
1000
0010
0010
,
0100
0001
0100
0000
0010
0000
1000
0000
,
0100
0100
0010
0010
,
0001
1000
0001
0000
0010
0000
0100
0000
,
1000
0000
0000
0000
,
0011
0000
0011
0000
0011
0000
0100
0001
,
0000
1000
0000
0000
0000
0000
0001
0000
,
1000
0010
0100
0000
,
1000
1000
0001
0001
,
1000
0100
1000
0000
0001
0000
0010
0000
,
0001
0100
0001
0000
1000
0000
0010
0000
,
0100
0100
1000
1000
,
0010
0010
0001
0001
,
1000
0000
0100
0000
1000
0000
0001
0010
,
0000
0010
0000
0000
0000
0001
1000
0000
,
0100
1000
0001
0000
,
0100
0100
0010
0000
,
1000
0100
0010
0001
,
1000
0100
1000
0000
0001
0100
0001
0000
,
1000
0000
0001
0100
0000
0000
1000
0000
,
0001
0100
0000
0000
1000
0000
0001
0100
,
0010
0000
0000
0000
,
0000
1000
0100
0010
0000
0000
0000
0000
;

//---------------dance-single - ----------------
#NOTES:
     dance-single:
     :
     Easy:
     5:
     0.299182,0.375094,0.166708,0.166708,0.000000,201.000000,185.000000,16.000000,16.000000,0.000000,0.000000,0.299182,0.375094,0.166708,0.166708,0.000000,201.000000,185.000000,16.000000,16.000000,0.000000,0.000000:
0000
0000
0000
0000
,
0000
0000
0000
0000
,
0000
0000
0000
0000
,
0000
0000
0000
0000
,
0000
0000
0000
0000
,
0001
0001
0100
0100
,
0010
0010
1000
1000
,
0110
0000
0000
0000
,
0001
0001
1000
0000
,
0010
0010
0100
0000
,
1000
1000
0100
0000
,
0010
0001
0010
0001
,
1000
0100
1000
0100
,
0010
0010
0001
0100
,
0010
0010
1000
0100
,
0010
0001
0100
1000
,
0010
0010
0100
1001
,
1000
1000
0001
0001
,
1000
0100
0010
0001
,
1000
0100
0001
0100
,
1000
0100
0001
0100
,
1000
1000
0010
0010
,
0001
0001
0100
0100
,
0010
0010
1000
1000
,
0001
0100
0110
1001
,
1000
0100
2000
3000
,
0001
0100
0010
0010
,
0001
0100
0002
0003
,
1000
0100
0010
0010
,
1000
0100
0002
0003
,
0100
0010
0001
0100
,
2000
0000
0000
3000
,
0010
0010
0020
0030
,
0200
0000
0000
0000
,
0020
0000
0000
0330
,
1001
0000
1001
0000
,
0001
0010
1000
1000
,
0100
1000
0100
0010
,
0001
0100
0010
0100
,
0001
0001
1000
1000
,
0010
0000
0010
0000
,
2002
0000
3003
0000
,
1001
1001
2002
3003
,
0100
0010
0001
0100
,
0010
0010
0100
0001
,
0010
0100
1000
1000
,
0100
0010
0001
0100
,
0020
0000
0030
1000
,
0100
1000
0002
0003
,
1000
0100
0010
0001
,
0110
0110
0220
0330
,
1000
0001
0100
0000
,
0010
1000
0100
0010
,
0001
0010
0100
0100
,
1000
0001
0010
0000
,
0100
1000
0001
0000
,
0110
0001
1000
0110
,
1000
0001
0110
0001
,
1000
1000
0001
0010
,
0100
1000
0020
0000
,
0030
0000
0000
0000
;

//---------------dance-single - ----------------
#NOTES:
     dance-single:
     :
     Beginner:
     3:
     0.111635,0.185984,0.083354,0.197966,0.000000,75.000000,67.000000,8.000000,19.000000,0.000000,0.000000,0.111635,0.185984,0.083354,0.197966,0.000000,75.000000,67.000000,8.000000,19.000000,0.000000,0.000000:
0000
0000
0000
0000
,
0000
0000
0000
0000
,
0000
0000
0000
0000
,
0000
0000
0000
0000
,
0000
0000
0000
0000
,
1000
0000
0000
0000
,
1000
0000
0000
0000
,
0001
0000
0000
0000
,
0001
0000
0000
0000
,
0020
0000
0030
0000
,
0200
0000
0300
0000
,
0010
0000
0010
0000
,
0001
0000
0001
0000
,
1000
0000
1000
0000
,
0010
0000
0010
0000
,
0100
0000
0100
0000
,
0020
0000
0030
0000
,
2000
0000
3000
0000
,
0002
0000
0003
0000
,
2000
0000
3000
0000
,
0002
0000
0003
0000
,
0010
0000
0000
0000
,
0100
0000
0000
0000
,
0020
0000
0000
0000
,
0030
0000
0000
0000
,
0110
0000
0000
0000
,
0100
0000
0000
0000
,
1001
0000
0000
0000
,
0100
0000
0000
0000
,
0110
0000
0000
0000
,
0100
0000
0000
0000
,
1001
0000
0000
0000
,
0020
0000
0030
0000
,
1000
0000
0000
0000
,
0000
0000
0000
0000
,
1001
0000
0000
0000
,
0000
0000
0000
0000
,
0002
0000
0003
0000
,
0020
0000
0030
0000
,
2000
0000
3000
0000
,
0200
0000
0300
0000
,
0002
0000
0003
0000
,
1000
0000
1000
0000
,
2000
0000
3000
0000
,
0001
0000
0001
0000
,
0002
0000
0003
0000
,
0100
0000
0100
0000
,
0100
0000
0100
0000
,
0010
0000
0010
0000
,
0020
0000
0030
0000
,
1000
0000
0001
0000
,
1000
0000
1000
0000
,
0001
0000
1000
0000
,
0001
0000
0001
0000
,
0010
0000
0010
0000
,
0020
0000
0030
0000
,
0110
0000
0000
0000
,
0110
0000
0000
0000
,
1001
0000
0000
0000
,
0020
0000
0030
0000
;
