#TITLE:BUILD-UP;
#SUBTITLE:;
#ARTIST:Forward;
#TITLETRANSLIT:;
#SUBTITLETRANSLIT:;
#ARTISTTRANSLIT:;
#GENRE:;
#CREDIT:;
#BANNER:Build-Up-bn.PNG;
#BACKGROUND:Build-Up-bg.png;
#LYRICSPATH:;
#CDTITLE:;
#MUSIC:BUILD UP.ogg;
#OFFSET:-0.444000;
#SAMPLESTART:33.213032;
#SAMPLELENGTH:15.002002;
#SELECTABLE:YES;
#BPMS:0.000000=134.957993
;
#STOPS:
;
#BGCHANGES:;
#KEYSOUNDS:;
#ATTACKS:;

//---------------dance-single - Nifara----------------
#NOTES:
     dance-single:
     Nifara:
     Beginner:
     1:
     0.090777,0.158224,0.000000,0.000000,0.000000,50.000000,50.000000,0.000000,0.000000,0.000000,0.000000,0.090777,0.158224,0.000000,0.000000,0.000000,50.000000,50.000000,0.000000,0.000000,0.000000,0.000000:
// measure 0
0000
0000
0000
0000
,  // measure 1
0000
0000
0000
0000
,  // measure 2
0000
0000
0000
0000
,  // measure 3
0000
0000
0000
0001
,  // measure 4
0000
0000
1000
0001
,  // measure 5
0000
0000
1000
0010
,  // measure 6
0000
0000
0100
0001
,  // measure 7
0000
0000
1000
0001
,  // measure 8
0000
0000
1000
0010
,  // measure 9
0000
0000
0100
0001
,  // measure 10
0000
0000
1000
0100
,  // measure 11
0000
0000
0000
0010
,  // measure 12
0000
0000
0000
0010
,  // measure 13
0000
0000
0000
0010
,  // measure 14
0000
0000
0000
0010
,  // measure 15
0000
0000
0000
0010
,  // measure 16
0000
0000
0000
0010
,  // measure 17
0000
0000
0000
0010
,  // measure 18
0000
0000
0000
0010
,  // measure 19
0000
0000
0000
0100
,  // measure 20
0000
0000
0001
0000
,  // measure 21
0000
0000
0000
1000
,  // measure 22
0001
1000
0000
0001
,  // measure 23
0000
1000
0000
0100
,  // measure 24
0000
0001
0000
1000
,  // measure 25
1000
0000
0000
0000
,  // measure 26
0001
0000
0000
0000
,  // measure 27
0100
0000
0000
0010
,  // measure 28
0000
0000
0000
0000
,  // measure 29
1000
0000
0000
0001
,  // measure 30
0000
0000
0000
0000
,  // measure 31
0000
1000
0000
0000
,  // measure 32
0000
0000
0000
0001
,  // measure 33
0000
0000
0000
1000
,  // measure 34
0000
0000
0000
0001
,  // measure 35
0000
0000
0000
1000
,  // measure 36
0000
0000
0000
0001
,  // measure 37
0000
0000
0000
0000
,  // measure 38
0000
0000
1000
0000
,  // measure 39
0000
0000
0010
0000
,  // measure 40
1000
0000
0001
0000
,  // measure 41
0000
0000
0001
0000
;

//---------------dance-single - Nifara----------------
#NOTES:
     dance-single:
     Nifara:
     Easy:
     4:
     0.181553,0.237336,0.000000,0.000000,0.000000,100.000000,100.000000,0.000000,0.000000,0.000000,0.000000,0.181553,0.237336,0.000000,0.000000,0.000000,100.000000,100.000000,0.000000,0.000000,0.000000,0.000000:
0000
0000
0000
0000
,
0000
0000
0000
0000
,
0100
0000
0001
0000
,
1000
0000
0010
1000
,
0001
1000
0000
1000
,
0001
1000
0001
1000
,
0001
1000
0001
1000
,
0001
1000
0001
1000
,
0001
1000
0001
1000
,
0001
1000
0001
1000
,
0001
1000
0001
1000
,
0001
1000
0001
0010
,
0010
0000
0000
0010
,
0010
0000
0000
0010
,
0010
0000
0000
0010
,
0010
0000
0000
0010
,
0010
0000
0000
0010
,
0010
0000
0000
0010
,
0010
0000
0000
0010
,
0010
0000
0000
1000
,
0001
0100
0000
0000
,
1000
0001
0100
0000
,
0010
1000
0001
0000
,
0000
0000
0000
0100
,
0010
1000
0000
0000
,
0001
0100
0010
0000
,
1000
0001
0010
0000
,
0100
0001
1000
0000
,
0010
0100
0001
0000
,
1000
0001
0100
1000
,
0000
0001
0000
0000
,
0000
1000
0001
0000
,
0000
1000
0001
0000
,
0000
0000
1000
0000
,
0000
0001
1000
0000
,
0000
1000
0001
0100
,
0000
0010
0001
1000
,
0000
0000
0000
0100
,
0000
0000
0001
0000
,
0000
0000
1000
0000
,
0000
0000
0010
0000
,
0000
0000
1000
0001
1000
0000
0000
0000
;

//---------------dance-single - Nifara----------------
#NOTES:
     dance-single:
     Nifara:
     Medium:
     8:
     0.308641,0.461804,0.139796,0.012709,0.139796,170.000000,159.000000,11.000000,1.000000,0.000000,0.000000,0.308641,0.461804,0.139796,0.012709,0.139796,170.000000,159.000000,11.000000,1.000000,0.000000,0.000000:
0000
0000
0000
0000
,
0000
0000
0000
0000
,
1000
0000
0001
0000
,
1000
0000
0001
1000
0001
0000
0001
0010
,
0001
0010
0001
0000
1001
0000
1000
0100
,
1000
0100
1000
0000
1001
0000
0100
0010
,
0100
0010
0100
0000
0110
0000
1000
0100
,
0010
0001
0000
0110
0000
0110
1000
0001
,
1000
0001
1000
0000
1001
0000
0001
0010
,
0001
0010
0001
0000
0011
0000
0100
0010
,
0100
0010
0100
0000
0110
0000
0010
0100
,
0010
0100
0010
0100
0010
0100
0110
0000
,
0010
0010
0010
0010
,
0010
0010
0010
0011
,
0010
0010
0010
0010
,
0010
0010
0010
0010
,
0010
0010
0010
0010
,
0010
0010
0010
0011
,
0010
0010
0010
0010
,
0010
0000
0000
0000
0010
0000
0000
0000
0010
0000
0000
0000
0000
0000
0000
1000
,
0000
0000
0100
0000
0000
1000
0000
0000
0000
0000
0000
0000
0000
0000
0000
0100
,
0000
0000
0010
0000
0000
0100
0000
0000
0000
0000
0000
0000
0000
0000
0000
0010
,
0000
0000
0001
0000
0000
0010
0000
0000
0000
0000
0000
0000
0000
0000
0000
0000
,
0000
0000
0000
0000
0000
0000
0000
0000
0000
0000
0000
0000
0000
0000
0000
1000
,
0000
0000
0100
0000
0000
1000
0000
0000
0000
0000
0000
0000
0000
0000
0000
0100
,
0000
0000
0010
0000
0000
0100
0000
0000
0000
0000
0000
0000
0000
0000
0000
0010
,
0000
0000
0001
0000
0000
0010
0000
0000
0000
0000
0000
0000
0000
0000
0000
1000
,
0000
0000
0100
0000
0000
0010
0000
0000
0000
0000
0000
0000
0000
0000
0000
0001
,
0000
0000
0010
0000
0000
0100
0000
0000
0000
0000
0000
0000
0000
0000
0000
0100
,
0000
0000
0001
0000
0000
1000
0000
0000
0000
0000
0000
0000
0010
0000
0000
0000
,
0000
0010
0010
0000
,
0000
0010
0010
0000
,
0000
0010
0010
0000
,
0000
0000
0010
0010
0010
0000
0010
0000
,
0000
0010
0010
0010
,
0000
0010
0010
0010
,
0000
0010
0010
0010
,
0000
0000
0010
0010
0010
0010
0000
0000
,
0000
0000
0100
0000
0100
0000
0100
0000
0100
0001
0000
0000
0000
0000
0000
0000
,
0000
0000
0100
0000
0100
0000
0100
0000
0100
0001
0000
0000
0000
0000
0000
0000
,
0000
0000
0100
0000
0100
0000
0100
0000
0100
0001
0000
0000
0000
0000
0000
0000
,
0000
0000
0100
0000
0100
0000
0100
0000
0100
0002
0000
0000
0000
0000
0000
0000
,
0000
0000
0000
0003
;

//---------------dance-single - Nifara----------------
#NOTES:
     dance-single:
     Nifara:
     Hard:
     10:
     0.399418,0.448301,0.584602,0.012709,0.273238,220.000000,174.000000,46.000000,1.000000,0.000000,0.000000,0.399418,0.448301,0.584602,0.012709,0.273238,220.000000,174.000000,46.000000,1.000000,0.000000,0.000000:
0000
0000
0000
0000
,
0000
0000
0000
0000
,
1000
0000
0001
0000
,
0010
0000
0000
0100
0010
0000
1000
0010
,
0000
0001
0000
0010
0000
0000
0000
0000
1001
0000
0000
0000
0010
0000
0001
0000
,
0000
0010
0000
0100
0000
0000
0000
0000
1001
0000
0000
0000
1000
0000
0100
0000
,
0000
0100
0000
1000
0000
0000
0000
0000
1001
0000
0000
0000
0010
0000
0100
0000
,
0000
0100
0000
0010
0000
0000
0100
0000
2000
0000
0000
0000
3010
0000
0100
0000
,
0000
0010
0000
0001
0000
0000
0000
0000
0011
0000
0000
0000
0100
0000
0010
0000
,
0000
1000
0000
0100
0000
0000
0000
0000
1100
0000
0000
0000
0010
0000
0100
0000
,
0000
0001
0000
1000
0000
0000
0000
0000
1001
0000
0000
0000
1000
0000
0100
0000
,
0000
0100
0000
0010
0000
0000
0100
0000
0000
0100
0010
0000
0010
0000
0000
0000
,
0010
0010
0010
0010
,
0010
0010
0010
0011
,
0010
0000
0010
0000
0010
0001
0010
0000
,
0010
0010
0010
0010
,
0010
0010
0010
0010
,
0010
0010
0010
0011
,
0010
0000
0010
0000
0010
0001
0010
0000
,
0010
0000
0000
0000
0010
0000
0000
0000
0010
0000
0000
0000
0000
0000
0000
0100
,
0000
0000
0010
0000
0000
0001
0000
0000
0101
0000
0101
0000
0000
0000
0000
0100
,
0000
0000
0010
0000
0000
1000
0000
0000
1100
0000
1100
0000
0100
0000
0000
0010
,
0000
0000
0001
0000
0000
0100
0000
0000
0101
0000
0101
0000
0000
0000
0000
0000
,
0000
0000
0000
0000
0000
0000
0000
0000
0000
0000
0000
0000
1001
0000
0000
1000
,
0000
0000
0100
0000
0000
0010
0000
0000
0110
0000
0110
0000
0000
0000
0000
1000
,
0000
0000
0010
0000
0000
1000
0000
0000
0000
0000
1010
0000
1010
0000
0000
0100
,
0000
0000
0010
0000
0000
0100
0000
0000
0110
0000
0110
0000
0000
0000
0000
0010
,
0000
0000
0100
0000
0000
0001
0000
0000
0000
0000
0000
0000
0101
0000
0000
0100
,
0000
0000
0001
0000
0000
1000
0000
0000
1001
0000
1001
0000
0000
0000
0000
0100
,
0000
0000
1000
0000
0000
0010
0000
0000
0000
0000
0000
0000
0110
0000
0000
0000
,
0100
1001
0110
0010
,
0000
0011
1100
0100
,
0000
0110
1001
1000
,
0000
0000
1100
1100
1100
0000
0100
0000
,
0000
0011
1001
0100
,
0000
0110
0101
0010
,
0000
1010
0011
0010
,
0000
0000
1001
1001
1001
1001
1001
0000
,
0000
0000
0010
0000
0000
0100
0000
1000
0100
0000
0000
0000
0100
0000
0000
0000
,
0000
0000
0010
0000
0000
0001
0000
0100
0010
0000
0000
0000
0110
0000
0000
0000
,
0000
0000
0001
0000
0000
0010
0000
0100
0010
0000
0000
0000
0010
0000
0000
0000
,
0000
0000
0001
0000
0000
0010
0000
0001
0010
0000
0000
0000
0000
0000
0000
0000
;

//---------------dance-single - Nifara----------------
#NOTES:
     dance-single:
     Nifara:
     Challenge:
     13:
     0.553738,0.655771,0.393971,0.050835,0.540121,305.000000,274.000000,31.000000,4.000000,0.000000,0.000000,0.553738,0.655771,0.393971,0.050835,0.540121,305.000000,274.000000,31.000000,4.000000,0.000000,0.000000:
0000
0000
0000
0000
,
0000
0000
0000
0000
,
1000
0000
0010
0000
,
1000
0000
0000
0100
0010
0000
0100
0001
,
0001
0100
0001
0100
0001
0000
0000
0000
0101
0000
0000
0000
0100
0000
0010
0000
,
1000
0100
1000
0010
1000
0000
0000
0000
1010
0000
0000
0000
1000
0000
0100
0000
,
1000
0100
0010
0001
1000
0000
0000
0000
1001
0000
0000
0000
0010
0000
0001
0000
,
0100
0010
0100
0010
0100
0000
0010
0000
0000
0010
0100
0010
0100
0000
0001
0000
,
0001
0010
0001
0010
0001
0000
0000
0000
0011
0000
0000
0000
1000
0000
0010
0000
,
0100
0001
0010
0001
0100
0000
0000
0000
0101
0000
0000
0000
0100
0000
0010
0000
,
0001
0010
0100
1000
0001
0000
0000
0000
1010
0000
0000
0000
1000
0000
0010
0000
,
0100
0010
0100
0010
0100
0000
0001
0000
0010
0001
0010
0001
0010
0000
0000
0000
,
0010
0010
0010
0010
,
0010
0010
0010
0011
,
0010
0000
0010
0000
0010
0010
0010
0010
,
0010
0010
0010
0010
0010
0010
0010
0000
,
0010
0010
0010
0010
,
0010
0010
0010
0011
,
0010
0000
0010
0000
0010
0010
0010
0010
,
0010
0000
0010
0000
0010
0000
0010
0000
0010
0000
0010
0000
0010
0000
0000
0010
,
0000
0000
0010
0000
0000
0010
0000
0000
0010
0100
0010
0000
0000
0000
0000
0010
,
0000
0000
0001
0000
0000
0100
0000
0000
0100
0010
0100
0000
0000
0000
0000
1000
,
0000
0000
0100
0000
0000
0100
0000
0000
1000
0100
1000
0000
1000
0000
0000
0000
,
0100
0000
0000
0000
0010
0000
0000
0000
0001
0000
0000
0000
1001
0000
0000
0010
,
0000
0000
0010
0000
0000
0100
0000
0000
0010
0100
0010
0000
0000
0000
0000
0001
,
0000
0000
0100
0000
0000
0010
0000
0000
0100
0010
0100
0000
0110
0000
0000
0010
,
0000
0000
0001
0000
0000
0100
0000
0000
0010
0001
0010
0000
0000
0000
0000
0100
,
0000
0000
0010
0000
0000
1000
0000
0000
1000
0100
1000
0000
1100
0000
0000
0100
,
0000
0000
0001
0000
0000
0010
0000
0000
0010
0100
0010
0000
0000
0000
0000
1000
,
0000
0000
0100
0000
0100
0010
0100
0010
0100
0010
0100
0000
0110
0000
0000
0000
,
0000
0000
0000
0000
1100
0000
0000
0000
1001
0000
0000
0000
1000
0100
0010
0001
,
0000
0001
0000
0000
1100
0000
0000
0000
1001
0000
0000
0000
0001
0010
0100
1000
,
0000
1000
0000
0000
0110
0000
0000
0000
0101
0000
0000
0000
1000
0100
0010
0001
,
0000
0001
0000
0000
0011
0000
0011
0000
0011
0000
0000
0000
0001
0010
0100
1000
,
0000
1000
0000
0000
1001
0000
0000
0000
1010
0000
0000
0000
1000
0100
0010
0001
,
0000
0001
0000
0000
1001
0000
0000
0000
0101
0000
0000
0000
0001
0010
0100
1000
,
0000
1000
0000
0000
1010
0000
0000
0000
0110
0000
0000
0000
1000
0100
0010
0001
,
0000
0001
0000
0000
1100
0000
1100
0000
1100
0000
1100
0000
1000
0100
1000
0100
,
1000
0000
0100
0000
0000
0010
0000
1000
0200
0000
0000
0000
1300
0001
1000
0001
,
1000
0000
0100
0000
0000
0010
0000
1000
0200
0000
0000
0000
1300
0010
1000
0010
,
1000
0000
0001
0000
0000
0010
0000
0100
0020
0000
0000
0000
0031
0100
0001
0010
,
0001
0000
0100
0000
0000
0001
0000
0100
0020
0000
0000
0000
0000
0000
0000
0000
,
0000
0000
0000
0000
,
0030
0000
0000
0000
;
