#VERSION:0.83;
#TITLE:BUILD-UP;
#SUBTITLE:(GTV1 Mix);
#ARTIST:Forward;
#TITLETRANSLIT:;
#SUBTITLETRANSLIT:;
#ARTISTTRANSLIT:;
#GENRE:;
#ORIGIN:;
#CREDIT:;
#BANNER:BUILD-UP (GTV1 Mix).png;
#BACKGROUND:BUILD-UP (GTV1 Mix)-bg.png;
#PREVIEWVID:;
#JACKET:BUILD-UP (GTV1 Mix)-jacket.png;
#CDIMAGE:;
#DISCIMAGE:;
#LYRICSPATH:;
#CDTITLE:;
#MUSIC:BUILD-UP (GTV1 Mix).ogg;
#OFFSET:-0.024000;
#SAMPLESTART:47.753021;
#SAMPLELENGTH:15.002002;
#SELECTABLE:YES;
#BPMS:0.000=134.958;
#STOPS:;
#DELAYS:;
#WARPS:;
#TIMESIGNATURES:0.000=4=4;
#TICKCOUNTS:0.000=4;
#COMBOS:0.000=1;
#SPEEDS:0.000=1.000=0.000=0;
#SCROLLS:0.000=1.000;
#FAKES:;
#LABELS:0.000=Song Start;
#BGCHANGES:;
#KEYSOUNDS:;
#ATTACKS:
;

//---------------dance-single - Nifara----------------
#NOTEDATA:;
#CHARTNAME:Nifara;
#STEPSTYPE:dance-single;
#DESCRIPTION:Nifara;
#CHARTSTYLE:;
#DIFFICULTY:Challenge;
#METER:14;
#RADARVALUES:0.592813,0.901128,0.372042,0.038158,0.496055,435.000000,396.000000,39.000000,4.000000,0.000000,0.000000,0.000000,0.000000,0.000000,0.592813,0.901128,0.372042,0.038158,0.496055,435.000000,396.000000,39.000000,4.000000,0.000000,0.000000,0.000000,0.000000,0.000000;
#CREDIT:Nifara;
#NOTES:
// measure 0
0000
0000
0000
0000
,  // measure 1
0000
0000
0000
0000
,  // measure 2
0100
0100
0100
0100
,  // measure 3
0100
0100
0100
1001
,  // measure 4
1000
1001
0010
1001
,  // measure 5
1000
1001
0001
0101
,  // measure 6
1000
1100
1000
0110
,  // measure 7
0001
0000
0110
0100
0010
0000
0100
0001
,  // measure 8
0001
0100
0001
0100
0001
0000
0000
0000
0101
0000
0000
0000
0100
0000
0010
0000
,  // measure 9
1000
0100
1000
0010
1000
0000
0000
0000
1010
0000
0000
0000
1000
0000
0100
0000
,  // measure 10
1000
0100
0010
0001
1000
0000
0000
0000
1001
0000
0000
0000
0010
0000
0001
0000
,  // measure 11
0100
0010
0100
0010
0100
0000
0010
0000
0000
0010
0100
0010
0100
0000
0001
0000
,  // measure 12
0001
0010
0001
0010
0001
0000
0000
0000
0011
0000
0000
0000
1000
0000
0010
0000
,  // measure 13
0100
0001
0010
0001
0100
0000
0000
0000
0101
0000
0000
0000
0010
0000
0100
0000
,  // measure 14
0001
0010
0100
1000
0001
0000
0000
0000
1010
0000
0000
0000
1000
0000
0010
0000
,  // measure 15
0100
0010
0100
0010
0100
0000
0001
0000
0010
0001
0010
0001
0010
0000
0000
0000
,  // measure 16
0010
0010
0010
0010
,  // measure 17
0010
0010
0010
0011
,  // measure 18
0010
0000
0010
0000
0010
0010
0010
0010
,  // measure 19
0010
0010
0010
0010
0010
0010
0010
0000
,  // measure 20
0010
0010
0010
0010
,  // measure 21
0010
0010
0010
0011
,  // measure 22
0010
0000
0010
0001
0010
0001
0010
0010
,  // measure 23
0010
0010
0010
0010
0010
0010
0010
0010
,  // measure 24
0001
0000
0000
0010
0000
0000
0010
0000
0000
0010
0000
0000
0001
0100
0010
0000
,  // measure 25
0000
0000
0000
1000
0000
0000
0001
0000
0000
0100
0000
0000
0100
0010
0100
0000
,  // measure 26
0000
0000
0000
0010
0000
0000
0100
0000
0000
0001
0000
0000
1000
0100
1000
0000
,  // measure 27
1000
0100
0010
0001
,  // measure 28
1001
0000
0000
0010
0000
0000
0010
0000
0000
0100
0000
0000
0010
0100
0010
0000
,  // measure 29
0000
0000
0000
0001
0000
0000
0100
0000
0000
0010
0000
0000
0100
0010
0100
0000
,  // measure 30
0110
0000
0000
0010
0000
0000
1000
0000
0000
0100
0000
0000
0010
0001
0010
0000
,  // measure 31
0000
0000
0000
0100
0000
0000
0010
0000
0000
0001
0000
0000
1000
0100
1000
0000
,  // measure 32
1100
0000
0000
0100
0000
0000
0010
0000
0000
0100
0000
0000
0010
0001
0010
0000
,  // measure 33
0000
0000
0000
0001
0000
0000
0100
0000
0100
0010
0100
0010
0100
0010
0100
0000
,  // measure 34
1001
0100
0001
0100
0001
1000
0100
1000
,  // measure 35
0100
1000
0010
0100
0010
1000
0001
0100
,  // measure 36
0001
0100
0010
0100
0001
0100
0001
0010
,  // measure 37
0001
1000
0100
1000
0010
0100
0010
0100
,  // measure 38
0001
1000
0100
1000
0001
0100
0010
1000
,  // measure 39
0100
0010
0001
0100
0010
1000
0100
0010
,  // measure 40
0001
0100
0010
1000
0001
0100
0001
1000
,  // measure 41
0100
1000
0001
0100
0010
1000
0100
0010
,  // measure 42
0001
0100
0001
0100
0010
1000
0010
1000
0001
0100
0001
0100
0010
1000
0010
1000
,  // measure 43
0100
1000
0100
1000
0010
1000
0010
1000
0001
0100
0001
0100
0001
0010
0001
0010
,  // measure 44
0001
1000
0001
1000
0000
0100
0000
0000
0110
0000
0000
0000
1001
0000
0000
0000
,  // measure 45
1000
0100
0010
0001
0000
0001
0000
0000
1100
0000
0000
0000
1001
0000
0000
0000
,  // measure 46
0001
0010
0100
1000
0000
1000
0000
0000
0110
0000
0000
0000
0101
0000
0000
0000
,  // measure 47
1000
0100
0010
0001
0000
0001
0000
0000
0011
0000
0011
0000
0011
0000
0000
0000
,  // measure 48
0001
0010
0100
1000
0000
1000
0000
0000
1001
0000
0000
0000
1010
0000
0000
0000
,  // measure 49
1000
0100
0010
0001
0000
0001
0000
0000
1001
0000
0000
0000
0101
0000
0000
0000
,  // measure 50
0001
0010
0100
1000
0000
1000
0000
0000
1010
0000
0000
0000
0110
0000
0000
0000
,  // measure 51
1000
0100
0010
0001
0000
0001
0000
0000
1100
0000
1100
0000
1100
0000
1100
0000
,  // measure 52
1000
0100
1000
0100
1000
0000
1000
0000
0000
0001
0000
1000
0200
0000
0000
0000
,  // measure 53
1300
0001
1000
0001
1000
0000
0010
0000
0000
0010
0000
1000
0200
0000
0000
0000
,  // measure 54
1300
0010
1000
0010
1000
0000
0001
0000
0000
0010
0000
0100
0020
0000
0000
0000
,  // measure 55
0031
0100
0001
0010
0001
0000
0100
0000
0000
0001
0000
0100
0020
0000
0000
0000
,  // measure 56
0000
0000
0000
0000
,  // measure 57
0000
0030
0000
0000
;
