#VERSION:0.83;
#TITLE:BOOM BOOM FIRE;
#SUBTITLE:;
#ARTIST:D.ESSEX;
#TITLETRANSLIT:;
#SUBTITLETRANSLIT:;
#ARTISTTRANSLIT:;
#GENRE:;
#ORIGIN:;
#CREDIT:;
#BANNER:;
#BACKGROUND:DDR CD-bg.JPG;
#PREVIEWVID:;
#JACKET:Boom Boom Fire-jacket.jpg;
#CDIMAGE:;
#DISCIMAGE:;
#LYRICSPATH:;
#CDTITLE:;
#MUSIC:Boom Boom Fire.mp3;
#OFFSET:-3.313000;
#SAMPLESTART:43.799999;
#SAMPLELENGTH:12.500000;
#SELECTABLE:YES;
#BPMS:0.000=154.000;
#STOPS:40.000=1.160,
53.000=1.160,
158.000=1.140;
#DELAYS:;
#WARPS:;
#TIMESIGNATURES:0.000=4=4;
#TICKCOUNTS:0.000=4;
#COMBOS:0.000=1;
#SPEEDS:0.000=1.000=0.000=0;
#SCROLLS:0.000=1.000;
#FAKES:;
#LABELS:0.000=Song Start;
#BGCHANGES:;
#KEYSOUNDS:;
#ATTACKS:
;

//---------------dance-single - ----------------
#NOTEDATA:;
#CHARTNAME:;
#STEPSTYPE:dance-single;
#DESCRIPTION:;
#CHARTSTYLE:;
#DIFFICULTY:Hard;
#METER:15;
#RADARVALUES:0.796669,0.877045,0.303334,0.116667,0.647502,478.000000,452.000000,26.000000,10.000000,0.000000,0.000000,0.000000,0.000000,0.000000,0.796669,0.877045,0.303334,0.116667,0.647502,478.000000,452.000000,26.000000,10.000000,0.000000,0.000000,0.000000,0.000000,0.000000;
#CREDIT:;
#NOTES:
// measure 0
0000
0000
0000
0000
,  // measure 1
0000
0000
0000
0000
0000
0000
0000
0000
1000
0001
0000
0100
0000
0001
0100
0010
,  // measure 2
0100
0001
0100
0010
1000
0100
1000
0000
1000
0010
1000
0100
1000
0010
0100
0000
,  // measure 3
0001
0100
0010
0100
0001
0100
0010
0000
1000
0100
1000
0010
0000
0100
0001
0100
,  // measure 4
0010
1000
0100
0000
1000
0100
0000
0100
1000
0010
0100
0000
0100
0001
0000
0001
,  // measure 5
0100
0010
0100
0010
1000
0001
1000
0001
0100
0010
0100
0010
1000
0001
1000
0001
,  // measure 6
1000
0100
1000
0010
0100
0001
0100
0000
0010
0100
0001
0100
0010
1000
0100
0000
,  // measure 7
1000
0100
1000
0010
0100
0001
0100
0000
0010
1000
0100
0010
0000
0001
0010
0100
,  // measure 8
1000
0001
0100
0001
0100
0010
0000
0010
0100
0010
1000
0100
1000
0100
0000
0100
,  // measure 9
1000
0100
1000
0000
0001
0010
0001
0000
1000
0100
1000
0000
0001
0010
0001
0000
,  // measure 10
1002
0003
0101
0100
0010
0100
0010
0100
,  // measure 11
0010
0000
0100
0000
0010
0000
1000
0000
0100
0000
1000
0001
0100
0000
0010
0000
,  // measure 12
1000
0010
0100
0010
0001
0010
0100
0010
,  // measure 13
1000
0100
2001
3000
1010
0100
0010
0100
,  // measure 14
0001
0000
0100
0000
0010
0000
0100
0000
1000
0000
0100
0000
0010
0000
0100
0001
,  // measure 15
0010
0001
1000
0001
0100
0010
1000
0100
,  // measure 16
1000
0001
0100
0001
1000
0001
0100
0100
,  // measure 17
0001
1000
0100
0100
1000
0001
0100
0002
,  // measure 18
0000
0000
1003
0000
0010
0100
0010
0010
,  // measure 19
0100
0001
1000
1000
0100
1000
0010
0200
,  // measure 20
0000
0000
0301
0000
0100
0001
0010
0010
,  // measure 21
0100
1000
0010
0010
0100
0001
0010
2000
,  // measure 22
0000
0000
3001
0000
1001
0100
0100
0100
,  // measure 23
1001
0100
0100
0100
1001
0100
1001
0100
,  // measure 24
1002
0000
0103
0000
1000
0001
0101
0001
,  // measure 25
1000
0100
1100
1000
0010
0100
0101
0010
,  // measure 26
1000
0100
1100
0010
0100
0001
0010
0100
,  // measure 27
0010
0001
0010
0100
1000
0010
0100
0001
,  // measure 28
0100
0010
0100
0010
1000
0100
1100
0100
,  // measure 29
0010
0001
0011
0001
0100
0010
0110
0010
,  // measure 30
1000
0100
1100
1000
0010
0100
0001
0100
,  // measure 31
0010
1000
0100
1000
0010
0100
0001
0100
,  // measure 32
0010
1000
0100
1000
0001
0100
0101
0010
,  // measure 33
0100
1000
1100
1000
0100
0010
0110
0100
,  // measure 34
0010
0001
0011
0001
0100
0010
1000
0100
,  // measure 35
1000
0010
1000
0100
1000
0001
0100
0001
,  // measure 36
0010
0001
0100
0001
0100
0010
0110
0010
,  // measure 37
1000
0100
1100
1000
0010
0100
0101
0010
,  // measure 38
0100
0001
1001
0100
0001
1000
0010
1000
,  // measure 39
0001
0000
0000
0001
0000
0000
0200
0000
0320
0000
0030
0000
0100
0001
0100
0010
,  // measure 40
1000
0100
1000
0000
1000
0010
1000
0100
1000
0010
0100
0000
0001
0100
0010
0100
,  // measure 41
0001
0100
0010
0000
1000
0100
1000
0010
0000
0100
0001
0100
0010
1000
0100
0000
,  // measure 42
1000
0100
0000
0100
1000
0010
0100
0000
0100
0001
0000
0001
0100
0010
0100
0010
,  // measure 43
1000
0001
1000
0001
0100
0010
0100
0010
1000
0001
1000
0001
1000
0100
1000
0010
,  // measure 44
0100
0001
0100
0000
0010
0100
0001
0100
0010
1000
0100
0000
1000
0100
1000
0010
,  // measure 45
0100
0001
0100
0000
0010
1000
0100
0010
0000
0001
0010
0100
1000
0001
0100
0001
,  // measure 46
0100
0010
0000
0010
0100
0010
1000
0100
1000
0100
0000
0100
1000
0100
1000
0000
,  // measure 47
0001
0010
0001
0000
1000
0100
1000
0000
0001
0010
0001
0000
2002
0000
0000
0000
,  // measure 48
0000
0000
3003
0000
;

//---------------dance-single - ----------------
#NOTEDATA:;
#CHARTNAME:;
#STEPSTYPE:dance-single;
#DESCRIPTION:;
#CHARTSTYLE:;
#DIFFICULTY:Medium;
#METER:12;
#RADARVALUES:0.500002,0.480960,0.210001,0.116667,0.005833,300.000000,282.000000,18.000000,10.000000,0.000000,0.000000,0.000000,0.000000,0.000000,0.500002,0.480960,0.210001,0.116667,0.005833,300.000000,282.000000,18.000000,10.000000,0.000000,0.000000,0.000000,0.000000,0.000000;
#CREDIT:;
#NOTES:
0000
0000
0000
0000
,
0000
0000
0000
0000
,
1000
0100
1000
0100
1000
0000
1000
0000
,
0001
0100
0001
0100
0001
0000
0001
0000
,
1000
0100
1000
0000
0001
0100
0001
0000
,
1000
0100
1000
0001
0100
0001
1000
0100
,
1000
0100
1000
0000
1000
0000
1000
0000
,
0001
0100
0001
0000
0001
0000
0001
0000
,
1000
0100
1000
0000
0001
0100
0001
0000
,
1000
0100
1000
0001
0100
0001
1000
0100
,
2000
0000
3001
0100
0001
0100
0010
0100
,
0010
0100
0010
1000
0100
1000
0100
1000
,
0010
0100
0001
0100
0010
0100
0001
0100
,
0010
0100
0002
0000
0013
0001
0010
0001
,
0100
0001
0100
0001
1000
0010
1000
0010
,
1000
0100
1000
0100
1000
0100
0010
0001
,
0010
0100
1000
0100
1000
1000
1000
0000
,
0001
0001
0001
0000
0100
0100
0100
0200
,
0000
0000
0310
0000
0010
0010
0010
0000
,
0100
0100
0100
0000
0001
0001
0001
0002
,
0000
0000
1003
0000
1000
0100
0010
0000
,
0001
0010
0100
0000
1000
0100
0010
0002
,
0000
0000
1003
0000
0010
0100
0100
0100
,
0001
1000
1000
1000
0010
0100
0001
1000
,
0020
0130
1001
0100
,
1001
0100
1001
0100
,
1001
0000
0100
0000
1000
0001
1000
0001
,
0100
0010
0100
0010
1000
0001
1000
0001
,
0100
0010
0100
0000
0110
0000
0001
0000
,
0110
0001
0110
0001
,
0110
0000
0001
0000
1000
0100
0010
0001
,
0010
0100
1000
0100
0010
0001
0010
0100
,
1000
0100
0010
0000
1001
0000
0010
0000
,
1001
0010
1001
0010
,
1001
0000
0010
0000
1000
0010
0100
0010
,
1000
0010
0100
0010
1000
0010
0100
0010
,
1000
0010
0100
0000
0110
0000
1000
0000
,
0110
1000
0110
1000
,
0110
0000
1000
0000
0001
0100
0010
0100
,
0001
0000
0000
0001
0000
0000
0001
0000
2002
0000
3000
0000
1003
0000
0100
0000
,
1000
0100
1000
0000
1000
0000
0001
0100
,
0001
0100
0001
0000
0001
0000
1000
0100
,
1000
0000
0001
0100
0001
0000
1000
0100
,
1000
0001
0100
0001
1000
0100
1000
0100
,
1000
0000
1000
0000
1000
0000
0001
0100
,
0001
0000
0001
0000
0001
0000
1000
0100
,
1000
0000
0001
0100
0001
0000
1000
0100
,
1000
0001
0100
0001
1000
0000
2002
0000
,
0000
0000
3003
0000
;

//---------------dance-single - ----------------
#NOTEDATA:;
#CHARTNAME:;
#STEPSTYPE:dance-single;
#DESCRIPTION:;
#CHARTSTYLE:;
#DIFFICULTY:Easy;
#METER:8;
#RADARVALUES:0.401668,0.452668,0.676669,0.163334,0.000000,241.000000,183.000000,58.000000,14.000000,0.000000,0.000000,0.000000,0.000000,0.000000,0.401668,0.452668,0.676669,0.163334,0.000000,241.000000,183.000000,58.000000,14.000000,0.000000,0.000000,0.000000,0.000000,0.000000;
#CREDIT:;
#NOTES:
0000
0000
0000
0000
,
0000
0000
0000
0000
,
0100
0010
0100
0110
,
0001
1000
0001
1001
,
0010
0110
0001
1001
,
0110
1001
0110
1001
,
0100
1000
0100
1100
,
0010
0001
0010
0011
,
0100
1100
0010
0011
,
1100
0011
1100
0011
,
1200
1300
0001
0100
,
0010
0100
0001
0100
,
0010
1000
0100
1000
,
0100
0021
0130
1000
,
0010
0100
0001
1000
,
0100
0001
0010
1000
,
0100
0001
0010
1000
,
0100
0000
1000
0000
0100
0000
1000
0200
,
0000
1300
0001
0100
,
0010
0000
0100
0000
0001
0000
0100
0020
,
0000
1030
1000
0001
,
0100
0000
0010
0000
1000
0000
0100
0020
,
0000
0031
0001
0001
,
1000
1000
1001
0110
,
2002
3003
1001
0100
,
0010
0100
1001
0010
,
0100
0010
1001
0100
,
1001
0010
1002
1000
,
1000
1003
0110
0001
,
1000
0001
0110
1000
,
0001
1000
0110
0001
,
0110
1000
0120
1000
,
1000
1030
1001
0100
,
0010
0100
1001
0010
,
0100
0010
1001
0100
,
1001
0010
1002
1000
,
1000
1003
0110
0001
,
1000
0001
0110
1000
,
0001
1000
0110
0001
,
0110
0000
1000
0000
0220
0300
0130
0000
,
0010
0100
0110
0001
,
1000
0001
1001
0010
,
0110
0001
1001
0110
,
1001
0110
1001
0100
,
1000
0100
1100
0010
,
0001
0010
0011
0100
,
1100
0010
0011
1100
,
0011
1100
0011
2002
,
0000
0000
3003
0000
;

//---------------dance-single - ----------------
#NOTEDATA:;
#CHARTNAME:;
#STEPSTYPE:dance-single;
#DESCRIPTION:;
#CHARTSTYLE:;
#DIFFICULTY:Beginner;
#METER:3;
#RADARVALUES:0.178334,0.226334,0.011667,0.070000,0.000000,107.000000,106.000000,1.000000,6.000000,0.000000,0.000000,0.000000,0.000000,0.000000,0.178334,0.226334,0.011667,0.070000,0.000000,107.000000,106.000000,1.000000,6.000000,0.000000,0.000000,0.000000,0.000000,0.000000;
#CREDIT:;
#NOTES:
0000
0000
0000
0000
,
0000
0000
0000
0000
,
1000
1000
1000
0000
,
1000
1000
1000
0000
,
0001
0001
0001
0000
,
0001
0001
0001
0000
,
0100
0100
0100
0000
,
0100
0100
0100
0000
,
0010
0010
0010
0000
,
0010
0010
0010
0000
,
0020
0000
0030
0000
,
0000
1000
0000
1000
,
0000
0001
0000
0001
,
0000
2000
0000
3000
,
0000
0000
0010
0000
,
0100
0000
0001
0000
,
0100
0000
0010
0000
,
1000
0000
0100
0000
,
1000
0000
0010
0000
,
0100
0000
0001
0000
,
0100
0000
0010
0000
,
1000
0000
0100
0000
,
1000
0000
0100
0100
,
0100
0100
0100
0100
,
0200
0300
0100
0000
,
1000
0000
0010
0000
,
0100
0000
0001
0000
,
0100
0000
0010
0000
,
1000
0000
0010
0000
,
0100
0000
0001
0000
,
0100
0000
0010
0000
,
1000
0000
0010
0000
,
0100
0000
0001
0000
,
0100
0000
0010
0000
,
1000
0000
0010
0000
,
0100
0000
0001
0000
,
0100
0000
0010
0000
,
1000
0000
0010
0000
,
0100
0000
0001
0000
,
0100
0000
0020
0000
,
0030
0000
0000
1000
,
1000
1000
0000
0001
,
0001
0001
0000
0001
,
0001
0001
0000
0100
,
0100
0100
0000
0100
,
0100
0100
0000
0010
,
0010
0010
0000
0010
,
0010
0010
0000
2002
,
0000
0000
3003
0000
;
