#TITLE:BOOM BOOM DOLLAR;
#SUBTITLE:(RED MONSTER 2000 MIX);
#ARTIST:KING KONG & D. JUNGLE GIRLS;
#TITLETRANSLIT:;
#SUBTITLETRANSLIT:;
#ARTISTTRANSLIT:;
#GENRE:;
#CREDIT:;
#BANNER:BOOM BOOM DOLLAR (Red Monster 2000 Mix).png;
#BACKGROUND:BOOM BOOM DOLLAR (Red Monster 2000 Mix)-bg.png;
#LYRICSPATH:;
#CDTITLE:;
#MUSIC:BOOM BOOM DOLLAR (Red Monster 2000 Mix).ogg;
#OFFSET:-0.360000;
#SAMPLESTART:51.422050;
#SAMPLELENGTH:12.000000;
#SELECTABLE:YES;
#BPMS:0.000000=155.000000
;
#STOPS:128.000000=1.140000
;
#BGCHANGES:;
#KEYSOUNDS:;
#ATTACKS:;

//---------------dance-single - ----------------
#NOTES:
     dance-single:
     :
     Easy:
     6:
     0.335233,0.431477,0.346047,0.108140,0.000000,217.000000,185.000000,32.000000,10.000000,0.000000,0.000000,0.335233,0.431477,0.346047,0.108140,0.000000,217.000000,185.000000,32.000000,10.000000,0.000000,0.000000:
// measure 0
0000
0000
0000
0000
,  // measure 1
0000
0000
0000
0000
,  // measure 2
0000
0000
0000
0000
,  // measure 3
0000
0000
0000
0000
,  // measure 4
1100
0001
1100
0001
,  // measure 5
0101
1000
0101
1000
,  // measure 6
0002
0000
0000
0000
,  // measure 7
2003
0000
0000
0000
,  // measure 8
3001
1000
0001
0100
,  // measure 9
0001
1000
0100
1000
,  // measure 10
0001
0100
0001
1000
,  // measure 11
0100
1000
0001
0100
,  // measure 12
0010
0100
0001
1000
,  // measure 13
0100
1000
0010
0100
,  // measure 14
1001
0001
1001
1000
,  // measure 15
1001
0110
1001
0000
,  // measure 16
1000
0001
0010
0002
,  // measure 17
0203
0301
0010
0001
,  // measure 18
0001
1000
0010
1000
,  // measure 19
1001
1001
0110
0110
,  // measure 20
0001
1000
0010
0100
,  // measure 21
0001
0001
1000
0010
,  // measure 22
0100
0001
1000
0100
,  // measure 23
1100
1100
0011
0011
,  // measure 24
0001
1000
0001
1000
,  // measure 25
0001
0010
0011
0000
,  // measure 26
0100
1000
0010
0100
,  // measure 27
0101
0001
1000
0010
,  // measure 28
1010
0100
0010
0001
,  // measure 29
1000
0010
0100
0001
,  // measure 30
1000
0001
1000
0001
,  // measure 31
0010
0100
1000
0001
,  // measure 32
0000
1001
1000
0010
,  // measure 33
0100
0001
1000
0100
,  // measure 34
0000
1001
1000
0010
,  // measure 35
1000
0100
0010
0001
,  // measure 36
0110
1001
0100
0001
,  // measure 37
0010
0001
1000
0010
,  // measure 38
0000
0002
0000
0000
,  // measure 39
0000
2003
0000
0000
,  // measure 40
3000
1001
0010
0001
,  // measure 41
1000
0010
1000
0001
,  // measure 42
0000
1001
0100
1000
,  // measure 43
0001
0010
0001
0100
,  // measure 44
0110
1001
1000
0001
,  // measure 45
0100
0010
1000
0001
,  // measure 46
0000
2000
0000
0000
,  // measure 47
0000
3002
0000
0000
,  // measure 48
0003
0010
1000
0100
,  // measure 49
0010
0001
1000
0001
,  // measure 50
1001
0100
0010
0100
,  // measure 51
0001
1000
1000
0010
,  // measure 52
0010
0100
0001
1000
,  // measure 53
0010
0100
0010
1000
,  // measure 54
1010
0001
0100
0001
,  // measure 55
1000
0100
0010
0001
,  // measure 56
1001
2002
0000
0000
,  // measure 57
3003
0000
0000
0000
;

//---------------dance-single - ----------------
#NOTES:
     dance-single:
     :
     Hard:
     12:
     0.545333,0.523937,0.064884,0.086512,0.043256,353.000000,347.000000,6.000000,8.000000,0.000000,0.000000,0.545333,0.523937,0.064884,0.086512,0.043256,353.000000,347.000000,6.000000,8.000000,0.000000,0.000000:
// measure 0
0000
0000
0000
0000
,  // measure 1
0000
0000
0000
0000
,  // measure 2
0000
0000
0000
0000
,  // measure 3
0000
0000
0000
0000
,  // measure 4
1000
0100
1000
0100
1000
0100
1000
0100
,  // measure 5
0001
0100
0001
0100
0001
0100
0001
0100
,  // measure 6
1000
0100
1000
0100
0001
0100
0001
0100
,  // measure 7
1000
0100
0001
0100
1000
0100
0001
0100
,  // measure 8
1000
1000
1000
0000
0001
0001
0001
0000
,  // measure 9
0100
0100
0100
0000
0010
0010
0010
0000
,  // measure 10
1000
1000
1000
0000
0010
0010
0010
0000
,  // measure 11
0100
0001
0000
0100
0001
0000
0100
0001
0000
0100
0001
0000
0100
0000
0001
0000
,  // measure 12
0010
0010
0010
0000
0001
0001
0001
0000
,  // measure 13
1000
1000
1000
0000
0100
0100
0100
0000
,  // measure 14
1000
0010
1000
0010
0100
0001
0100
0001
,  // measure 15
1000
0010
0100
0001
1000
0010
0100
0001
,  // measure 16
1000
0000
1001
0000
1000
0100
1000
0000
,  // measure 17
0001
0000
1001
0000
0001
0100
0001
0000
,  // measure 18
1000
0000
1100
0000
1000
0010
0100
0000
,  // measure 19
0001
0100
0010
1000
0001
0100
0010
1000
,  // measure 20
0001
0000
0011
0000
0001
1000
0100
0000
,  // measure 21
1000
0000
1100
0000
1000
0001
0100
0000
,  // measure 22
0001
0000
1001
0000
0001
1000
0010
0000
,  // measure 23
1000
0010
0100
0001
1000
0010
0100
0001
,  // measure 24
1000
0100
0010
0001
,  // measure 25
1000
0100
1000
0100
1000
0100
1000
0000
,  // measure 26
0001
0010
0100
1000
,  // measure 27
0001
0010
0001
0010
0001
0010
0001
0000
,  // measure 28
1000
0001
0100
0010
,  // measure 29
1000
0010
1000
0010
1000
0010
1000
0000
,  // measure 30
0001
1000
0010
0100
,  // measure 31
0001
1000
0001
0100
0010
0100
0010
2000
,  // measure 32
0002
3003
0100
0010
0100
0001
1000
0100
,  // measure 33
1000
0010
0100
0001
1000
0100
1000
0001
,  // measure 34
0100
0000
0001
1000
0010
1000
0100
1000
,  // measure 35
0010
1000
0001
0100
0001
0010
0001
0100
,  // measure 36
0001
1000
0100
1000
0010
0100
0001
0100
,  // measure 37
0010
1000
0100
1000
0010
0100
0001
1000
,  // measure 38
0100
0000
2000
0000
0100
0000
0100
0100
,  // measure 39
3100
0000
0002
0000
0100
0000
0100
0100
,  // measure 40
0103
0000
1000
0010
0100
0001
1000
0010
,  // measure 41
0100
0001
1000
0100
0010
0001
0010
0100
,  // measure 42
1000
0000
0001
0100
0001
0010
0001
1000
,  // measure 43
0010
0100
0001
1000
0010
0100
0001
1000
,  // measure 44
0100
0000
1000
0010
0100
0001
1000
0010
,  // measure 45
0100
0001
1000
0100
0010
0001
0010
0100
,  // measure 46
1000
0000
0002
0000
0100
0000
0100
0100
,  // measure 47
0103
0000
2000
0000
0100
0000
0100
0100
,  // measure 48
3100
0000
1000
1000
1000
0000
0001
0001
,  // measure 49
0001
0000
0100
0100
0100
0000
0010
0010
,  // measure 50
0010
0000
1000
1000
1000
0000
0010
0010
,  // measure 51
0010
0000
0000
0000
0100
0001
0000
0100
0001
0000
0100
0001
0000
0100
0001
0000
,  // measure 52
0100
0001
0010
0010
0010
0000
0001
0001
,  // measure 53
0001
0000
1000
1000
1000
0000
0100
0100
,  // measure 54
0100
0000
1000
0010
1000
0010
0100
0001
,  // measure 55
0100
0001
1000
0010
0100
0001
1000
0010
,  // measure 56
0200
0002
0000
0000
0000
0000
0000
0000
,  // measure 57
0303
0000
0000
0000
;

//---------------dance-single - Copied from Copied f----------------
#NOTES:
     dance-single:
     :
     Medium:
     8:
     0.409386,0.493117,0.324419,0.129768,0.000000,265.000000,235.000000,30.000000,12.000000,0.000000,0.000000,0.409386,0.493117,0.324419,0.129768,0.000000,265.000000,235.000000,30.000000,12.000000,0.000000,0.000000:
// measure 0
0000
0000
0000
0000
,  // measure 1
0000
0000
0000
0000
,  // measure 2
0000
0000
0000
0000
,  // measure 3
0000
0000
0000
0000
,  // measure 4
1000
0100
1000
0000
1100
0000
1000
0000
,  // measure 5
0001
0100
0001
0000
0101
0000
0001
0000
,  // measure 6
0002
0100
0100
0100
,  // measure 7
2003
0100
0100
0100
,  // measure 8
3001
1000
0001
0100
,  // measure 9
0001
1000
0100
1000
,  // measure 10
0001
0100
0001
1000
,  // measure 11
0100
1000
0001
0100
,  // measure 12
0010
0100
0001
1000
,  // measure 13
0100
1000
0010
0100
,  // measure 14
1001
0001
1001
1000
,  // measure 15
1001
0110
1001
0000
,  // measure 16
1000
1000
0001
0000
0010
0000
0002
0000
,  // measure 17
0203
0000
0301
0001
0010
0000
0001
0001
,  // measure 18
0001
0000
1000
1000
0010
0000
1000
0000
,  // measure 19
1001
1001
0110
0110
,  // measure 20
0001
0000
1000
0000
0010
0010
0100
0000
,  // measure 21
0001
0001
0001
0000
1000
0100
0010
0000
,  // measure 22
0100
1000
0001
0000
1000
0001
0100
0000
,  // measure 23
0101
0101
1010
1010
,  // measure 24
0001
0000
1000
0000
0001
0001
1000
0000
,  // measure 25
0001
0010
0011
0000
,  // measure 26
0100
0000
1000
1000
0010
0000
0100
0000
,  // measure 27
0101
0000
0001
0000
1000
0010
1000
0010
,  // measure 28
0100
0000
0100
0000
0010
0100
0001
0000
,  // measure 29
1000
0010
0100
0001
,  // measure 30
1000
0001
1000
0001
1000
0001
1000
0001
,  // measure 31
1000
0110
1001
0220
,  // measure 32
0000
0330
1001
0000
1000
0000
0010
0000
,  // measure 33
0100
0000
0001
0000
1000
0000
0100
1000
,  // measure 34
0100
1001
1000
0010
,  // measure 35
1000
0100
0010
0001
,  // measure 36
0110
1001
0100
0001
,  // measure 37
0010
0000
0001
0000
1000
0000
0010
0100
,  // measure 38
0010
0100
0002
0000
1000
0000
1000
0000
,  // measure 39
1000
2003
0001
0001
,  // measure 40
3001
1001
0010
0001
,  // measure 41
1000
0000
0010
0000
1000
0000
0001
0100
,  // measure 42
0001
1001
0100
1000
,  // measure 43
0001
0010
0001
0100
,  // measure 44
0110
1001
1000
0001
,  // measure 45
0100
0000
0010
0000
1000
0000
0010
1000
,  // measure 46
0010
1000
0020
0000
0000
0000
0000
0000
,  // measure 47
0000
0230
0000
0000
,  // measure 48
0000
0310
1000
0100
,  // measure 49
0010
0000
0001
0001
1000
0000
0001
0000
,  // measure 50
1001
0000
0100
0000
0010
0000
0100
0100
,  // measure 51
0001
0000
1000
0001
1000
0000
0010
0100
,  // measure 52
0010
0100
0001
1000
,  // measure 53
0010
0100
0010
1000
,  // measure 54
1010
0001
0100
0001
,  // measure 55
1000
0000
0100
0010
0100
0010
0100
0010
,  // measure 56
0100
0020
0200
0000
0000
0000
0000
0000
,  // measure 57
0330
0000
0000
0000
;

//---------------dance-single - Copied from Copied f----------------
#NOTES:
     dance-single:
     :
     Beginner:
     4:
     0.171479,0.277378,0.151396,0.075698,0.000000,111.000000,97.000000,14.000000,7.000000,0.000000,0.000000,0.171479,0.277378,0.151396,0.075698,0.000000,111.000000,97.000000,14.000000,7.000000,0.000000,0.000000:
// measure 0
0000
0000
0000
0000
,  // measure 1
0000
0000
0000
0000
,  // measure 2
0000
0000
0000
0000
,  // measure 3
0000
0000
0000
0000
,  // measure 4
1000
0000
1000
0000
,  // measure 5
0001
0000
0001
0000
,  // measure 6
0200
0000
0000
0000
,  // measure 7
0000
0000
0300
0000
,  // measure 8
0001
0000
1000
0000
,  // measure 9
0001
0000
0100
0000
,  // measure 10
0001
0000
1000
0000
,  // measure 11
0010
0000
1000
0000
,  // measure 12
0010
0000
0001
0000
,  // measure 13
0100
0000
1000
0000
,  // measure 14
1001
0000
1001
0000
,  // measure 15
1001
0000
1001
0000
,  // measure 16
1000
0000
0010
0000
,  // measure 17
0100
0000
0010
0000
,  // measure 18
0001
0000
0010
0000
,  // measure 19
1001
0000
0110
0000
,  // measure 20
0001
0000
0010
0000
,  // measure 21
0001
0000
1000
0000
,  // measure 22
0100
0000
1000
0000
,  // measure 23
1001
0000
1001
0000
,  // measure 24
0001
0000
0001
0000
,  // measure 25
0001
0000
0010
0000
,  // measure 26
0100
0000
0010
0000
,  // measure 27
1000
0000
1000
0000
,  // measure 28
0010
0000
0010
0000
,  // measure 29
1000
0000
0100
0000
,  // measure 30
0001
0000
0001
0000
,  // measure 31
0010
0000
1000
0000
,  // measure 32
0000
0000
0000
0010
,  // measure 33
0000
0001
0000
0100
,  // measure 34
0000
1001
0000
0010
,  // measure 35
0000
0100
0000
0001
,  // measure 36
0000
1001
0000
0001
,  // measure 37
0000
0001
0000
0010
,  // measure 38
0000
0002
0000
0003
,  // measure 39
0000
2000
0000
3000
,  // measure 40
0000
1001
0000
0001
,  // measure 41
0000
0010
0000
0001
,  // measure 42
0000
1001
0000
1000
,  // measure 43
0000
0010
0000
0100
,  // measure 44
0000
1001
0000
0001
,  // measure 45
0000
0010
0000
0001
,  // measure 46
0000
2000
0000
3000
,  // measure 47
0000
0002
0000
0003
,  // measure 48
0000
0010
0000
0100
,  // measure 49
0000
0001
0000
0001
,  // measure 50
0000
0100
0000
1000
,  // measure 51
0000
1000
0000
0010
,  // measure 52
0000
0100
0000
1000
,  // measure 53
0000
0100
0000
1000
,  // measure 54
0000
0001
0000
0001
,  // measure 55
0000
0100
0000
0001
,  // measure 56
0000
2002
0000
0000
,  // measure 57
3003
0000
0000
0000
;
