#TITLE:BILLIE JEAN;
#SUBTITLE:;
#ARTIST:XL DOG;
#TITLETRANSLIT:;
#SUBTITLETRANSLIT:;
#ARTISTTRANSLIT:;
#GENRE:;
#CREDIT:;
#BANNER:;
#BACKGROUND:BILLIE JEAN-bg.jpg;
#LYRICSPATH:;
#CDTITLE:;
#MUSIC:BILLIE JEAN.ogg;
#OFFSET:0.876000;
#SAMPLESTART:42.688995;
#SAMPLELENGTH:12.203000;
#SELECTABLE:YES;
#BPMS:0.000000=137.675995
;
#STOPS:
;
#BGCHANGES:;
#KEYSOUNDS:;
#ATTACKS:;

//---------------dance-single - ----------------
#NOTES:
     dance-single:
     :
     Hard:
     14:
     0.583027,0.598013,0.179136,0.233656,0.147982,524.000000,501.000000,23.000000,30.000000,0.000000,0.000000,0.583027,0.598013,0.179136,0.233656,0.147982,524.000000,501.000000,23.000000,30.000000,0.000000,0.000000:
0000
0000
0000
0000
,
0000
0000
0000
0000
,
0000
0000
0000
0000
,
2000
0000
0000
3002
0000
0000
0000
0000
,
2003
0000
0000
3002
0000
0000
0000
0000
,
2003
0000
0000
3001
0100
0010
1000
0001
,
0200
0000
0000
0310
1000
0001
0100
0010
,
2000
0000
0000
3100
0010
0001
1000
0010
,
0200
0000
0000
0301
1000
0001
0010
0100
,
2000
0000
0000
3001
0100
0010
1000
0100
,
2000
0000
0000
3010
0100
0010
1000
0100
,
2000
0000
0000
3010
0100
0010
1000
0100
,
0020
0000
0000
0130
1000
0001
0100
0010
,
1010
0000
0000
1001
0000
1001
0000
1001
,
0101
0000
0000
1010
0000
1010
0000
1010
,
0200
0000
0000
0301
1000
0100
0010
0001
,
2000
0000
0000
3001
0100
0010
1000
0001
,
1000
0001
0100
0010
1000
0001
1000
0001
,
1000
0100
0010
0001
0100
0001
0010
0001
,
0010
0100
0010
0001
1000
0010
0100
0001
,
0100
0001
0100
0001
0100
0010
0100
0010
,
1000
0010
1000
0001
0100
0010
0100
0010
,
0100
0010
1000
0001
1000
0100
1000
0010
,
0100
0010
1000
0010
1000
0001
1000
0010
,
0100
0010
1000
0001
1000
0100
0010
0100
,
0010
0100
0010
0100
0010
0100
0010
0100
,
0010
0100
0010
0100
0010
0100
0010
0100
,
0010
0100
0010
0100
0010
0100
0010
0100
,
0010
0100
0010
0100
0010
0100
0010
0100
,
0010
0100
0010
0100
0010
0100
0010
0100
,
0010
0100
0010
0100
0010
0100
0010
0100
,
0010
0000
0000
0000
0000
0000
0000
0000
0001
0010
0001
0010
0001
0010
0001
0010
,
0001
1000
0100
1000
0100
1000
0100
1000
,
0100
1000
0100
1000
0100
1000
0100
1000
,
0100
1000
0100
1000
0100
1000
0100
1000
,
0100
1000
0100
1000
0100
1000
0100
1000
,
0100
1000
0100
1000
0100
1000
0100
1000
,
2000
0000
0000
3001
0100
0010
1000
0001
,
0200
0000
0000
0310
1000
0001
0100
0010
,
2000
0000
0000
3100
0010
0001
1000
0010
,
0200
0000
0000
0301
1000
0001
0010
0100
,
1100
0000
0000
1001
0000
1001
0000
1001
,
0110
0000
0000
1001
0000
1001
0000
1001
,
0020
0000
0000
0130
0001
1000
0100
0010
,
0002
0000
0000
1003
0100
1000
0010
0100
,
0001
0010
0001
1000
0100
0010
0001
0100
,
0001
0100
0010
1000
0010
1000
0100
0010
,
0100
0010
0001
0100
0010
1000
0001
0010
,
0001
0100
0001
0100
0010
0100
0001
0010
,
0001
0010
0001
1000
0100
1000
0010
0100
,
0010
1000
0001
0100
0010
0100
0001
1000
,
0010
0100
0001
0100
0001
0100
0001
1000
,
0100
1000
0100
0010
0001
1000
0001
0010
,
0100
1000
0100
1000
0100
1000
0100
1000
,
0100
1000
0100
1000
0100
1000
0100
1000
,
0100
1000
0100
1000
0100
1000
0100
1000
,
0100
1000
0100
1000
0100
1000
0100
1000
,
0100
1000
0100
1000
0100
1000
0100
1000
,
0100
1000
0100
1000
0100
1000
0100
1000
,
0100
0000
0000
0000
0000
0000
0000
0000
1000
0010
1000
0010
1000
0010
1000
0010
,
1000
0100
1000
0100
1000
0100
1000
0100
,
1000
0100
1000
0100
1000
0100
1000
0100
,
1000
0100
1000
0100
1000
0100
1000
0100
,
1000
0100
1000
0100
1000
0100
1000
0100
,
1000
0100
1000
0100
1000
0100
1000
0100
,
1000
0001
0000
0001
1000
0000
1000
0001
0000
0000
0000
0000
2002
0000
3003
0000
,
1000
0001
0000
0001
1000
0000
1000
0001
0000
0000
0000
0000
1001
0000
0000
0000
,
1000
0001
0000
0001
1000
0000
1000
0001
0000
0000
0000
0000
2002
0000
3003
0000
,
1000
0001
0000
0001
0000
0001
1000
0000
1000
0001
0000
0001
0000
0001
1000
0000
,
1000
0001
0000
0001
1000
0000
1000
0001
0000
0000
0000
0000
2002
0000
3003
0000
,
1000
0001
0000
0001
1000
0000
1000
0001
0000
0000
0000
0000
1001
0000
0000
0000
,
1000
0001
0000
0001
1000
0000
1000
0001
0000
0000
0000
0000
2002
0000
3003
0000
,
1000
0001
0000
0001
0000
0001
1000
0000
1000
0001
0000
0001
0000
0001
1000
0000
,
2002
3003
0000
0000
0000
0000
0000
0000
;

//---------------dance-single - ----------------
#NOTES:
     dance-single:
     :
     Medium:
     10:
     0.431707,0.454850,0.342695,0.218079,0.000000,388.000000,344.000000,44.000000,28.000000,0.000000,0.000000,0.431707,0.454850,0.342695,0.218079,0.000000,388.000000,344.000000,44.000000,28.000000,0.000000,0.000000:
0000
0000
0000
0000
,
0000
0000
0000
0000
,
0000
0000
0000
0000
,
2001
0000
0000
0002
0000
0000
3003
0000
,
2001
0000
0000
0002
0000
0000
3003
0000
,
2000
0000
0001
3000
0100
0010
1000
0001
,
0200
0000
0010
0300
1000
0001
0100
0010
,
2000
0000
0001
3000
0100
0001
1000
0010
,
0200
0000
0010
0300
1000
0001
0010
0100
,
2000
0000
0001
3000
0001
1000
0010
1000
,
0002
0000
1000
0003
0100
0010
1000
0100
,
2000
0000
0010
3000
0100
0010
1000
0100
,
0020
0000
0001
0030
1000
0001
0100
0010
,
1000
0000
0000
1001
0000
0000
1001
0000
,
0101
0000
0000
1010
0000
0000
1010
0000
,
0200
0000
0001
0300
1000
0100
0010
0001
,
2000
0000
0001
3000
0100
0010
1000
0001
,
1000
0000
0100
0000
1000
0001
1000
0000
,
0001
0000
0010
0000
0001
0100
0010
0000
,
1000
0000
0010
0000
0100
0010
0100
0000
,
0001
0000
0100
0000
0010
0100
0010
0000
,
1000
0001
0100
0010
,
0100
0001
1000
0100
,
1000
0010
0100
0001
,
0100
0010
0100
0010
0100
0010
0100
0010
,
0100
0000
1001
0000
0010
0100
0010
0000
,
0100
0000
1001
0000
0010
0100
0010
0000
,
0010
0000
1001
0000
0010
0100
0010
0000
,
0100
0000
1001
0000
0010
0100
0010
0000
,
1000
0010
0100
0001
,
1001
0100
1001
0100
,
1001
0000
0000
0000
0001
0001
0001
0000
,
1001
0100
0100
0100
,
1001
0000
0100
1000
0100
1000
0100
0000
,
1001
0000
0100
0001
0100
0001
0100
0000
,
1001
0000
0100
1000
0100
1000
0100
0000
,
1001
0000
0100
0001
0100
0001
0100
0000
,
2000
0000
0001
3000
0100
0010
1000
0001
,
0200
0000
0010
0300
1000
0001
0100
0010
,
2000
0000
0100
3000
0010
0001
1000
0010
,
0200
0000
0010
0300
1000
0001
0010
0001
,
0100
0000
0000
1001
0000
0000
1001
0000
,
0110
0000
0000
1001
0000
0000
1001
0000
,
0020
0000
0100
0030
0001
1000
0100
0010
,
0002
0000
1000
0003
0100
1000
0010
0100
,
0001
0001
1000
1000
,
0010
0010
0100
0100
,
1001
0000
0001
0100
0010
0000
0001
0000
,
1001
0000
1000
0100
0010
0000
1001
0000
,
0001
0000
1001
0000
0100
1000
0010
0000
,
0010
0000
1001
0000
1000
0100
1000
0000
,
1001
0001
1001
1000
,
0100
1000
0100
0010
0001
1000
0001
0000
,
0100
0000
1001
0000
0010
0100
0010
0000
,
0100
0000
1001
0000
0010
0100
0010
0000
,
0010
0000
1001
0000
0010
0100
0010
0000
,
0100
0000
1001
0000
0010
0100
0010
0000
,
1000
0010
0100
0001
,
1001
0100
1001
0100
,
1001
0000
0000
0000
0001
0001
0001
0000
,
1001
0100
0100
0100
,
1001
0000
0100
1000
0100
1000
0100
0000
,
1001
0000
0100
0001
0100
0001
0100
0000
,
1001
0000
0100
1000
0100
1000
0100
0000
,
1001
0000
0100
0001
0100
0001
0100
0000
,
1000
0000
1000
1000
2000
0000
3000
0000
,
0001
0000
0001
0001
0002
0000
0003
0000
,
0100
0000
0100
0100
0200
0000
0300
0000
,
0010
0000
0010
0010
0020
0000
0030
0000
,
1000
0000
1000
1000
2000
0000
3000
0000
,
0001
0000
0001
0001
0002
0000
0003
0000
,
0100
0000
0100
0100
0200
0000
0300
0000
,
0010
0000
0010
0010
0020
0000
0030
0000
,
1001
0000
0000
0000
;

//---------------dance-single - ----------------
#NOTES:
     dance-single:
     :
     Easy:
     6:
     0.326005,0.341137,0.334907,0.249233,0.000000,293.000000,250.000000,43.000000,32.000000,0.000000,0.000000,0.326005,0.341137,0.334907,0.249233,0.000000,293.000000,250.000000,43.000000,32.000000,0.000000,0.000000:
0000
0000
0000
0000
,
0000
0000
0000
0000
,
0000
0000
0000
0000
,
2000
0000
0000
0002
0000
0000
3003
0000
,
0002
0000
0000
2000
0000
0000
3003
0000
,
2000
0001
3100
1000
,
0200
0010
1300
0100
,
2000
0001
3100
0010
,
0200
0010
0301
1000
,
0002
1003
0001
0010
,
0002
1000
0103
1001
,
2000
0010
3100
1000
,
0020
0100
1030
1001
,
1000
0000
0000
1000
0000
0000
1001
0000
,
0100
0000
0000
0010
0000
0000
1010
0000
,
0200
0001
0301
0001
,
2000
0010
3100
1001
,
1000
0100
1000
1000
,
0001
0010
0001
0010
,
1001
0010
0100
0100
,
1001
0100
0010
0010
,
1000
0001
0100
0010
,
0100
0001
1000
0100
,
1000
0010
0100
0001
,
2002
0000
0000
3003
,
0100
1001
0010
0010
,
0100
1001
0010
0010
,
0010
1001
0010
0010
,
0100
1001
0010
0010
,
1000
0010
0100
0001
,
1001
0100
1001
0100
,
1001
0000
0000
0000
,
1001
0100
1000
0100
,
1001
0100
0001
0100
,
1001
0100
1000
0100
,
1001
0100
0001
0100
,
1001
0100
1000
0100
,
2000
0001
3100
1000
,
0200
0010
1300
0100
,
2000
0001
3100
0010
,
0200
0010
0301
1000
,
0002
1003
0001
0010
,
0002
1000
0103
1001
,
2000
0010
3100
1000
,
0020
0100
1030
1001
,
0001
0001
1000
1000
,
0010
0010
0100
0100
,
1001
0001
0010
0001
,
1001
1000
0010
1001
,
0001
1001
0100
0010
,
0010
1001
1000
1000
,
1001
0001
1001
1000
,
0100
1000
0001
0001
,
0100
1001
0010
0010
,
0100
1001
0010
0010
,
0010
1001
0010
0010
,
0100
1001
0010
0010
,
1000
0010
0100
0001
,
1001
0100
1001
0100
,
1001
0000
0000
0000
,
1001
0100
1000
0100
,
1001
0100
0001
0100
,
1001
0100
1000
0100
,
1001
0100
0001
0100
,
1001
0100
1001
0100
,
1000
2000
0000
3000
,
0001
0002
0000
0003
,
0100
0200
0000
0300
,
0010
0020
0000
0030
,
1000
2000
0000
3000
,
0001
0002
0000
0003
,
0100
0200
0000
0300
,
0010
0020
0000
0030
,
1001
0000
0000
0000
;

//---------------dance-single - ----------------
#NOTES:
     dance-single:
     :
     Beginner:
     4:
     0.162446,0.227425,0.171348,0.062308,0.000000,146.000000,124.000000,22.000000,8.000000,0.000000,0.000000,0.162446,0.227425,0.171348,0.062308,0.000000,146.000000,124.000000,22.000000,8.000000,0.000000,0.000000:
// measure 0
0000
0000
0000
0000
,  // measure 1
0000
0000
0000
0000
,  // measure 2
0000
0000
0000
0000
,  // measure 3
1000
0000
0000
0000
,  // measure 4
0001
0000
0000
0000
,  // measure 5
1000
0000
0100
0000
,  // measure 6
0100
0000
1000
0000
,  // measure 7
1000
0000
0100
0000
,  // measure 8
0100
0000
0001
0000
,  // measure 9
0001
0000
0001
0000
,  // measure 10
0001
0000
0100
0000
,  // measure 11
1000
0000
0100
0000
,  // measure 12
0010
0000
1000
0000
,  // measure 13
1000
0000
0000
0000
,  // measure 14
0100
0000
0000
0000
,  // measure 15
0010
0000
0000
0000
,  // measure 16
0001
0000
0000
0000
,  // measure 17
1000
0000
1000
0000
,  // measure 18
0001
0000
0001
0000
,  // measure 19
1000
0000
0100
0000
,  // measure 20
0001
0000
0010
0000
,  // measure 21
1000
0000
0100
0000
,  // measure 22
0100
0000
1000
0000
,  // measure 23
1000
0000
0100
0000
,  // measure 24
0001
0000
0000
0000
,  // measure 25
0100
0000
0010
0000
,  // measure 26
0100
0000
0010
0000
,  // measure 27
0010
0000
0010
0000
,  // measure 28
0100
0000
0010
0000
,  // measure 29
1000
0000
0100
0000
,  // measure 30
1001
0000
1001
0000
,  // measure 31
1001
0000
0000
0000
,  // measure 32
1001
0000
1000
0000
,  // measure 33
1001
0000
0001
0000
,  // measure 34
1001
0000
1000
0000
,  // measure 35
1001
0000
0001
0000
,  // measure 36
1001
0000
1000
0000
,  // measure 37
1000
0000
0100
0000
,  // measure 38
0100
0000
1000
0000
,  // measure 39
1000
0000
0100
0000
,  // measure 40
0100
0000
0001
0000
,  // measure 41
0001
0000
0001
0000
,  // measure 42
0001
0000
0100
0000
,  // measure 43
1000
0000
0100
0000
,  // measure 44
0010
0000
1000
0000
,  // measure 45
0001
0000
1000
0000
,  // measure 46
0010
0000
0100
0000
,  // measure 47
1001
0000
0010
0000
,  // measure 48
1001
0000
0010
0000
,  // measure 49
0001
0000
0100
0000
,  // measure 50
0010
0000
1000
0000
,  // measure 51
1001
0000
1001
0000
,  // measure 52
0100
0000
0001
0000
,  // measure 53
0100
0000
0010
0000
,  // measure 54
0100
0000
0010
0000
,  // measure 55
0010
0000
0010
0000
,  // measure 56
0100
0000
0010
0000
,  // measure 57
1000
0000
0100
0000
,  // measure 58
1001
0000
1001
0000
,  // measure 59
1001
0000
0000
0000
,  // measure 60
1001
0000
1000
0000
,  // measure 61
1001
0000
0001
0000
,  // measure 62
1001
0000
1000
0000
,  // measure 63
1001
0000
0001
0000
,  // measure 64
1001
0000
1001
0000
,  // measure 65
2000
0000
3000
0000
,  // measure 66
0002
0000
0003
0000
,  // measure 67
0200
0000
0300
0000
,  // measure 68
0020
0000
0030
0000
,  // measure 69
2000
0000
3000
0000
,  // measure 70
0002
0000
0003
0000
,  // measure 71
0200
0000
0300
0000
,  // measure 72
0020
0000
0030
0000
,  // measure 73
1001
0000
0000
0000
;
