#TITLE:BEATS LIKE THIS;
#SUBTITLE:;
#ARTIST:UNKNOWN PROJECT;
#TITLETRANSLIT:;
#SUBTITLETRANSLIT:;
#ARTISTTRANSLIT:;
#GENRE:;
#CREDIT:;
#BANNER:BEATS LIKE THIS.png;
#BACKGROUND:BEATS LIKE THIS-bg.png;
#LYRICSPATH:;
#CDTITLE:;
#MUSIC:BEATS LIKE THIS.ogg;
#OFFSET:0.000000;
#SAMPLESTART:45.043999;
#SAMPLELENGTH:15.000000;
#SELECTABLE:YES;
#DISPLAYBPM:176.000000;
#BPMS:0.000000=175.830002
;
#STOPS:
;
#BGCHANGES:;
#KEYSOUNDS:;
#ATTACKS:;

//---------------dance-single - ----------------
#NOTES:
     dance-single:
     :
     Easy:
     7:
     0.378574,0.451681,0.212002,0.000000,0.000000,225.000000,207.000000,18.000000,0.000000,0.000000,0.000000,0.378574,0.451681,0.212002,0.000000,0.000000,225.000000,207.000000,18.000000,0.000000,0.000000,0.000000:
0000
0000
0000
0000
,
0000
0000
0000
0000
,
0000
0000
0000
0000
,
0000
0000
0000
0000
,
0000
0000
0000
0000
,
0000
0000
0000
0000
,
0000
0000
0000
0000
,
0010
1000
0010
1000
,
0100
0100
0100
0001
,
0010
1000
0010
1000
,
0100
0001
0100
0001
,
0010
1000
0010
1000
,
0100
0001
0010
1000
,
0010
0001
0010
0001
,
0100
1000
0100
1000
,
0010
0001
0010
0001
,
0100
0100
0100
0100
,
1001
0000
0000
0000
,
0000
0000
0000
0000
,
0110
0000
1001
0000
,
0110
1001
0110
1001
,
1000
1000
1000
1000
,
0010
0010
0001
0001
,
0100
0100
0100
0100
,
0001
0001
0010
1000
,
0010
1000
0010
1000
,
0100
0001
0100
0001
,
0010
1000
0010
1000
,
0100
0001
0010
1000
,
0010
0001
0010
0001
,
0100
1000
0100
1000
,
0010
0001
0010
0001
,
0100
0100
0100
0100
,
0110
0001
0010
0001
,
0010
1000
1000
0100
,
0110
1000
0010
1000
,
0010
0001
0001
0100
,
1001
0100
0010
0100
,
0110
1000
0110
0001
,
0100
0001
0100
1000
,
0100
1000
0100
0001
,
0010
1000
0100
0100
,
0010
0001
0100
0100
,
0010
1000
0100
0010
,
0001
0100
0010
0100
,
0010
1001
0100
1001
,
0010
1001
0100
1001
,
0010
0010
1001
0100
,
1001
0010
0001
0100
,
0100
0000
0100
0000
0100
0000
0100
0001
,
0010
0000
0010
0000
0010
0000
0010
0100
,
1000
0000
1000
0000
1000
0000
1000
0100
,
0001
0000
0001
0000
0001
0000
0001
0100
,
1000
0000
1000
0000
1000
0000
1000
0100
,
0010
0000
0010
0000
0010
0000
0010
0001
,
0100
0000
0100
0000
0100
0000
0100
0010
,
1000
0001
0010
1000
,
0001
0001
0010
0010
,
1000
0100
0001
0100
,
0100
0000
0000
0000
;

//---------------dance-single - ----------------
#NOTES:
     dance-single:
     :
     Medium:
     10:
     0.479528,0.555915,0.742006,0.000000,0.000000,285.000000,222.000000,63.000000,0.000000,0.000000,0.000000,0.479528,0.555915,0.742006,0.000000,0.000000,285.000000,222.000000,63.000000,0.000000,0.000000,0.000000:
0000
0000
0000
0000
,
0000
0000
0000
0000
,
0000
0000
0000
0000
,
0000
0000
0000
0000
,
0000
0000
0000
0000
,
0000
0000
0000
0000
,
0000
0000
0000
0000
,
0010
0000
0100
0000
0010
0000
0100
0010
,
0100
0010
0010
1001
,
1100
0001
1100
0001
,
1100
0001
1100
0001
,
0101
1000
0101
1000
,
1000
0100
0001
0100
1000
0000
1100
0000
,
0011
1000
0011
1000
,
0011
1000
0011
1000
,
1010
0001
1010
0001
,
0011
1000
1000
1000
,
1001
0000
0000
0000
,
0000
0000
0000
0000
,
0110
0000
1001
0000
,
0110
1001
0101
1001
,
1001
1000
1001
1000
,
0110
1000
0110
1000
,
0011
0100
0011
0100
,
0001
0010
1000
0110
,
1001
0010
1001
0010
,
1010
0100
1010
0100
,
1100
0001
1100
0001
,
0010
1000
0100
1001
,
0110
0010
0110
0010
,
0101
0001
0101
0001
,
1001
0100
1001
0100
,
0010
0100
0001
0101
,
1000
0001
0100
0000
1010
0000
0001
0000
,
0010
0001
0100
0000
0110
0000
0100
0000
,
0001
0010
0100
0000
0011
0000
1000
0000
,
0100
0001
0010
1100
,
0010
0100
0010
0000
1001
0000
0001
0000
,
0010
1000
0100
0000
0110
0000
0001
0000
,
0100
0010
1001
0000
0101
0000
1000
0000
,
1000
0001
0100
0110
,
1000
1000
0100
0100
,
0001
0001
0100
0100
,
1000
0100
0001
0100
,
1000
0100
0001
0000
0001
0010
1000
0000
,
1000
1000
0010
0010
,
0001
0001
0010
0010
,
1000
0010
0001
0010
,
1000
0010
0001
0000
0001
0100
1000
0000
,
0010
0000
1001
0000
0010
0000
1000
0001
,
0100
0000
1001
0000
0100
0000
1000
0001
,
0010
0000
0110
0000
0010
0000
0010
0100
,
1000
0000
1100
0000
1000
0000
1000
0100
,
0001
0000
0110
0000
0001
0000
0100
0010
,
0001
0000
1001
0000
0001
0000
0001
1000
,
0100
0000
0011
0000
0100
0000
0010
0001
,
0100
0000
1010
0000
0100
0000
1000
0010
,
0001
0000
1010
0000
0001
0000
0010
1000
,
0100
1001
0100
1001
,
0100
0000
0000
0000
;

//---------------dance-single - ----------------
#NOTES:
     dance-single:
     :
     Hard:
     12:
     0.533369,0.590660,0.459337,0.000000,0.000000,317.000000,278.000000,39.000000,0.000000,0.000000,0.000000,0.533369,0.590660,0.459337,0.000000,0.000000,317.000000,278.000000,39.000000,0.000000,0.000000,0.000000:
0000
0000
0000
0000
,
0000
0000
0000
0000
,
0000
0000
0000
0000
,
0000
0000
0000
0000
,
0000
0000
0000
0000
,
0000
0000
0000
0000
,
0000
0000
0000
0000
,
0010
0000
1000
0000
0100
0000
1000
0010
,
0100
1000
1100
1001
,
0010
0100
1000
0100
0010
0000
1001
0000
,
0100
0010
1000
0010
0100
0000
1001
0000
,
1000
0001
0100
1000
0100
0000
1001
0000
,
0001
1000
0100
0001
0100
0000
1001
0000
,
1000
0001
0100
1000
0001
0000
1001
0000
,
0001
1000
0100
0001
1000
0000
1001
0000
,
0100
1000
0100
0010
0001
0000
0101
0000
,
0110
1001
0100
1100
,
1001
0000
0000
0000
,
0000
0000
0000
0000
,
0110
0000
1001
0000
,
0110
1001
0101
1001
,
1000
0001
0100
0001
1000
0100
1000
0001
,
0100
0001
1000
0100
1000
0001
0100
0001
,
0010
0001
0010
0001
0010
0001
0010
0100
,
1000
0100
1000
0100
1000
0100
1000
0000
,
1001
0100
0001
1000
,
1001
0100
1000
0001
,
0110
0001
0100
0010
,
0110
1000
0100
0010
,
0011
1000
1001
0100
,
1100
0001
1001
0010
,
0011
1000
1001
0100
,
1100
0001
1001
0010
,
1000
0100
0010
0001
1000
0000
1100
0000
,
0001
0100
0010
1000
0001
0000
0101
0000
,
1000
0100
1000
0100
0001
0000
0101
0000
,
0001
0100
0001
0100
1000
0000
1100
0000
,
0010
0001
1000
0001
0010
0000
1100
0000
,
0010
1000
0001
1000
0010
0000
0101
0000
,
0010
0001
0100
0010
1000
0000
0110
0000
,
0010
1000
0100
0010
0001
0000
0110
0000
,
1000
0100
1000
0000
0100
0010
0100
0000
,
0001
0100
0001
0000
0010
0100
0010
0000
,
1000
0100
1000
0000
0100
0010
0100
0000
,
0001
0100
0001
0000
0010
0100
0010
0000
,
1000
0100
1000
0000
0100
0010
0100
0000
,
0001
0100
0001
0000
0010
0100
0010
0000
,
1000
0100
1000
0000
0100
0010
0100
0000
,
0001
0100
0001
0000
0010
0100
0010
0000
,
1000
0100
1000
0100
,
0010
0100
0010
0100
,
0001
0100
0001
0100
,
0010
0100
0010
0100
,
1000
0100
1000
0100
0010
0100
0010
0100
,
0001
0100
0001
0100
0010
0100
0010
0100
,
1000
0100
1000
0100
0010
0100
0010
0100
,
0001
0100
0001
0100
0010
0100
0010
0100
,
1000
0100
0010
0100
,
0001
0100
0010
0100
,
0010
0000
0000
0000
;

//---------------dance-double - ----------------
#NOTES:
     dance-double:
     :
     Easy:
     5:
     0.403813,0.486426,0.624227,0.000000,0.000000,240.000000,187.000000,53.000000,0.000000,0.000000,0.000000,0.403813,0.486426,0.624227,0.000000,0.000000,240.000000,187.000000,53.000000,0.000000,0.000000,0.000000:
00000000
00000000
00000000
00000000
,
00000000
00000000
00000000
00000000
,
00000000
00000000
00000000
00000000
,
00000000
00000000
00000000
00000000
,
00000000
00000000
00000000
00000000
,
00000000
00000000
00000000
00000000
,
00000000
00000000
00000000
00000010
,
00000100
00000001
00001000
00000010
,
00000100
00000001
00001000
00000010
,
00000101
00001000
00010000
00100000
,
01000000
00010000
00001000
00000010
,
00000100
00001000
00010000
00100000
,
01000000
00010000
00001000
00000010
,
00000100
00001000
00010000
00100000
,
01000000
00010000
00001000
00000010
,
00000100
00000000
00001000
00000000
00010000
00000000
00100000
01000000
,
00000000
00000000
00000000
00000000
,
11000000
00000000
00000000
00000000
,
00000000
00000000
00000000
00000000
,
00110000
00000000
00011000
00000000
,
00001010
00001010
00000101
00000101
,
00000100
00001000
00010000
00100000
,
01000000
00010000
00001000
00000010
,
00000100
00000000
00001000
00000000
00010000
00000000
00100000
01000000
,
00000000
00000000
00000000
00000000
,
11000000
00100000
00010000
01000000
,
00001000
00000010
00000001
00000100
,
00000001
00000010
00001000
00000100
,
00010000
00100000
10000000
11000000
,
11000000
00100000
00010000
01000000
,
00001000
00000010
00000001
00001100
,
00001100
00000000
00011000
00000000
,
00110000
00110000
11000000
11000000
,
01000000
00100000
00010000
01000000
,
00001000
00000010
00000001
00000100
,
00000001
00000010
00001000
00000100
,
00010000
00100000
10000000
11000000
,
11000000
00100000
00010000
01000000
,
00001000
00000010
00000001
00001100
,
00001100
00000000
00011000
00000000
,
00110000
00110000
11000000
11000000
,
00110000
00100000
00010000
10000000
,
01000000
00000000
00010000
00000000
00001000
00000000
00000010
00000001
,
00000100
00000010
00001000
00000001
,
00000100
00001000
00010000
10100000
,
11000000
00100000
00010000
10000000
,
01000000
00010000
00001000
00000011
,
00000101
00000000
00001010
00000000
,
00000101
00000101
00001010
00001010
,
00000101
00000010
00001000
00000001
,
00000100
00000000
00001000
00000000
00010000
00000000
00100000
10000000
,
01000000
00100000
00010000
10000000
,
01000000
00010000
00001000
00000011
,
00000101
00000010
00001000
00000001
,
00000100
00001000
00010000
10100000
,
11000000
00000000
00110000
00000000
,
11000000
11000000
00110000
00110000
,
11000000
00000000
10100000
00000000
,
00110000
00011000
00001100
00000011
,
00000100
00000000
00000000
00000000
;

//---------------dance-double - ----------------
#NOTES:
     dance-double:
     :
     Medium:
     7:
     0.420638,0.590660,0.200224,0.000000,0.000000,250.000000,233.000000,17.000000,0.000000,0.000000,0.000000,0.420638,0.590660,0.200224,0.000000,0.000000,250.000000,233.000000,17.000000,0.000000,0.000000,0.000000:
00000000
00000000
00000000
00000000
,
00000000
00000000
00000000
00000000
,
00000000
00000000
00000000
00000000
,
00000000
00000000
00000000
00000000
,
00000000
00000000
00000000
00000000
,
00000000
00000000
00000000
00000000
,
00000000
00000000
00000000
00000000
00000000
00000000
00100000
00010000
,
01000000
00000000
00100000
00000000
10000000
00000000
01000000
00100000
,
00010000
00000000
10000000
00000000
00100000
01000000
00010000
10000000
,
11000000
00010000
00001000
00000010
,
00000001
00000000
00000100
00000000
00000010
00000000
00001000
00000001
,
00000100
00001000
00010000
00100000
,
10000000
00000000
01000000
00000000
00100000
00000000
00010000
10000000
,
01000000
00010000
00001000
00000010
,
00000001
00000000
00000100
00000000
00000010
00000000
00001000
00000001
,
00000100
00000000
00001000
00000000
00010000
00000000
00001000
00010000
,
00000000
00000000
00000000
00001000
,
00011000
00000000
00000000
00000000
,
00000000
00000000
00000000
00100000
,
00110000
00000000
11000000
00000000
,
10100000
01010000
00011000
00001010
,
00000101
00001000
00010000
00100000
,
10000000
00000000
01000000
00000000
00100000
00000000
00010000
10000000
,
01000000
00000000
00010000
00000000
00001000
00000000
00010000
00001000
,
00000000
00000000
00000000
00100000
,
01010000
10000000
00100000
01000000
,
00010000
00000000
00100000
00000000
00001000
00000000
00010000
00001000
,
00010000
00000010
00001000
00000100
,
00000010
00000000
00000001
00000000
00000100
00000000
00001000
00010000
,
00001000
00100000
00010000
01000000
,
00100000
00000000
10000000
00000000
01000000
00000000
00010000
00001000
,
00010000
00000000
00000010
00000000
00010000
00000000
00001000
00100000
,
00010000
00000000
01000000
00000000
00001000
00010000
00000010
00001000
,
00000100
00000001
00000010
00000100
,
00001000
00000000
00000010
00000000
00010000
00000000
00001000
00010000
,
00001000
00100000
00010000
01000000
,
00100000
00000000
10000000
00000000
01000000
00000000
00010000
00001000
,
00010000
00000010
00001000
00000100
,
00000010
00000000
00000001
00000000
00000100
00000000
00001000
00010000
,
00001000
00000000
00100000
00000000
00001000
00000000
00010000
00000010
,
00001000
00000000
00000100
00000000
00010000
00001000
00100000
00010000
,
01000000
00010000
00001000
00010000
,
00100000
00000000
00010000
00000000
00001000
00000000
00010000
00000100
,
00000010
00001000
00010000
00001000
,
00000100
00000000
00001000
00000000
00010000
00000000
00001000
00100000
,
01000000
00010000
00001000
00010000
,
00000100
00000000
00001000
00000000
00010000
00000000
00001000
00010000
,
00001000
00000000
00100000
00000000
00011000
00000000
00000010
00001000
,
00000100
00000000
00000010
00000000
00000001
00001000
00000010
00010000
,
00000100
00001000
00010000
00001000
,
00000010
00000000
00001000
00000000
00010000
00000000
00001000
01000000
,
00100000
00010000
00001000
00010000
,
01000000
00000000
00010000
00000000
00001000
00000000
00010000
00000010
,
00000100
00001000
00010000
00001000
,
01000000
00000000
00010000
00000000
00001000
00000000
00010000
00001000
,
00010000
00000000
00000010
00000000
00011000
00000000
00100000
00010000
,
01000000
00000000
00100000
00000000
10000000
00010000
00100000
00001000
,
01000000
00000000
00010000
00000000
00011000
00000000
00000010
00001000
,
00000101
00000000
00001100
00000000
00000101
00001000
00001100
00000001
,
00000100
00000000
00000000
00000000
;

//---------------dance-double - ----------------
#NOTES:
     dance-double:
     :
     Hard:
     7:
     0.462702,0.555915,0.259113,0.000000,0.000000,275.000000,253.000000,22.000000,0.000000,0.000000,0.000000,0.462702,0.555915,0.259113,0.000000,0.000000,275.000000,253.000000,22.000000,0.000000,0.000000,0.000000:
00000000
00000000
00000000
00000000
,
00000000
00000000
00000000
00000000
,
00000000
00000000
00000000
00000000
,
00000000
00000000
00000000
00000000
,
00000000
00000000
00000000
00000000
,
00000000
00000000
00000000
00000000
,
00000000
00000000
00000000
00000000
,
00100000
10000000
00010000
00100000
00001000
00010000
00000100
00000010
,
00000001
00001000
00000100
00010000
00001000
00010000
00000100
00000000
,
00001000
00001000
00000000
00010000
00000100
00000000
00001000
00000000
,
00000010
00001000
00000000
00000100
00010000
00000000
00001000
01000000
,
00010000
10000000
00000000
00100000
01000000
00000000
00010000
00000000
,
00100000
00001000
00000000
00010000
00000100
00000000
00000010
00000001
,
00001000
00000100
00000000
00010000
00001000
00000000
00100000
00000000
,
00010000
01000000
00000000
00010000
00100000
00000000
01000000
00010000
,
00001000
00000100
00000000
00000001
00001000
00000000
00000100
00000000
,
00000000
00000000
00000000
00000000
,
00001100
00000000
00000000
00000000
,
00000000
00000000
00000000
00000000
,
00010010
00000000
01001000
00000000
,
00010100
00101000
00010010
01001000
,
01100000
10000000
00010000
01000000
,
00001000
00000000
00010000
00000000
00000010
00000100
00000100
00000000
,
00000110
00000001
00001000
00000100
,
00010000
00000000
00001000
00000000
00100000
01000000
01000000
00000000
,
10010000
10010000
00000000
00001000
00000000
00100000
00000000
00010000
,
10000000
01000000
00000000
00100000
00000000
00001000
00000000
00010000
,
00000010
00000100
00000000
00000001
00000000
00001000
00000000
00000100
,
00000010
00000001
00000000
00001000
00000000
00000100
00000000
00000010
,
00000001
00000100
00000000
00001000
00000000
00100000
00000000
00010000
,
10000000
01000000
00000000
00100000
00000000
00001000
00000000
00010000
,
00001000
00000100
00000000
00000001
00000000
00001000
00000000
00000100
,
00000010
00000001
00000000
00001000
00000000
00000010
00000000
00010000
,
00001000
00100000
00000000
00010000
01000000
00000000
00100000
00000000
,
10000000
01000000
00000000
00100000
01000000
00000000
00001000
00100000
,
00010000
01000000
00000000
00001000
00010000
00000000
00000010
00000000
,
00001000
00000100
00000000
00000001
00000100
00000000
00000010
00010000
,
00010000
00001000
00000000
00010000
00001000
00000000
00100000
00000000
,
00010000
01000000
00000000
00010000
10000000
00000000
01000000
00010000
,
00001000
00001000
00000000
00000100
00000010
00000000
00000100
00000000
,
00001000
00001000
00000000
00000010
00000010
00000000
00001001
00000000
,
00000100
00000010
00000000
00001000
00000100
00000000
00000010
00000000
,
00000001
00000100
00000000
00001000
00000100
00000000
00010000
00000010
,
00001000
00000100
00000000
00010000
00001000
00000000
00100000
00000000
,
00010000
01000000
00000000
10000000
01000000
00000000
00100000
00001000
,
01000000
00010000
00000000
00001000
00010000
00000000
00000010
00000000
,
00001000
00000100
00000000
00000001
00000100
00000000
00000010
00010000
,
00000100
00001000
00000000
00010000
00001000
00000000
01000000
00000000
,
00010000
01000000
00000000
10000000
01000000
00000000
01000000
00100000
,
00001000
00010000
00000000
00000010
00001000
00000000
00000001
00000000
,
00001000
00000100
00000000
00010000
00001000
00000000
00100000
00000000
,
10000000
01000000
00000000
00010000
10000000
00000000
00100000
00000000
,
01000000
00001000
00000000
00010000
00000100
00000000
00001000
00000000
,
00001000
01000000
00000000
00010000
10000000
00000000
01000000
00000000
,
10000000
00010000
00000000
01000000
00001000
00000000
00010000
00000000
,
00000010
00000100
00000000
00000001
00001000
00000000
00000100
00000000
,
00010100
00101000
00010010
01001000
,
00011000
00000010
00011000
01000000
,
01010000
00010100
00001010
00000101
,
00010000
00000000
00000000
00000000
;

//---------------dance-single - ----------------
#NOTES:
     dance-single:
     :
     Challenge:
     15:
     0.770609,1.042341,0.129557,0.035334,0.294447,458.000000,447.000000,11.000000,3.000000,0.000000,0.000000,0.770609,1.042341,0.129557,0.035334,0.294447,458.000000,447.000000,11.000000,3.000000,0.000000,0.000000:
0000
0000
0000
0000
,
0000
0000
0000
0000
,
0000
0000
0000
0000
,
0000
0000
0000
0000
,
0000
0000
0000
0000
,
0000
0000
0000
0000
,
0000
0000
0000
0000
,
0010
1000
0010
1000
0100
1000
0100
0010
,
0100
1000
0100
1000
0100
0000
1000
0000
1001
0000
0100
0000
1001
0000
0000
0000
,
0010
0100
1000
0100
0010
0100
0001
0100
,
0010
0000
1000
0000
0001
0000
0010
0000
0100
0000
1000
0000
0001
0000
0100
0010
,
1000
0000
0001
0000
0100
0000
1000
0000
0100
0000
0010
0000
1000
0000
0100
0010
,
0001
0000
1000
0000
0100
0000
0001
0000
0100
0000
1000
0000
0001
0000
0100
0010
,
1000
0000
0001
0000
0100
0000
0010
0000
0100
0000
0001
0000
1000
0000
0001
0100
,
0001
0000
1000
0000
0100
0000
0010
0000
0100
0000
1000
0000
0001
0000
1000
0010
,
0100
0000
0010
1000
0100
1000
0010
0100
0010
1000
0100
1000
0100
1000
0010
0100
,
0010
0100
0010
0100
0010
0000
0100
0000
0010
0000
1000
0000
0100
0000
0010
0000
,
1002
0100
1000
0100
,
1000
0100
1000
0103
,
2001
0100
0001
0100
,
0001
0100
0001
3100
,
1000
0001
0100
0001
1000
0100
1000
0001
,
0100
0001
1000
0100
1000
0001
0100
0001
,
0010
0001
0010
0001
0010
0001
0010
0100
,
1000
0100
1000
0100
1000
0100
1000
0000
,
1001
0100
0001
0100
1001
0100
1000
0100
,
1001
1000
0100
1000
1000
0010
0100
0001
,
0101
0100
0001
0100
0100
0010
0010
1000
,
0010
0100
0010
1000
0100
0010
0001
0010
,
0100
1000
1000
0010
0100
0010
0100
0001
,
1000
0001
0100
0010
1000
0100
0010
0001
,
1000
0001
1000
0001
0100
0010
0100
0010
,
1000
0100
0001
0100
1000
0100
0001
0000
,
0110
0100
0010
0100
1000
0100
1000
0010
,
0100
0100
0010
1000
0001
0100
0001
0001
,
1000
0100
1000
0100
0010
0100
0010
0100
,
1000
0100
0001
0100
1000
0100
0001
0100
,
1000
0001
1000
0001
0010
0001
1000
0001
,
0001
1000
0001
1000
0010
0100
0001
0100
,
0010
0010
0100
0010
1000
0100
0010
0100
,
0100
1000
0100
0010
0001
0100
0010
1001
,
1000
0100
1000
0100
1000
0010
1000
0010
,
0100
0001
0100
0001
0010
0001
0010
0001
,
1000
0100
1000
0100
1000
0010
1000
0010
,
0100
0001
0100
0001
0010
0001
0010
0001
,
1000
0100
1000
0100
0010
0100
0010
0100
,
1000
0100
0001
0100
1000
0100
0010
0100
,
1000
0100
1000
0010
0100
0010
0100
0001
,
0100
0001
0100
0001
0010
0001
0010
0001
,
1000
0000
0001
1000
0100
0000
1000
0001
1000
0000
0010
0000
0100
0000
0001
0000
,
0010
0000
0001
1000
0100
0000
0010
0100
0010
0000
0001
0000
0100
0000
0010
0000
,
1000
0000
0010
1000
0100
0000
1000
0100
1000
0000
0010
0000
0100
0000
0001
0000
,
0010
0000
0001
1000
0100
0000
1000
0100
0010
0000
0100
0000
1000
0000
0010
0000
,
1000
0000
0100
1000
0100
0000
0100
1000
0010
0000
0100
0001
0010
0000
0100
0010
,
0001
0000
0100
0010
0100
0000
0010
1000
0010
0000
0100
0001
0010
0000
0100
1000
,
0100
0000
1000
0010
1000
0000
0001
1000
0010
0000
0100
0010
1000
0000
0100
1000
,
0001
0000
0100
0010
1000
0000
0100
0010
0001
0000
0100
0001
0010
0000
0100
1000
,
0100
1000
0100
1000
0010
0100
0010
0100
0001
0010
0001
0010
0001
1000
0001
1000
,
0100
1000
0010
0100
0001
0000
0100
0000
0001
0000
0010
0000
0102
0000
0000
0000
,
0013
0000
0000
0000
;

//---------------dance-single - ----------------
#NOTES:
     dance-single:
     :
     Beginner:
     3:
     0.171620,0.208468,0.023556,0.000000,0.000000,102.000000,100.000000,2.000000,0.000000,0.000000,0.000000,0.171620,0.208468,0.023556,0.000000,0.000000,102.000000,100.000000,2.000000,0.000000,0.000000,0.000000:
// measure 0
0000
0000
0000
0000
,  // measure 1
0000
0000
0000
0000
,  // measure 2
0000
0000
0000
0000
,  // measure 3
0000
0000
0000
0000
,  // measure 4
0000
0000
0000
0000
,  // measure 5
0000
0000
0000
0000
,  // measure 6
0000
0000
0000
0000
,  // measure 7
1000
1000
0000
0000
,  // measure 8
0100
0100
0000
0000
,  // measure 9
0010
0010
0000
0000
,  // measure 10
0001
0001
0000
0000
,  // measure 11
0010
0000
0010
0000
,  // measure 12
0100
0000
0010
0000
,  // measure 13
1000
0000
0010
0000
,  // measure 14
0100
0000
1000
0000
,  // measure 15
0010
0000
0001
0000
,  // measure 16
0100
0000
0100
0000
,  // measure 17
1001
0000
0000
0000
,  // measure 18
0000
0000
0000
0000
,  // measure 19
0110
0000
0000
0000
,  // measure 20
0000
0000
0000
0000
,  // measure 21
0001
0000
0001
0000
,  // measure 22
0100
0000
0001
0000
,  // measure 23
0100
0000
0100
0000
,  // measure 24
0001
0000
0010
0000
,  // measure 25
1000
0000
1000
0000
,  // measure 26
0100
0000
0100
0000
,  // measure 27
0010
0000
0010
0000
,  // measure 28
0001
0000
0001
0000
,  // measure 29
0010
0000
0010
0000
,  // measure 30
0100
0000
0100
0000
,  // measure 31
0010
0000
0010
0000
,  // measure 32
0100
0000
0100
0000
,  // measure 33
1000
0000
0010
0000
,  // measure 34
0001
0000
0100
0000
,  // measure 35
0010
0000
0010
0000
,  // measure 36
0100
0000
0100
0000
,  // measure 37
0001
0000
0010
0000
,  // measure 38
0100
0000
1000
0000
,  // measure 39
0100
0000
0100
0000
,  // measure 40
0010
0000
0010
0000
,  // measure 41
1000
0000
0100
0000
,  // measure 42
0010
0000
0001
0000
,  // measure 43
0010
0000
0100
0000
,  // measure 44
0001
0000
1000
0000
,  // measure 45
0010
0000
0100
0000
,  // measure 46
0010
0000
0100
0000
,  // measure 47
0010
0000
0001
0000
,  // measure 48
1000
0000
0100
0000
,  // measure 49
0100
0100
0000
0000
,  // measure 50
0010
0010
0000
0000
,  // measure 51
1000
1000
0000
0000
,  // measure 52
0001
0001
0000
0000
,  // measure 53
1000
1000
0000
0000
,  // measure 54
0010
0010
0000
0000
,  // measure 55
0100
0100
0000
0000
,  // measure 56
0001
0000
0001
0000
,  // measure 57
1000
0000
1000
0000
,  // measure 58
0100
0100
0100
0000
,  // measure 59
0100
0000
0000
0000
;
