#TITLE:BANZAI;
#SUBTITLE:;
#ARTIST:MISA;
#TITLETRANSLIT:;
#SUBTITLETRANSLIT:;
#ARTISTTRANSLIT:;
#GENRE:;
#CREDIT:;
#BANNER:;
#BACKGROUND:;
#LYRICSPATH:;
#CDTITLE:;
#MUSIC:BANZAI.ogg;
#OFFSET:-1.060000;
#SAMPLESTART:57.499977;
#SAMPLELENGTH:12.000000;
#SELECTABLE:YES;
#BPMS:0.000000=135.899994
;
#STOPS:
;
#BGCHANGES:;
#KEYSOUNDS:;
#ATTACKS:;

//---------------dance-single - ----------------
#NOTES:
     dance-single:
     :
     Hard:
     10:
     0.444758,0.494466,0.194581,0.080122,0.000000,272.000000,255.000000,17.000000,7.000000,0.000000,0.000000,0.444758,0.494466,0.194581,0.080122,0.000000,272.000000,255.000000,17.000000,7.000000,0.000000,0.000000:
0000
0000
0000
0000
,
0000
0000
0000
0000
,
0000
0000
0000
0000
,
0000
0000
0000
0000
,
1000
0001
1000
0001
,
0100
0010
0100
0010
0000
0100
0010
0100
,
0000
0001
0100
0001
0010
0001
0100
0001
,
1000
0001
0100
0100
0000
0010
1000
0010
,
0000
1000
0100
1000
0000
0001
0100
0001
,
1000
0100
0100
0100
0000
1000
0001
0100
,
0000
0001
1000
0100
0000
1000
0100
1000
,
0100
0100
1000
0010
0000
0100
0001
0100
,
0000
0001
0010
0001
0000
0100
0001
0100
,
0010
0100
0010
1000
0000
1000
0100
1000
,
0000
1000
0001
0100
0000
0001
0100
0001
,
0100
0001
1000
0200
0000
0000
0300
0000
,
1001
0110
1001
0110
,
1000
0001
0100
0010
0000
1000
0001
0100
,
0000
0010
0000
1000
0000
0001
0100
0010
,
1000
0001
0100
0020
0100
0000
0130
0000
,
1010
1100
0011
0101
,
1000
0100
0010
0001
0000
1000
0100
0010
,
0000
0001
0000
1000
0000
0100
0010
0001
,
1000
0100
0010
0002
1000
0000
1003
0000
,
1000
0100
1000
0001
,
0100
0010
1000
0100
,
1000
0010
0100
0001
,
0100
0010
1000
0100
,
1000
0001
0100
0010
,
1000
0001
0100
0010
,
1000
0001
1000
0001
0100
0010
0100
0010
,
1000
0001
0100
0010
1000
0010
0100
0010
,
1001
0110
1001
0110
,
1000
0001
0100
0010
0000
1000
0001
0100
,
0000
0010
0000
1000
0000
0001
0100
0010
,
1000
0001
0100
0020
0100
0000
0130
0000
,
1010
1100
0011
0101
,
1000
0100
0010
0001
0000
1000
0100
0010
,
0000
0001
0000
1000
0000
0100
0010
0001
,
1000
0100
0010
0002
0000
1000
1000
1003
,
0000
1000
0100
1000
0000
0001
0100
0001
,
1000
0100
0100
0100
0000
1000
0001
0100
,
0000
0001
1000
0100
0000
1000
0100
1000
,
0100
0100
1000
0010
0000
0100
0001
0100
,
0000
0001
0010
0001
0000
0100
0001
0100
,
0010
0100
0010
1000
0000
1000
0100
1000
,
0000
1000
0001
0100
0000
0001
0100
0001
,
0100
0100
0010
0010
0100
0010
0220
0000
,
0330
0000
0000
0000
;

//---------------dance-single - ----------------
#NOTES:
     dance-single:
     :
     Medium:
     7:
     0.327028,0.357114,0.137352,0.022892,0.000000,200.000000,188.000000,12.000000,2.000000,0.000000,0.000000,0.327028,0.357114,0.137352,0.022892,0.000000,200.000000,188.000000,12.000000,2.000000,0.000000,0.000000:
0000
0000
0000
0000
,
0000
0000
0000
0000
,
0000
0000
0000
0000
,
0000
0000
0000
0000
,
1000
1000
0001
0001
,
1000
0001
1000
0001
,
0100
0010
0100
0010
,
0100
0010
0100
0010
0100
0010
0100
0010
,
0000
1000
0000
1000
0000
0100
0000
1000
,
0000
0001
0000
0100
0000
0010
0000
1000
,
0000
0100
0000
1000
0000
0010
0000
0100
,
0000
0001
0000
0100
0000
0010
0000
1000
,
0000
0100
0000
1000
0000
0010
0000
0100
,
0000
0001
0000
0100
0000
0010
0000
1000
,
0000
0100
0000
1000
0000
0010
0000
0100
,
0000
0001
0000
0010
0000
0100
0000
1000
,
1000
0100
1000
0100
,
1100
1100
1100
0000
,
0001
0010
0001
0010
,
0011
0011
0011
0000
,
0001
0100
0001
0100
,
0101
0101
0101
0000
,
0010
1000
0010
1000
,
1010
1010
1010
0000
,
1000
1000
0100
1000
,
0010
0100
0001
0100
,
0010
1000
0010
1000
,
0100
1000
0010
0100
,
0001
0100
0010
0100
,
0001
0100
0010
1000
,
0100
1000
0010
0100
,
0001
0000
0100
0000
0010
0100
0010
0000
,
1000
1000
0001
0001
,
1000
0001
1000
0001
,
0100
0010
1000
0100
,
1000
0100
1000
0010
1000
0001
1000
0001
,
0100
0010
1000
0001
,
1000
0001
0100
0001
,
0100
0010
0100
0001
,
0100
0010
0100
0010
0100
0010
0100
0010
,
0000
1000
0000
1000
0000
0100
0000
1000
,
0000
0001
0000
0100
0000
0010
0000
1000
,
0000
0100
0000
1000
0000
0010
0000
0100
,
0000
0001
0000
0100
0000
0010
0000
1000
,
0000
0100
0000
1000
0000
0010
0000
0100
,
0000
0001
0000
0100
0000
0010
0000
1000
,
0000
0100
0000
1000
0000
0010
0000
0100
,
0001
0100
0010
0100
0001
0200
0020
0000
,
0330
0000
0000
0000
;

//---------------dance-single - ----------------
#NOTES:
     dance-single:
     :
     Easy:
     4:
     0.297595,0.329644,0.171690,0.068676,0.000000,182.000000,167.000000,15.000000,6.000000,0.000000,0.000000,0.297595,0.329644,0.171690,0.068676,0.000000,182.000000,167.000000,15.000000,6.000000,0.000000,0.000000:
// measure 0
0000
0000
0000
0000
,  // measure 1
0000
0000
0000
0000
,  // measure 2
0000
0000
0000
0000
,  // measure 3
0000
0000
0000
0000
,  // measure 4
1000
0100
0010
0001
,  // measure 5
1000
0001
1001
0000
,  // measure 6
1000
1000
0001
0001
,  // measure 7
0220
0000
0000
0330
,  // measure 8
1000
0100
1000
0010
,  // measure 9
0100
0001
0100
0010
,  // measure 10
1000
0100
1000
0001
,  // measure 11
0100
0010
0100
0001
,  // measure 12
0100
0010
1000
0010
,  // measure 13
0100
0010
1000
0100
,  // measure 14
1000
0010
1000
0010
,  // measure 15
1000
0100
0010
0001
,  // measure 16
1001
0100
0010
0100
,  // measure 17
0010
0100
0000
0010
,  // measure 18
1001
1000
0100
1000
,  // measure 19
0010
0100
0001
0100
,  // measure 20
1001
0100
0001
0100
,  // measure 21
0010
1000
0000
0010
,  // measure 22
1001
1000
0100
1000
,  // measure 23
0010
0100
0002
0103
,  // measure 24
0010
1000
0100
1000
,  // measure 25
1000
0010
0100
0100
,  // measure 26
0001
0100
0001
0010
,  // measure 27
0001
0001
0100
0010
,  // measure 28
1000
1000
0010
0100
,  // measure 29
0001
0001
0100
0010
,  // measure 30
1000
1000
1000
1000
,  // measure 31
0200
1000
1000
1300
,  // measure 32
1001
0100
0010
0100
,  // measure 33
0101
0010
0001
0100
,  // measure 34
0101
0010
1000
0100
,  // measure 35
1100
1000
0010
0100
,  // measure 36
0110
0010
1000
0100
,  // measure 37
1100
0100
1000
0010
,  // measure 38
0110
0001
0100
0010
,  // measure 39
0101
0100
0010
1000
,  // measure 40
1000
0100
1000
0010
,  // measure 41
0100
0001
0100
0010
,  // measure 42
1000
0100
1000
0001
,  // measure 43
0100
0010
0100
0001
,  // measure 44
0100
0010
1000
0001
,  // measure 45
0100
0010
1000
0100
,  // measure 46
1000
0001
1000
0010
,  // measure 47
2002
0000
0000
0000
,  // measure 48
3003
0000
0000
0000
;

//---------------dance-single - ----------------
#NOTES:
     dance-single:
     :
     Beginner:
     2:
     0.160244,0.191291,0.000000,0.011446,0.000000,98.000000,98.000000,0.000000,1.000000,0.000000,0.000000,0.160244,0.191291,0.000000,0.011446,0.000000,98.000000,98.000000,0.000000,1.000000,0.000000,0.000000:
// measure 0
0000
0000
0000
0000
,  // measure 1
0000
0000
0000
0000
,  // measure 2
0000
0000
0000
0000
,  // measure 3
0000
0000
0000
0000
,  // measure 4
0000
0000
0000
0000
,  // measure 5
0000
0000
0000
0000
,  // measure 6
0000
0000
0000
0000
,  // measure 7
0000
0000
0000
0000
,  // measure 8
1000
0000
1000
0000
,  // measure 9
1000
1000
1000
0000
,  // measure 10
0001
0000
0001
0000
,  // measure 11
0001
0001
0001
0000
,  // measure 12
1000
0000
1000
0000
,  // measure 13
1000
1000
1000
0000
,  // measure 14
0001
0000
0001
0000
,  // measure 15
0001
0001
0001
0000
,  // measure 16
0100
0000
0100
0000
,  // measure 17
0100
0100
0100
0000
,  // measure 18
0010
0000
0010
0000
,  // measure 19
0010
0010
0010
0000
,  // measure 20
0100
0000
0100
0000
,  // measure 21
0100
0100
0100
0000
,  // measure 22
0010
0000
0010
0000
,  // measure 23
0010
0010
0010
0000
,  // measure 24
1000
1000
0000
0000
,  // measure 25
0001
0001
0000
0000
,  // measure 26
0100
0100
0000
0000
,  // measure 27
0010
0010
0000
0000
,  // measure 28
1000
1000
0000
0000
,  // measure 29
0001
0001
0000
0000
,  // measure 30
0100
0100
0100
0100
,  // measure 31
0200
0000
0300
0000
,  // measure 32
0010
0000
1000
0000
,  // measure 33
0010
0000
1000
0000
,  // measure 34
0001
0000
0100
0000
,  // measure 35
0001
0000
0100
0000
,  // measure 36
0010
0000
1000
0000
,  // measure 37
0010
0000
1000
0000
,  // measure 38
0001
0000
0100
0000
,  // measure 39
0001
0000
0100
0000
,  // measure 40
0010
0010
0010
0000
,  // measure 41
1000
1000
1000
0000
,  // measure 42
0001
0001
0001
0000
,  // measure 43
0100
0100
0100
0000
,  // measure 44
0010
0010
0010
0000
,  // measure 45
1000
1000
1000
0000
,  // measure 46
0001
0001
0001
0000
,  // measure 47
0100
0100
0100
0100
;
