#VERSION:0.83;
#TITLE:BANZAI;
#SUBTITLE:(Red Monster Mocchi's Edit);
#ARTIST:MISA;
#TITLETRANSLIT:;
#SUBTITLETRANSLIT:;
#ARTISTTRANSLIT:;
#GENRE:;
#ORIGIN:;
#CREDIT:;
#BANNER:BANZAI.png;
#BACKGROUND:BANZAI-bg.png;
#PREVIEWVID:;
#JACKET:BANZAI-jacket.png;
#CDIMAGE:;
#DISCIMAGE:;
#LYRICSPATH:;
#CDTITLE:;
#MUSIC:Banzai (Red Monster Mocchi's Edit).ogg;
#OFFSET:-0.190000;
#SAMPLESTART:72.980049;
#SAMPLELENGTH:12.000000;
#SELECTABLE:YES;
#DISPLAYBPM:145.000000;
#BPMS:0.000=145.053,
208.000=144.053,
209.000=145.033;
#STOPS:;
#DELAYS:;
#WARPS:;
#TIMESIGNATURES:0.000=4=4;
#TICKCOUNTS:0.000=4;
#COMBOS:0.000=1;
#SPEEDS:0.000=1.000=0.000=0;
#SCROLLS:0.000=1.000;
#FAKES:;
#LABELS:0.000=Song Start;
#BGCHANGES:;
#KEYSOUNDS:;
#ATTACKS:
;

//---------------dance-single - ----------------
#NOTEDATA:;
#CHARTNAME:;
#STEPSTYPE:dance-single;
#DESCRIPTION:;
#CHARTSTYLE:;
#DIFFICULTY:Challenge;
#METER:14;
#RADARVALUES:0.678339,0.851219,0.112644,0.103979,0.584881,548.000000,535.000000,13.000000,12.000000,0.000000,0.000000,0.000000,0.000000,0.000000,0.678339,0.851219,0.112644,0.103979,0.584881,548.000000,535.000000,13.000000,12.000000,0.000000,0.000000,0.000000,0.000000,0.000000;
#CREDIT:;
#DISPLAYBPM:145.000000;
#NOTES:
// measure 0
0000
0000
0000
0000
,  // measure 1
0000
0000
0000
0000
,  // measure 2
0000
0000
0000
0000
,  // measure 3
0000
0000
0000
0000
,  // measure 4
0000
0000
0000
0000
,  // measure 5
1001
0100
0000
0100
,  // measure 6
1001
0010
0000
0010
,  // measure 7
1001
0100
0000
0100
,  // measure 8
1001
0110
1001
0110
,  // measure 9
1000
0000
0100
0010
0001
0000
0100
0010
1000
0000
0100
0010
0000
0100
0010
0000
,  // measure 10
2002
0000
3003
0000
0220
0000
0330
0000
0001
0000
0100
0010
0000
1000
0100
1000
,  // measure 11
0001
0000
0100
0010
0000
1000
0100
1000
0001
0000
1000
0100
0000
1000
0001
1000
,  // measure 12
0010
0000
0100
0001
0000
0100
0001
0000
1000
0000
0100
0001
0000
0100
1000
0100
,  // measure 13
0001
0000
0100
0010
0000
0100
1000
0100
1000
0000
0010
0100
0000
0010
1000
0100
,  // measure 14
1000
0000
0001
0100
0000
0001
0010
0000
0001
0000
0000
0000
0110
0000
0000
0000
,  // measure 15
0100
0000
1000
0100
0000
0010
0001
0010
0100
0000
1000
0100
0000
1000
0100
0010
,  // measure 16
0001
0000
0000
2000
0000
0000
3001
0000
1000
0000
0001
0000
0100
0000
0000
0000
,  // measure 17
0100
0001
0010
0100
,  // measure 18
1000
0001
0010
0001
0010
0100
1000
0001
,  // measure 19
0100
0010
1000
1000
0001
0010
0001
0010
,  // measure 20
0001
1000
0001
1000
0100
1000
0001
0001
,  // measure 21
0100
0100
0010
1000
0010
1000
0001
0010
,  // measure 22
0100
1000
0001
0001
1000
0100
0100
0010
,  // measure 23
0001
1000
0010
1000
0001
0100
0001
0010
,  // measure 24
0001
1000
0010
1000
0001
0100
0100
0010
,  // measure 25
1000
0010
1000
0001
0010
1000
0100
0001
,  // measure 26
0010
0011
0022
0033
,  // measure 27
0001
0000
1000
0100
0000
0010
0001
0010
0100
0000
1000
0100
0000
0010
0001
0010
,  // measure 28
0001
0000
0000
0001
0000
0000
0001
0000
1000
0000
1000
0000
0100
0000
0010
0000
,  // measure 29
0001
0000
0010
0100
0000
0010
0001
0010
0100
0000
1000
0100
0000
0010
0001
0010
,  // measure 30
0100
0000
0000
0100
0000
0000
0100
0000
1000
0000
0010
0000
0100
0000
0000
0000
,  // measure 31
0010
0000
1000
0010
0000
0100
0010
0100
0001
0000
1000
0010
0000
1000
0100
0010
,  // measure 32
0001
0000
0000
0001
0000
0000
0001
0000
0100
0000
0010
0000
0100
0000
0010
0000
,  // measure 33
1000
0000
0001
0100
0000
0010
1000
0010
1000
0000
0001
0010
0000
0001
0100
0010
,  // measure 34
1000
0100
0001
0010
1000
0100
0001
0010
,  // measure 35
1000
0100
1000
0100
1000
0100
1000
0100
,  // measure 36
0010
0001
0010
0001
0010
0001
0010
0001
,  // measure 37
1000
0100
0001
0100
1000
0100
0001
0100
,  // measure 38
1000
0010
0001
0010
1000
0010
0001
0010
,  // measure 39
1000
0100
0010
0001
1000
0100
0010
0001
,  // measure 40
1000
0100
0010
0001
1000
0100
0010
0001
,  // measure 41
2000
3002
0203
0320
,  // measure 42
1030
0100
1000
0100
0010
0001
0010
0001
1000
0010
1000
0010
0100
0001
0100
0001
,  // measure 43
2000
0001
0001
3001
,  // measure 44
1000
0100
1000
0010
0100
0001
0010
0001
,  // measure 45
0100
0010
1000
0100
0000
0100
0100
0010
,  // measure 46
0001
0010
0001
1000
0010
1000
0100
1000
,  // measure 47
0010
1000
0100
0001
0010
1000
0100
0001
,  // measure 48
0010
0010
0100
0100
0001
0001
1000
1000
,  // measure 49
0001
1000
0001
1000
0000
0100
0100
1000
,  // measure 50
0100
0001
0100
1000
0001
0100
1000
0100
,  // measure 51
0001
1000
0001
1000
0001
1000
0001
1000
0010
0100
0010
0100
0010
0100
0010
0100
,  // measure 52
0001
0000
1000
0100
0000
0010
0001
0010
0100
0000
1000
0100
0000
0010
0001
0010
,  // measure 53
0001
0000
0000
0001
0000
0000
0001
0000
1000
0000
1000
0000
0010
0000
0100
0000
,  // measure 54
0001
0000
0010
0100
0000
0010
0001
0010
0100
0000
1000
0100
0000
0010
0001
0010
,  // measure 55
0100
0000
0000
0100
0000
0000
0100
0000
1000
0000
0010
0000
0100
0000
0000
0000
,  // measure 56
0010
0000
1000
0010
0000
0100
0010
0100
0001
0000
1000
0010
0000
1000
0100
0010
,  // measure 57
0001
0000
0000
0001
0000
0000
0001
0000
0100
0000
0010
0000
0100
0000
0010
0000
,  // measure 58
1000
0000
0001
0100
0000
0010
1000
0010
1000
0000
0001
0010
0000
0001
0100
0010
,  // measure 59
0100
0000
0000
0100
0000
0000
0100
0000
0010
0000
1000
0000
0001
0000
0100
0000
,  // measure 60
0001
0000
1000
0100
0000
0010
0001
0010
0100
0000
1000
0100
0000
0010
0001
0010
,  // measure 61
0001
0000
0000
0001
0000
0000
0001
0000
0001
0000
0100
0000
0010
0000
0100
0000
,  // measure 62
0001
0000
0010
0100
0000
0010
0001
0010
0100
0000
1000
0100
0000
0010
0001
0010
,  // measure 63
0100
0000
0000
0100
0000
0000
0100
0000
1000
0000
0010
0000
0100
0000
0000
0000
,  // measure 64
0010
0000
1000
0010
0000
0100
0010
0100
0001
0000
1000
0010
0000
1000
0100
0010
,  // measure 65
0001
0000
0000
0001
0000
0000
0001
0000
0100
0000
0010
0000
0100
0000
0010
0000
,  // measure 66
1000
0000
0001
0100
0000
0010
1000
0010
1000
0000
0001
0010
0000
0001
0100
0010
,  // measure 67
1000
0001
0100
0001
1000
0100
1000
0001
0100
0000
0100
0000
1001
0000
0000
0000
;
