#VERSION:0.83;
#TITLE:BAMBOOGIE;
#SUBTITLE:;
#ARTIST:BAMBOO;
#TITLETRANSLIT:;
#SUBTITLETRANSLIT:;
#ARTISTTRANSLIT:;
#GENRE:;
#ORIGIN:;
#CREDIT:;
#BANNER:;
#BACKGROUND:DDR CD-bg.JPG;
#PREVIEWVID:;
#JACKET:BAMBOOGIE-jacket.jpg;
#CDIMAGE:;
#DISCIMAGE:;
#LYRICSPATH:;
#CDTITLE:;
#MUSIC:BAMBOOGIE.ogg;
#OFFSET:-0.603000;
#SAMPLESTART:30.579109;
#SAMPLELENGTH:12.000000;
#SELECTABLE:YES;
#BPMS:0.000=127.888;
#STOPS:;
#DELAYS:;
#WARPS:;
#TIMESIGNATURES:0.000=4=4;
#TICKCOUNTS:0.000=4;
#COMBOS:0.000=1;
#SPEEDS:0.000=1.000=0.000=0;
#SCROLLS:0.000=1.000;
#FAKES:;
#LABELS:0.000=Song Start;
#BGCHANGES:;
#KEYSOUNDS:;
#ATTACKS:
;

//---------------dance-single - Nifara----------------
#NOTEDATA:;
#CHARTNAME:Nifara;
#STEPSTYPE:dance-single;
#DESCRIPTION:Nifara;
#CHARTSTYLE:;
#DIFFICULTY:Hard;
#METER:12;
#RADARVALUES:0.410466,0.500684,0.374419,0.398838,0.223837,353.000000,307.000000,46.000000,49.000000,0.000000,0.000000,0.000000,0.000000,0.000000,0.410466,0.500684,0.374419,0.398838,0.223837,353.000000,307.000000,46.000000,49.000000,0.000000,0.000000,0.000000,0.000000,0.000000;
#CREDIT:Nifara;
#NOTES:
0000
0000
0000
0000
,
0000
0000
0000
0000
,
0000
0000
0000
0000
,
0000
0000
0000
0000
0000
0000
0000
0000
0000
0000
0000
0000
0000
1000
0100
1000
,
0200
0010
0010
0010
,
0010
0000
0000
0000
0000
0000
0000
0000
0000
0000
0000
0300
0000
0000
0000
0000
,
2000
0000
0000
0000
0000
0000
0000
0000
0000
0000
3000
0000
0000
0100
1000
0100
,
1000
0000
1000
0000
0000
0000
1000
0001
0000
0000
0000
0000
0000
0100
0010
0100
,
0020
0000
0000
0030
2000
0000
3200
0000
,
0320
0000
0032
0000
0013
0010
0010
0000
,
0001
0000
0000
0000
0010
0000
0000
0000
0100
0000
1000
0000
1000
0100
1000
0100
,
1000
0000
1000
0000
0000
0000
1000
0001
0000
0000
0000
0000
0000
0100
0010
0100
,
0020
0000
0000
0000
0000
0000
0000
0030
,
2010
0000
0000
0010
0000
0000
0010
0000
0000
0000
0010
0000
0000
0000
0010
0000
,
3002
0000
0000
1000
0000
0000
1000
0000
0000
0000
1000
0003
0000
0010
0100
0010
,
0100
0000
0100
0000
0000
0000
0100
0010
0000
0000
0000
0000
0000
0000
0000
0000
,
0220
0000
0330
0000
2002
0000
0000
3003
0000
0000
0000
0000
0000
0000
0000
0000
,
0011
0110
1100
0000
0000
0000
0000
0010
,
0001
0000
0010
0001
0000
0000
0000
0000
0000
0000
1100
0000
0110
0000
0100
0000
,
0010
0000
0001
0010
0000
0000
0000
0000
0000
0000
0110
0000
0110
0000
0000
0000
,
0220
0000
0330
0000
0220
0000
0000
0330
0000
0000
0000
0000
0000
0000
0000
0000
,
1100
0110
0011
0000
0000
0000
0000
0100
,
0010
0000
0001
1000
0000
0000
0000
0000
0000
0000
0100
0000
0010
0000
1000
0000
,
0001
0000
0010
0001
0000
0000
0000
0000
0000
0000
0110
0000
0110
0000
0000
0000
,
2100
0000
0000
0100
0000
0000
0100
0000
0000
0000
0100
0000
3000
0000
0001
0000
,
0012
0000
0000
0010
0000
0000
0010
0000
0000
0000
0010
0000
0003
0000
0010
0000
,
0021
0000
0000
0001
0000
0000
0001
0000
0000
0000
0001
0000
0030
0000
0001
0000
,
1002
0000
0000
1000
0000
0000
1000
0000
0003
0000
1000
0000
0000
0100
1000
0100
,
2000
3200
0320
0032
,
2003
0000
0000
0100
0000
0000
0100
0000
0000
0000
0100
0000
0000
0000
0100
0000
,
0200
0000
0000
0000
0000
0000
0000
0000
0000
0000
0000
3000
0300
1000
0100
1000
,
0100
0000
1000
0000
0000
0000
0010
1000
0000
0000
0000
0000
0000
0100
0001
0100
,
0002
0100
0100
0100
,
0200
0000
0000
0000
0000
0000
0000
0303
,
0220
0000
0000
0000
0000
0000
0000
0000
0000
0000
0000
0000
0330
1000
0100
1000
,
0100
0000
0001
0000
0000
0000
1000
0100
0000
0000
0000
0000
0000
0010
0100
0010
,
0100
0100
0000
0100
0100
0000
0001
0001
,
0000
0010
0010
0000
1000
1000
0000
0010
,
0010
0000
0001
0001
0000
0100
0100
0000
,
1000
0000
1000
0000
0000
0000
1000
0001
0000
0000
0000
0000
0000
0000
0000
0000
,
2002
0000
3003
0000
0202
0000
0000
0000
0000
0303
0000
0000
0000
0000
0000
0000
,
1001
1001
0110
0000
0000
0000
0000
0100
,
0010
0000
0100
0001
0000
0000
0000
0000
0000
0000
0011
0000
0110
0000
0100
0000
,
0010
0000
0100
0010
0000
0000
0000
0000
0000
0000
0101
0000
0110
0000
0000
0000
,
2020
0000
0000
0000
0000
0000
3030
0000
0000
0000
0000
0000
0220
0000
0000
0000
0000
0000
0000
0000
0000
0000
0000
0000
0000
0330
0000
0000
0000
0000
0000
0000
0000
0000
0000
0000
0000
0000
0000
0000
0000
0000
0000
0000
0000
0000
0000
0000
,
0011
1100
0110
0000
0000
0000
0000
0010
,
0001
0000
0100
0010
0000
0000
0000
0000
0000
0000
1000
0000
0001
0000
0100
0000
,
0010
0000
0100
0010
0000
0000
0000
0000
0000
0000
1000
0000
0001
0000
0000
0000
,
0220
0330
2002
0000
3003
0000
0000
0000
,
0101
1010
0110
0000
0000
0000
0000
0100
,
0001
0000
1000
0010
0000
0000
0000
0000
0000
0000
0100
0000
0001
0000
0010
0000
,
0001
0000
0100
0010
0000
0000
0000
0000
0000
0000
0100
0000
0010
0000
0000
0000
,
2002
3003
0220
0000
0330
0000
0000
0000
,
1001
1001
0110
0000
0000
0000
0000
0100
,
0010
0000
0001
0010
0000
0000
0000
0000
0000
0000
0100
0000
0010
0000
1000
0000
,
0100
0000
0010
0100
0000
0000
0000
0000
0000
0000
0010
0000
0001
0000
1000
0000
,
0100
0000
0010
0100
0000
0000
1000
0000
0001
0000
0100
0000
0001
0000
0100
0000
,
0010
0000
0100
0010
0000
0000
1000
0000
0001
0000
0100
0000
0001
0000
1000
0000
,
0010
0000
0100
0010
0000
0000
1000
0000
0001
0000
0100
0000
0010
0000
1000
0000
,
0001
0000
0100
0001
0000
0000
1000
0000
0010
0000
0100
0000
0010
0000
1000
0000
,
0001
0000
0100
0010
0000
0000
0001
0000
1000
0000
0100
0000
1000
0000
0100
0000
,
0010
0000
0100
0010
0000
0000
0100
0000
0010
0000
0001
0000
0100
0000
0010
0000
,
0100
0001
0100
0010
1000
0010
0100
0001
,
0010
0000
0001
0000
0100
0000
0010
0000
1000
0000
0010
0000
1000
0001
0100
0001
,
0020
0000
0000
0030
;

//---------------dance-single - ----------------
#NOTEDATA:;
#CHARTNAME:;
#STEPSTYPE:dance-single;
#DESCRIPTION:;
#CHARTSTYLE:;
#DIFFICULTY:Medium;
#METER:8;
#RADARVALUES:0.381396,0.368925,0.610466,0.472094,0.000000,328.000000,253.000000,75.000000,58.000000,0.000000,0.000000,0.000000,0.000000,0.000000,0.381396,0.368925,0.610466,0.472094,0.000000,328.000000,253.000000,75.000000,58.000000,0.000000,0.000000,0.000000,0.000000,0.000000;
#CREDIT:;
#NOTES:
0000
0000
0000
0000
,
0000
0000
0000
0000
,
0000
0000
0000
0000
,
0000
0000
0000
0000
,
1000
1002
1003
2001
,
3001
1002
1003
2001
,
3001
0120
0130
0210
,
0310
0120
0130
0210
,
0310
0201
0301
1020
,
1030
0201
0301
1020
,
1030
1200
1300
0021
,
0031
1200
1300
0021
,
0031
0201
0301
2010
,
3010
2100
3100
0012
,
0013
2001
3001
0120
,
0130
1002
1003
0210
,
0310
0101
0100
0010
,
1000
1100
1000
0001
,
0100
0000
0101
0000
0001
0100
0001
0000
,
0100
0000
0110
0000
0010
1000
0010
0000
,
1000
0000
1100
0000
1000
0100
1000
0000
,
0001
0000
0101
0000
0001
0100
0001
0000
,
0100
0000
0110
0000
0100
0010
0100
0000
,
0001
0000
1001
0000
0001
1000
0100
0000
,
1000
1000
1000
1000
,
1000
1000
1000
0100
,
1000
1000
0100
0100
,
1000
0100
1000
0100
,
1001
0100
0100
0100
,
0001
0100
0100
0100
,
0001
0100
0001
0001
,
0100
0001
0100
0001
,
0012
0013
0102
0103
,
2010
3010
2100
3100
,
1020
1030
0210
0310
,
0210
0301
0102
0013
,
0012
0103
2010
3100
,
0012
0103
2010
3100
,
0012
0103
2010
3100
,
0012
0103
2010
0100
,
3010
0101
0100
0010
,
1000
1100
1000
0001
,
0100
0000
0101
0000
0001
0100
0001
0000
,
0100
0000
0110
0000
0010
1000
0010
0000
,
1000
0000
1100
0000
1000
0100
1000
0000
,
0001
0000
0101
0000
0001
0100
0001
0000
,
0100
0000
0110
0000
0100
0010
0100
0000
,
0001
0000
1001
0000
0001
1000
0100
0000
,
1000
1000
1000
1000
,
1000
1000
1000
0100
,
1000
1000
0100
0100
,
1000
0100
1000
0100
,
1001
0100
0100
0100
,
0001
0100
0100
0100
,
0001
0100
0001
0001
,
0100
0001
0100
0001
,
0012
0013
0102
0103
,
2010
3010
2100
3100
,
1020
1030
0210
0310
,
0210
0301
0102
0013
,
0012
0103
2010
3100
,
0012
0103
2010
3100
,
0012
0103
2010
3100
,
0012
0103
2010
3100
,
2002
0000
0000
3003
;

//---------------dance-single - ----------------
#NOTEDATA:;
#CHARTNAME:;
#STEPSTYPE:dance-single;
#DESCRIPTION:;
#CHARTSTYLE:;
#DIFFICULTY:Easy;
#METER:5;
#RADARVALUES:0.225582,0.289869,0.113954,0.024419,0.000000,194.000000,180.000000,14.000000,3.000000,0.000000,0.000000,0.000000,0.000000,0.000000,0.225582,0.289869,0.113954,0.024419,0.000000,194.000000,180.000000,14.000000,3.000000,0.000000,0.000000,0.000000,0.000000,0.000000;
#CREDIT:;
#NOTES:
// measure 0
0000
0000
0000
0000
,  // measure 1
0000
0000
0000
0000
,  // measure 2
0000
0000
0000
0000
,  // measure 3
0000
0000
0000
0000
,  // measure 4
1000
0100
0001
0100
,  // measure 5
1000
0000
1000
0000
,  // measure 6
1000
0100
0001
0100
,  // measure 7
1000
0000
1000
1001
,  // measure 8
0001
0100
1000
0100
,  // measure 9
0001
0000
0001
0000
,  // measure 10
0001
0100
1000
0100
,  // measure 11
0001
0000
0001
1001
,  // measure 12
1000
0100
1000
1000
,  // measure 13
0001
0100
0001
0001
,  // measure 14
1000
1000
0001
0001
,  // measure 15
1002
0100
0010
0103
,  // measure 16
1000
1000
0000
0000
,  // measure 17
0001
0000
0001
0000
0000
0000
0000
0100
,  // measure 18
0010
0000
0010
0000
0000
0000
0000
0010
,  // measure 19
0100
0100
0000
0000
,  // measure 20
0010
1000
0000
0000
,  // measure 21
0001
0000
0100
0000
0000
0000
0000
0010
,  // measure 22
1000
0000
1000
0000
0000
0000
0000
0001
,  // measure 23
0100
0100
0000
0000
,  // measure 24
1001
0100
0000
0100
,  // measure 25
1001
0100
0000
0100
,  // measure 26
1001
0010
0000
0010
,  // measure 27
1001
0010
0000
0010
,  // measure 28
0100
0100
0100
0000
,  // measure 29
0100
0100
0100
0000
,  // measure 30
0010
0010
0010
0000
,  // measure 31
0010
0010
0010
0100
,  // measure 32
0001
1001
0001
0001
,  // measure 33
1000
1001
1000
1000
,  // measure 34
0001
0100
0010
1000
,  // measure 35
1000
0100
0010
0001
,  // measure 36
1000
0000
0000
0001
0000
0000
0100
0000
,  // measure 37
0000
0010
0000
0000
1000
0000
0000
0100
,  // measure 38
0000
0000
0010
0000
0000
0001
0000
0000
,  // measure 39
0100
0100
0100
0000
,  // measure 40
1000
1000
0000
0000
,  // measure 41
0001
0000
0001
0000
0000
0000
0000
0100
,  // measure 42
0010
0000
0010
0000
0000
0000
0000
0010
,  // measure 43
0100
0100
0000
0000
,  // measure 44
0010
1000
0000
0000
,  // measure 45
0001
0000
0100
0000
0000
0000
0000
0010
,  // measure 46
1000
0000
1000
0000
0000
0000
0000
0001
,  // measure 47
0100
0100
0000
0000
,  // measure 48
0010
0010
0000
0000
,  // measure 49
0100
0000
0100
0000
0000
0000
0000
1000
,  // measure 50
0010
0000
0010
0000
0000
0000
0000
0001
,  // measure 51
0100
0100
0000
0000
,  // measure 52
0100
0001
0000
0000
,  // measure 53
0100
0000
0010
0000
0000
0000
0000
0010
,  // measure 54
1000
0000
0001
0000
0000
0000
0000
0001
,  // measure 55
0100
0010
0000
0000
,  // measure 56
1001
0100
0000
0100
,  // measure 57
1001
0100
0000
0100
,  // measure 58
1001
0010
0000
0010
,  // measure 59
1001
0010
0000
0010
,  // measure 60
0100
0100
0100
0000
,  // measure 61
0100
0100
0100
0000
,  // measure 62
0010
0010
0010
0000
,  // measure 63
0010
0010
0010
0010
,  // measure 64
2002
0000
0000
3003
;

//---------------dance-single - ----------------
#NOTEDATA:;
#CHARTNAME:;
#STEPSTYPE:dance-single;
#DESCRIPTION:;
#CHARTSTYLE:;
#DIFFICULTY:Beginner;
#METER:3;
#RADARVALUES:0.153489,0.184462,0.065116,0.008140,0.000000,132.000000,124.000000,8.000000,1.000000,0.000000,0.000000,0.000000,0.000000,0.000000,0.153489,0.184462,0.065116,0.008140,0.000000,132.000000,124.000000,8.000000,1.000000,0.000000,0.000000,0.000000,0.000000,0.000000;
#CREDIT:;
#NOTES:
0000
0000
0000
0000
,
0000
0000
0000
0000
,
0000
0000
0000
0000
,
0000
0000
0000
0000
,
1000
0000
0001
0000
,
1000
0000
1000
0000
,
1000
0000
0001
0000
,
1000
0000
1000
0000
,
0001
0000
1000
0000
,
0001
0000
0001
0000
,
0001
0000
1000
0000
,
0001
0000
0001
0000
,
1000
0000
1000
0000
,
0001
0000
0001
0000
,
1000
0000
0001
0000
,
1000
0000
0010
0000
,
1000
1000
0000
0000
,
0001
0001
0000
0000
,
0010
0010
0000
0000
,
0100
0100
0000
0000
,
0010
0010
0000
0000
,
0001
0001
0000
0000
,
1000
1000
0000
0000
,
0100
0100
0000
0000
,
1001
0000
0000
0000
,
1001
0000
0000
0000
,
1001
0000
0000
0000
,
1001
0000
0000
0000
,
0100
0100
0100
0000
,
0100
0100
0100
0000
,
0010
0010
0010
0000
,
0010
0010
0010
0000
,
0001
0000
0001
0000
,
1000
0000
1000
0000
,
0001
0000
0010
0000
,
1000
0000
0010
0000
,
1000
1000
0000
0100
,
0100
0000
1000
1000
,
0000
0001
0001
0000
,
0100
0100
0100
0000
,
1000
1000
0000
0000
,
0001
0001
0000
0000
,
0010
0010
0000
0000
,
0100
0100
0000
0000
,
0010
0010
0000
0000
,
0001
0001
0000
0000
,
1000
1000
0000
0000
,
0100
0100
0000
0000
,
0010
0010
0000
0000
,
0100
0100
0000
0000
,
0010
0010
0000
0000
,
0100
0100
0000
0000
,
0001
0001
0000
0000
,
0100
0100
0000
0000
,
1000
1000
0000
0000
,
0100
0100
0000
0000
,
1001
0000
0000
0000
,
1001
0000
0000
0000
,
1001
0000
0000
0000
,
1001
0000
0000
0000
,
0100
0100
0100
0000
,
0100
0100
0100
0000
,
0010
0010
0010
0000
,
0010
0010
0010
0000
,
0020
0000
0000
0030
;
