#TITLE:BABY BOY;
#SUBTITLE:;
#ARTIST:ME & MY;
#TITLETRANSLIT:;
#SUBTITLETRANSLIT:;
#ARTISTTRANSLIT:;
#GENRE:;
#CREDIT:;
#BANNER:;
#BACKGROUND:DDR CD-bg.JPG;
#LYRICSPATH:;
#CDTITLE:;
#MUSIC:Baby boy.ogg;
#OFFSET:-0.180000;
#SAMPLESTART:46.020008;
#SAMPLELENGTH:12.000000;
#SELECTABLE:YES;
#BPMS:0.000000=136.000000
;
#STOPS:
;
#BGCHANGES:;
#KEYSOUNDS:;
#ATTACKS:;

//---------------dance-single - ----------------
#NOTES:
     dance-single:
     :
     Hard:
     11:
     0.457705,0.506296,0.447061,0.119216,0.000000,215.000000,185.000000,30.000000,8.000000,0.000000,0.000000,0.457705,0.506296,0.447061,0.119216,0.000000,215.000000,185.000000,30.000000,8.000000,0.000000,0.000000:
// measure 0
0000
0000
0000
0000
,  // measure 1
0000
0000
0000
0000
,  // measure 2
0000
0000
0000
0000
,  // measure 3
0000
0000
0000
0000
,  // measure 4
1000
0001
0101
0000
0001
0100
0110
0000
,  // measure 5
0010
1000
1100
0000
1000
0100
1100
0000
,  // measure 6
0001
0100
0101
0000
0010
1000
1010
0000
,  // measure 7
1000
0100
1100
0000
1000
0001
0101
0000
,  // measure 8
1002
0100
0100
1000
,  // measure 9
0010
0010
1003
1001
,  // measure 10
1000
0010
1000
0010
0100
0001
0100
0001
,  // measure 11
1000
0010
0100
0010
0001
0010
0100
0010
,  // measure 12
1000
0100
0010
0001
1000
0010
0100
0001
,  // measure 13
1000
0100
0010
0100
0001
0100
0010
0100
,  // measure 14
1000
0010
0100
0010
1000
0001
0100
0010
,  // measure 15
0100
0001
0100
0010
0100
1000
0100
0010
,  // measure 16
0100
0001
1000
0001
0100
0010
1000
0100
,  // measure 17
1000
1000
1000
1000
1000
0000
1000
0000
,  // measure 18
2001
0000
0010
0000
0010
0000
0010
0020
,  // measure 19
0000
0030
0000
0001
0000
0001
0001
0100
,  // measure 20
3002
0000
0010
0000
0100
0000
0010
0010
,  // measure 21
0000
1000
0000
1000
0100
0100
0100
0000
,  // measure 22
2003
0000
0010
0000
0100
0000
0010
0020
,  // measure 23
0000
0030
0000
0100
0000
0001
0001
0001
,  // measure 24
3002
0000
0100
0000
0100
0000
1000
2000
,  // measure 25
0000
0000
0000
3003
,  // measure 26
1000
0001
1001
0000
0001
1000
1001
0000
,  // measure 27
1000
0100
1100
0000
0001
0100
0101
0000
,  // measure 28
0010
1000
1010
0000
1000
0010
0110
0000
,  // measure 29
0100
0001
0101
0000
0001
0010
0011
0000
,  // measure 30
0001
1000
1001
0000
0001
0100
0101
0000
,  // measure 31
1000
0100
1100
0000
0001
0100
1001
0000
,  // measure 32
1000
0100
0110
0000
0010
0001
0011
0000
,  // measure 33
0001
0100
0101
0000
0010
1000
1010
0000
,  // measure 34
1001
0100
0000
0100
,  // measure 35
0000
0100
0000
0100
,  // measure 36
1001
0100
0000
0100
,  // measure 37
0000
0100
0000
1001
;

//---------------dance-single - ----------------
#NOTES:
     dance-single:
     :
     Medium:
     8:
     0.357648,0.393786,0.238432,0.044706,0.000000,168.000000,152.000000,16.000000,3.000000,0.000000,0.000000,0.357648,0.393786,0.238432,0.044706,0.000000,168.000000,152.000000,16.000000,3.000000,0.000000,0.000000:
0000
0000
0000
0000
,
0000
0000
0000
0000
,
0000
0000
0000
0000
,
0000
0000
0000
0000
,
0100
1000
0100
0010
,
0100
0001
0100
0010
,
0100
1000
0100
0010
,
0100
0001
0100
0010
,
0210
1000
0010
0001
,
0010
1000
0010
0310
,
1001
0000
0100
0000
0001
0100
0001
0000
,
0100
0000
0010
0000
1000
0010
1000
0000
,
0100
0000
1000
0000
0010
1000
0100
0000
,
1000
0000
0001
0000
0100
0010
0100
0000
,
0001
0000
0010
0000
0001
0100
0001
0000
,
1000
0000
0010
0000
0100
0010
0100
0000
,
0010
0000
1000
0000
0100
1000
0100
0000
,
1000
0000
0010
0000
0100
0001
0100
0000
,
1000
0100
0010
0001
,
1001
0110
1001
0000
,
0001
1000
0010
0100
,
1001
0110
1001
0000
,
1000
0010
0100
0001
,
1001
0110
1001
0000
,
1000
0100
0001
0010
,
1001
0110
1001
0000
,
1000
0001
1000
0001
1000
0001
1000
0000
,
1000
1000
0100
0100
,
0010
0001
0010
0001
0010
0001
0010
0000
,
0001
0001
0100
0100
,
0010
1000
0010
1000
0010
1000
0010
0000
,
0100
0100
0010
0010
,
0100
0001
0100
0001
0100
0001
0100
0000
,
0010
0010
1000
1000
,
2001
0010
0100
0010
,
0001
0010
0100
3010
,
1002
0100
0010
0100
,
1000
0100
0010
0103
;

//---------------dance-single - ----------------
#NOTES:
     dance-single:
     :
     Easy:
     6:
     0.349133,0.393786,0.521571,0.044706,0.000000,164.000000,129.000000,35.000000,3.000000,0.000000,0.000000,0.349133,0.393786,0.521571,0.044706,0.000000,164.000000,129.000000,35.000000,3.000000,0.000000,0.000000:
0000
0000
0000
0000
,
0000
0000
0000
0000
,
0000
0000
0000
0000
,
0000
0000
0000
0000
,
0100
1000
0100
0000
,
0010
0001
0010
0000
,
0100
1000
0100
0000
,
0010
1000
0010
1000
,
0210
1000
0010
0001
,
0010
1000
0010
0310
,
1001
0100
0001
0001
,
0101
0010
1000
1000
,
1100
1000
0010
0100
,
1001
0001
0100
0100
,
0101
0010
0001
0001
,
1001
0010
0100
0100
,
1010
1000
0100
0100
,
1010
0010
0100
0100
,
1000
0100
0010
0001
,
1001
0110
1001
0000
,
0001
1000
0010
0100
,
1001
0110
1001
0000
,
1000
0010
0100
0001
,
1001
0110
1001
0000
,
1000
0100
0001
0010
,
1001
0110
1001
0000
,
1001
1000
1001
1000
,
1001
1000
0100
0100
,
0011
0010
0011
0010
,
0011
0001
0100
0100
,
1010
0010
1010
0010
,
1100
0100
0010
0010
,
0011
0010
1001
0100
,
0110
0010
1000
1000
,
2001
0010
0100
0010
,
0001
0010
0100
3010
,
1002
0100
0010
0100
,
1000
0100
0010
0103
;

//---------------dance-single - ----------------
#NOTES:
     dance-single:
     :
     Beginner:
     1:
     0.161793,0.196893,0.000000,0.074510,0.000000,76.000000,76.000000,0.000000,5.000000,0.000000,0.000000,0.161793,0.196893,0.000000,0.074510,0.000000,76.000000,76.000000,0.000000,5.000000,0.000000,0.000000:
0000
0000
0000
0000
,
0000
0000
0000
0000
,
0000
0000
0000
0000
,
0000
0000
0000
0000
,
1000
1000
1000
0000
,
1000
1000
1000
0000
,
0001
0001
0001
0000
,
0001
0001
0001
0000
,
0100
0000
0100
0000
,
0200
0000
0300
0000
,
1000
0000
0010
0000
,
1000
0000
0010
0000
,
0100
0000
0001
0000
,
0100
0000
0001
0000
,
1000
0000
0010
0000
,
1000
0000
0010
0000
,
0100
0000
0001
0000
,
0100
0000
0001
0000
,
2000
0000
3000
0000
,
1000
0000
1000
0000
,
0002
0000
0003
0000
,
0001
0000
0001
0000
,
0200
0000
0300
0000
,
0100
0000
0100
0000
,
0020
0000
0030
0000
,
0010
0000
0010
0000
,
1000
1000
1000
0000
,
1000
1000
1000
0000
,
0001
0001
0001
0000
,
0001
0001
0001
0000
,
0100
0100
0100
0000
,
0100
0100
0100
0000
,
0010
0010
0010
0000
,
0010
0010
0010
0000
,
0000
0100
0000
0100
,
0000
0100
0000
0100
,
0000
0100
0000
0100
,
0000
0100
0100
0100
;
