#VERSION:0.83;
#TITLE:B4U;
#SUBTITLE:(B4 ZA BEAT MIX);
#ARTIST:NAOKI;
#TITLETRANSLIT:;
#SUBTITLETRANSLIT:;
#ARTISTTRANSLIT:;
#GENRE:;
#ORIGIN:;
#CREDIT:;
#BANNER:B4U(B4 ZA BEAT MIX).png;
#BACKGROUND:B4U(B4 ZA BEAT MIX)-bg.png;
#PREVIEWVID:;
#JACKET:B4U(B4 ZA BEAT MIX)-jacket.png;
#CDIMAGE:;
#DISCIMAGE:;
#LYRICSPATH:;
#CDTITLE:;
#MUSIC:B4U(B4 ZA BEAT MIX).ogg;
#OFFSET:0.000000;
#SAMPLESTART:26.823999;
#SAMPLELENGTH:15.000000;
#SELECTABLE:YES;
#DISPLAYBPM:170.000000;
#BPMS:0.000=170.616,
4.000=169.999;
#STOPS:;
#DELAYS:;
#WARPS:;
#TIMESIGNATURES:0.000=4=4;
#TICKCOUNTS:0.000=4;
#COMBOS:0.000=1;
#SPEEDS:0.000=1.000=0.000=0;
#SCROLLS:0.000=1.000;
#FAKES:;
#LABELS:0.000=Song Start;
#BGCHANGES:;
#KEYSOUNDS:;
#ATTACKS:
;

//---------------dance-single - ----------------
#NOTEDATA:;
#CHARTNAME:;
#STEPSTYPE:dance-single;
#DESCRIPTION:;
#CHARTSTYLE:;
#DIFFICULTY:Beginner;
#METER:3;
#RADARVALUES:0.212837,0.341935,0.170967,0.000000,0.000000,122.000000,108.000000,14.000000,0.000000,0.000000,0.000000,0.000000,0.000000,0.000000,0.212837,0.341935,0.170967,0.000000,0.000000,122.000000,108.000000,14.000000,0.000000,0.000000,0.000000,0.000000,0.000000,0.000000;
#CREDIT:;
#DISPLAYBPM:170.000000;
#NOTES:
// measure 0
0000
0000
0000
0000
,  // measure 1
0000
0000
0000
0000
,  // measure 2
0000
0000
0000
0000
,  // measure 3
0000
0000
0000
0000
,  // measure 4
0000
0000
0000
0000
,  // measure 5
1000
0000
1000
0000
,  // measure 6
0001
0000
0001
0000
,  // measure 7
1000
0000
1000
0000
,  // measure 8
0001
0000
0001
0000
,  // measure 9
1000
0000
0000
1000
,  // measure 10
1000
0000
0000
0001
,  // measure 11
0001
0000
0000
1000
,  // measure 12
1000
0000
0000
0001
,  // measure 13
0001
0000
0001
0000
,  // measure 14
1000
0000
1000
0000
,  // measure 15
0001
0000
0001
0000
,  // measure 16
1000
0000
1000
0000
,  // measure 17
0001
0001
0001
0000
,  // measure 18
1000
1000
1000
1000
,  // measure 19
1000
0000
1000
0000
,  // measure 20
0001
0000
1000
0000
,  // measure 21
0001
0000
0001
0000
,  // measure 22
1000
0000
1000
0000
,  // measure 23
0001
0000
0001
0000
,  // measure 24
1000
0000
1000
0000
,  // measure 25
0001
0000
0001
0000
,  // measure 26
1000
1000
1000
1000
,  // measure 27
1000
0000
0000
0000
,  // measure 28
0001
0000
0001
0000
,  // measure 29
0010
0000
0000
0000
,  // measure 30
1000
0000
1000
0000
,  // measure 31
0100
0000
0000
0000
,  // measure 32
0001
0000
0001
0000
,  // measure 33
0100
0100
0100
0100
,  // measure 34
0100
0000
0010
0000
,  // measure 35
1001
0000
0000
0000
,  // measure 36
0010
0010
0010
0000
,  // measure 37
0110
0000
0000
0000
,  // measure 38
0100
0100
0100
0000
,  // measure 39
1001
0000
0000
0000
,  // measure 40
0010
0010
0010
0000
,  // measure 41
0110
0000
0000
0000
,  // measure 42
1001
0000
1001
0000
,  // measure 43
0010
0000
0010
0000
,  // measure 44
0100
0000
0100
0000
,  // measure 45
0010
0000
0110
0000
,  // measure 46
1001
1001
1001
0000
,  // measure 47
1000
0000
1000
0000
,  // measure 48
0010
0010
0010
0000
,  // measure 49
1001
0000
0001
0000
,  // measure 50
1000
0000
0001
0000
,  // measure 51
1001
0000
1000
0000
,  // measure 52
0010
0010
0010
0000
,  // measure 53
1001
0000
0000
0000
,  // measure 54
0100
0100
0100
0100
,  // measure 55
0000
0000
0000
0000
,  // measure 56
1001
0000
0000
0000
;

//---------------dance-single - ----------------
#NOTEDATA:;
#CHARTNAME:;
#STEPSTYPE:dance-single;
#DESCRIPTION:;
#CHARTSTYLE:;
#DIFFICULTY:Easy;
#METER:4;
#RADARVALUES:0.326234,0.410322,0.158755,0.000000,0.000000,187.000000,174.000000,13.000000,0.000000,0.000000,0.000000,0.000000,0.000000,0.000000,0.326234,0.410322,0.158755,0.000000,0.000000,187.000000,174.000000,13.000000,0.000000,0.000000,0.000000,0.000000,0.000000,0.000000;
#CREDIT:;
#DISPLAYBPM:170.000000;
#NOTES:
0000
0000
0000
0000
,
0000
0000
0000
0000
,
0000
0000
0000
0000
,
0000
0000
0000
0000
,
0000
0000
0000
0000
,
1000
0100
0010
0001
,
1000
0100
0010
0001
,
1000
0100
0010
0001
,
1000
0100
0010
0001
,
1000
0000
0000
1000
,
0001
0000
0000
0001
,
1000
0000
0000
1000
,
0001
0000
0000
0001
,
0001
0010
0100
1000
,
0001
0010
0100
1000
,
0001
0010
0100
1000
,
0001
0010
0100
1000
,
0010
0010
0010
0010
,
0100
0100
0100
0100
,
0001
0010
0100
1000
,
1000
0100
1000
1001
,
1000
0100
0010
0001
,
0001
0010
0001
1001
,
0001
0010
0100
1000
,
1000
0100
1000
1001
,
1000
0100
0010
0001
,
0001
0010
0001
1001
,
0010
0000
0000
0000
,
0001
0100
1000
0100
,
0010
0000
0000
0000
,
0001
0010
1000
0010
,
0100
0000
0000
0000
,
1000
0100
0001
0100
,
0100
0100
0100
0100
,
1000
1000
0001
0001
,
0001
0010
0100
1000
,
0010
0010
0010
0010
,
1001
0000
0000
0000
,
0100
0100
0100
0100
,
1001
0000
0000
0000
,
0010
0010
0010
0010
,
1001
1000
0100
0001
,
0100
1000
0100
0001
,
0010
0000
0010
0000
,
0100
0000
0100
0000
,
0010
0110
0100
0110
,
1000
1000
1000
1001
,
1000
1000
1000
1000
,
0010
0010
0010
0010
,
1001
0001
0001
0001
,
0001
0100
1000
0100
,
0001
1000
1000
1000
,
0010
0010
0010
0010
,
1001
1000
0100
0001
,
0100
0100
0100
0100
,
0000
0000
0000
0000
,
1001
0000
0000
0000
;

//---------------dance-single - ----------------
#NOTEDATA:;
#CHARTNAME:;
#STEPSTYPE:dance-single;
#DESCRIPTION:;
#CHARTSTYLE:;
#DIFFICULTY:Medium;
#METER:5;
#RADARVALUES:0.376826,0.512902,0.256451,0.000000,0.000000,216.000000,195.000000,21.000000,0.000000,0.000000,0.000000,0.000000,0.000000,0.000000,0.376826,0.512902,0.256451,0.000000,0.000000,216.000000,195.000000,21.000000,0.000000,0.000000,0.000000,0.000000,0.000000,0.000000;
#CREDIT:;
#DISPLAYBPM:170.000000;
#NOTES:
0000
0000
0000
0000
,
0000
0000
0000
0000
,
0000
0000
0000
0000
,
0000
0000
0000
0000
,
0000
0000
0000
0000
,
0010
0000
0000
0000
0000
0000
0000
0100
,
0010
0000
0000
0000
0000
0000
0000
0100
,
0010
0000
0010
0000
,
0010
0100
0001
1001
,
1000
0000
0000
1000
0000
0000
0000
0000
,
0001
0000
0000
0001
0000
0000
0000
0000
,
1000
0000
0000
1000
0000
0000
0000
0000
,
0001
0000
0000
0001
0000
0000
0000
0000
,
1000
0000
0000
0100
1000
0000
0000
0000
,
0001
0000
0000
0010
0001
0000
0000
0000
,
1000
0000
0000
0100
1000
0000
0000
0000
,
0001
0000
0000
0010
0001
0000
0000
0000
,
0010
0000
0010
0000
0010
0000
0010
0001
,
0100
0100
0100
0100
,
1000
0000
0000
0001
0000
0000
0001
0000
,
0010
0001
0010
1001
,
0001
0000
0000
1000
0000
0000
1000
0000
,
0001
0000
0100
0010
1000
0001
0100
0010
,
1000
0000
0000
0001
0000
0000
1000
0000
,
0100
1000
0100
1001
,
1000
0100
0000
0010
0001
0000
0000
0000
,
0001
0000
0100
0010
1000
0001
0100
0010
,
0000
1000
0000
0001
,
1000
0100
0010
1001
,
0000
1000
0000
0001
,
1000
0100
0010
1001
,
0000
0001
0000
1000
,
1000
0100
0010
1001
,
0000
1000
0000
0001
,
1100
0000
0011
0000
0100
0100
0010
0010
,
0001
1000
0001
1001
,
0010
0000
0010
0000
0010
0000
0010
0100
,
0010
1000
1000
1100
,
1000
0100
0010
0001
0010
0100
1000
0100
,
0010
0000
0000
0000
,
0010
0000
0010
0000
0010
0000
0010
0100
,
0010
0001
0001
0011
,
0010
0001
0100
1000
0100
0001
0000
0000
,
0010
0000
0011
0000
,
0100
0000
1100
0000
,
0011
1100
0011
1100
,
1000
0100
1000
0100
1000
0100
0000
0000
,
1000
0100
0010
1001
,
0010
0000
0010
0000
0010
0000
0010
0100
,
0010
1000
1000
1100
,
1000
0100
0010
0001
0010
0100
1000
0100
,
0010
0000
0000
0000
,
0010
0000
0010
0000
0010
0000
0010
0100
,
0010
0001
0001
0011
,
0010
0001
0100
1000
0100
0001
0000
0000
,
0010
0100
0000
0010
0100
0010
0100
0000
,
1001
0000
0000
0000
;

//---------------dance-single - ----------------
#NOTEDATA:;
#CHARTNAME:;
#STEPSTYPE:dance-single;
#DESCRIPTION:;
#CHARTSTYLE:;
#DIFFICULTY:Hard;
#METER:10;
#RADARVALUES:0.444864,0.581289,0.146543,0.097696,0.018318,255.000000,243.000000,12.000000,8.000000,0.000000,0.000000,0.000000,0.000000,0.000000,0.444864,0.581289,0.146543,0.097696,0.018318,255.000000,243.000000,12.000000,8.000000,0.000000,0.000000,0.000000,0.000000,0.000000;
#CREDIT:;
#DISPLAYBPM:170.000000;
#NOTES:
0000
0000
0000
0000
,
0000
0000
0000
0000
,
0000
0000
0000
0000
,
0000
0000
0000
0000
,
0000
0000
0000
0000
,
0010
0000
0000
0000
0000
0000
0000
0100
,
0010
0000
0000
0000
0000
0000
0000
0100
,
0010
0000
0010
0000
,
0010
0000
0000
0000
0100
0000
0000
0000
0001
0000
0000
1000
0001
0000
0100
0000
,
0020
0000
0000
0000
,
2000
0000
0000
0030
,
0002
0000
0000
3000
,
0200
0000
0000
0303
,
0010
0100
0001
1000
,
0001
0100
0010
1000
,
0010
1000
0001
0100
,
0001
0010
0100
1000
,
0010
0000
0010
0000
0010
0000
0010
0100
,
0010
1000
0100
0010
0001
0010
0100
1000
,
0000
0001
0000
1000
0000
0010
0000
0100
,
0000
0001
0000
0010
0000
0100
0000
0010
,
0000
0001
0000
1000
0000
0100
0000
0010
,
0000
0100
0000
1000
0000
0001
0000
0100
,
0000
1010
0000
0100
0000
1000
0000
0010
,
0000
0101
0000
1000
0000
0001
0000
0010
,
0000
1100
0000
0001
0000
1000
0000
0100
,
0000
0011
0000
0100
0000
1000
0000
0010
,
1000
0001
0100
0001
1000
0001
0010
0000
,
0100
1000
0001
1000
0010
1000
0001
0000
,
0010
1000
1000
0100
0010
1000
0001
0000
,
0010
0001
0001
0100
0010
0001
1000
0000
,
0010
0100
1000
0010
1000
0001
0100
0000
,
0010
0100
0001
0010
0001
1000
0100
0000
,
0001
0100
0010
1000
1000
0100
0010
0001
,
0010
0000
0100
0000
0001
1000
0010
0100
,
0002
0000
0010
0100
,
1000
0000
1000
0000
1003
0000
1000
0100
,
2000
0000
0001
3001
,
0010
1000
0001
0100
0001
1000
0010
0100
,
0002
0000
0010
0100
,
1000
0000
1000
0000
1003
0000
1000
0010
,
2000
0000
0010
3100
,
0010
1000
0100
0010
0001
0100
0010
0100
,
0010
1000
0011
0100
,
1010
0001
0110
1000
,
0110
1001
0110
1001
,
0010
0000
1000
0000
0100
0000
1000
0000
0001
0100
1000
0100
0000
0000
0000
0000
,
0010
0000
1000
0000
0001
0100
0010
0100
,
1000
0000
1000
0000
1000
0000
1000
0001
,
0100
0000
0010
0000
0001
0001
1000
0001
,
0100
0010
0001
0100
,
0010
0000
0100
0000
0001
0010
1000
0010
,
0100
0000
0100
0000
0100
0000
0100
0001
,
1000
0000
0010
0000
1000
0000
0100
0010
,
0001
0100
0001
1000
0100
0010
0100
1000
,
0001
1000
0000
0010
0100
0010
0100
0000
,
1001
0000
0000
0000
;

//---------------dance-double - ----------------
#NOTEDATA:;
#CHARTNAME:;
#STEPSTYPE:dance-double;
#DESCRIPTION:;
#CHARTSTYLE:;
#DIFFICULTY:Easy;
#METER:4;
#RADARVALUES:0.298321,0.410322,0.048848,0.000000,0.000000,171.000000,167.000000,4.000000,0.000000,0.000000,0.000000,0.000000,0.000000,0.000000,0.298321,0.410322,0.048848,0.000000,0.000000,171.000000,167.000000,4.000000,0.000000,0.000000,0.000000,0.000000,0.000000,0.000000;
#CREDIT:;
#DISPLAYBPM:170.000000;
#NOTES:
00000000
00000000
00000000
00000000
,
00000000
00000000
00000000
00000000
,
00000000
00000000
00000000
00000000
,
00000000
00000000
00000000
00000000
,
00000000
00000000
00000000
00000000
,
00000010
00001000
00000001
00000100
,
00000010
00001000
00000001
00000100
,
00000001
00000100
00001000
00010000
,
01000000
10000000
01000000
00010000
,
00001000
00000000
00000000
00000100
,
00000001
00000000
00000000
00000100
,
00001000
00000000
00000000
00010000
,
01000000
00000000
00000000
10000000
,
00100000
00010000
10000000
01000000
,
00100000
00010000
10000000
01000000
,
00010000
00001000
00000100
00000001
,
00000100
00001000
00010000
01000000
,
00100000
00100000
00100000
00100000
,
01000000
01000000
01000000
01000000
,
10000000
10000000
00010000
00010000
,
01000000
00001000
00010000
00001000
,
00000001
00000001
00001000
00001000
,
00000100
00010000
00001000
00010000
,
10000000
10000000
00010000
00010000
,
01000000
00001000
00010000
00001000
,
00000001
00000001
00001000
00001000
,
00000100
00010000
00001000
00010000
,
01000000
00000000
00000000
00000000
,
10000000
01000000
00010000
00001000
,
00000100
00000000
00000000
00000000
,
00000001
00000100
00001000
00010000
,
01000000
00000000
00000000
00000000
,
10000000
01000000
00010000
00001000
,
00000100
00000000
00000000
00000000
,
00000001
00000001
00000100
00000100
,
00000001
00000100
00001000
00010000
,
01000000
00000000
00000000
00000000
,
10000000
01000000
00010000
00001000
,
00000100
00000000
00000000
00000000
,
00000001
00000010
00001000
00010000
,
01000000
00000000
00000000
00000000
,
10000000
00100000
00010000
00001000
,
00000100
00000100
00000100
00000000
,
00000010
00000000
00000010
00000000
,
00001000
00000000
00001000
00000000
,
00011000
00010000
00110000
00100000
,
10000000
10000000
10000000
10010000
,
10000000
01000000
00010000
00001000
,
00000100
00000100
00000100
00000100
,
00000001
00000100
00001000
00010000
,
01000000
10000000
01000000
00010000
,
10000000
01000000
00010000
00001000
,
00000100
00000100
00000100
00000100
,
00000001
00000100
00001000
00010000
,
01000000
01000000
01000000
01000000
,
00000000
00000000
00000000
00000000
,
10010000
00000000
00000000
00000000
;

//---------------dance-double - ----------------
#NOTEDATA:;
#CHARTNAME:;
#STEPSTYPE:dance-double;
#DESCRIPTION:;
#CHARTSTYLE:;
#DIFFICULTY:Medium;
#METER:6;
#RADARVALUES:0.326234,0.444515,0.207603,0.000000,0.000000,187.000000,170.000000,17.000000,0.000000,0.000000,0.000000,0.000000,0.000000,0.000000,0.326234,0.444515,0.207603,0.000000,0.000000,187.000000,170.000000,17.000000,0.000000,0.000000,0.000000,0.000000,0.000000,0.000000;
#CREDIT:;
#DISPLAYBPM:170.000000;
#NOTES:
00000000
00000000
00000000
00000000
,
00000000
00000000
00000000
00000000
,
00000000
00000000
00000000
00000000
,
00000000
00000000
00000000
00000000
,
00000000
00000000
00000000
00000000
,
00000010
00000000
00000000
00000000
00000000
00000000
00000000
01000000
,
00100000
00000000
00000000
00000000
00000000
00000000
00000000
00000010
,
00000100
00000000
00000010
00000000
,
00000100
00010000
01000000
10010000
,
00010000
00000000
00000000
00001000
00000000
00000000
00000000
00000000
,
00000001
00000000
00000000
00001000
00000000
00000000
00000000
00000000
,
00001000
00000000
00000000
00010000
00000000
00000000
00000000
00000000
,
10000000
00000000
00000000
00010000
00000000
00000000
00000000
00000000
,
00010000
00000000
00000000
00001000
00000100
00000000
00000000
00000000
,
00000100
00000000
00000000
00001000
00010000
00000000
00000000
00000000
,
00010000
00000000
00000000
01000000
00010000
00000000
00000000
00000000
,
00010000
00000000
00000000
00001000
00010000
00000000
00000000
00000000
,
00010000
00000000
00010000
00000000
00010000
00000000
00010000
00001000
,
00000100
00000100
00000100
00000100
,
00000001
00000000
00000000
00001000
00000000
00000000
00000001
00000000
,
00000100
00001000
00010000
01000000
,
10000000
00000000
00000000
00010000
00000000
00000000
10000000
00000000
,
01000000
00010000
00001000
00000100
,
00000001
00000000
00000000
00001000
00000000
00000000
00000001
00000000
,
00000100
00001000
00010000
01000000
,
10000000
00000000
00000000
00010000
00000000
00000000
10000000
00000000
,
10000000
01000000
00010000
00001000
,
00000100
00000000
00000000
00001000
,
00010000
00001000
00010000
00110000
,
00000000
10000000
00000000
00010000
,
00001000
00010000
00001000
00001100
,
00000000
00000001
00000000
00001000
,
00010000
00001000
00010000
00110000
,
00000000
10000000
00000000
00010000
,
00110000
00011000
00000000
00001100
,
00001000
00000001
00001000
00001001
,
00000010
00000000
00000010
00000000
00000010
00000000
00000010
00000100
,
00000010
00001000
00001000
00000001
,
00000001
00000100
00001000
00000000
00000000
00000000
00000000
00000000
,
01010000
00000000
00000000
00000000
,
00100000
00000000
00100000
00000000
00100000
00000000
00100000
01000000
,
00100000
00010000
00010000
10000000
,
10000000
01000000
00010000
00000000
,
00001000
00000000
00001010
00000000
,
00000100
00000000
00001100
00000000
,
00001000
00011000
00010000
01010000
,
00010000
00000000
00011000
00000000
,
00001000
00000100
00000010
00001001
,
00000010
00000000
00000010
00000000
00000010
00000000
00000010
00000100
,
00000010
00001000
00001000
00000001
,
00000001
00000100
00001000
00010000
01000000
10000000
00000000
00000000
,
11000000
00000000
00000000
00000000
,
00100000
00000000
00100000
00000000
00100000
00000000
00100000
01000000
,
00100000
00010000
00010000
10000000
,
10000000
01000000
00010000
00001000
00000100
00000001
00000000
00000000
,
00000010
00000100
00000000
00000100
00000010
00000000
00000100
00000000
,
00000110
00000000
00000000
00000000
;

//---------------dance-double - ----------------
#NOTEDATA:;
#CHARTNAME:;
#STEPSTYPE:dance-double;
#DESCRIPTION:;
#CHARTSTYLE:;
#DIFFICULTY:Hard;
#METER:7;
#RADARVALUES:0.409973,0.581289,0.109908,0.097696,0.018318,235.000000,226.000000,9.000000,8.000000,0.000000,0.000000,0.000000,0.000000,0.000000,0.409973,0.581289,0.109908,0.097696,0.018318,235.000000,226.000000,9.000000,8.000000,0.000000,0.000000,0.000000,0.000000,0.000000;
#CREDIT:;
#DISPLAYBPM:170.000000;
#NOTES:
00000000
00000000
00000000
00000000
,
00000000
00000000
00000000
00000000
,
00000000
00000000
00000000
00000000
,
00000000
00000000
00000000
00000000
,
00000000
00000000
00000000
00000000
,
00010000
00000000
00000000
00000000
00000000
00000000
00000000
00000010
,
00000100
00000000
00000000
00000000
00000000
00000000
00000000
00010000
,
00100000
00000000
01000000
00000000
,
00100000
00000000
00000000
00000000
01000000
00000000
00000000
00000000
00010000
00000000
00000000
00001000
00010000
00000000
00001000
00000000
,
00200000
00000000
00000000
00000000
,
00302000
00000000
00000000
00000000
,
00003200
00000000
00000000
00000000
,
00000302
00000000
00000000
00000003
,
00001000
00000001
00000010
00000100
,
00001000
00000001
00000100
00001000
,
00010000
01000000
10000000
00010000
,
00100000
01000000
10000000
00100000
,
00010000
00000000
00010000
00000000
00010000
00000000
00010000
00001000
,
00010000
00001000
00010000
00001000
00010000
00001000
00010000
00000100
,
00000000
00001000
00000000
00000001
00000000
00000010
00000000
00000100
,
00000000
00000010
00000000
00001000
00000000
00010000
00000000
00100000
,
00000000
10000000
00000000
00010000
00000000
01000000
00000000
00100000
,
00000000
10000000
00000000
01000000
00000000
00010000
00000000
00001000
,
00000000
00010000
00000000
00000010
00000000
00001000
00000000
00000100
,
00000000
00000010
00000000
00000001
00000000
00000100
00000000
00001000
,
00000000
00010000
00000000
00001000
00000000
00100000
00000000
00010000
,
00000000
01000000
00000000
00100000
00000000
01000000
00000000
00100000
,
10000000
01000000
00010000
01000000
00010000
00001000
00000100
00000000
,
00000001
00000100
00001000
00000100
00001000
00010000
01000000
00000000
,
00100000
00010000
01000000
00100000
10000000
01000000
00010000
00000000
,
00001000
00000100
00000001
00000010
00000001
00001000
00000100
00000000
,
00000010
00001000
00010000
00100000
00010000
00001000
00000100
00000000
,
00001000
00010000
01000000
00010000
00001000
00000100
00000001
00000000
,
00001000
00000001
00001000
00000001
00000100
00001000
00010000
00100000
,
01000000
00000000
00100000
00000000
00010000
00001000
00000010
00000001
,
00000200
00000000
00000000
00000000
,
00000001
00000000
00000001
00000000
00000301
00000000
00000001
00000100
,
00002000
00000000
00000000
00003000
,
00010000
00100000
10000000
01000000
,
02000000
00000000
00000000
00000000
,
10000000
00000000
10000000
00000000
13000000
00000000
10000000
01000000
,
00020000
00000000
00000000
00030000
,
00001000
00000010
00000001
00000100
,
00001001
00000100
00011000
00010000
,
00101000
01000000
01100000
00010000
,
01001000
00011000
00010100
00011000
,
00100000
00000000
00010000
00000000
00001000
00000000
00000100
00000000
00000001
00000100
00000001
00000100
00000000
00000000
00000000
00000000
,
00000010
00000000
00001000
00000000
00000001
00000000
00000100
00001000
,
00010000
00000000
01000000
00000000
10000000
00000000
00010000
00100000
,
00010000
00000000
10000000
00000000
01000000
00000000
00010000
00001000
,
00000010
00000000
00000001
00000000
00001000
00000001
00000100
00001000
,
00010000
00000000
01000000
00000000
10000000
00000000
00010000
00100000
,
01000000
00000000
10000000
00000000
00010000
00000000
10000000
01000000
,
00010000
00000000
00001000
00000000
00010000
00000000
00100000
00010000
,
00001000
00000100
00000001
00000010
00000001
00000100
00001000
00010000
,
00001000
00000100
00000000
00000001
00001000
00000100
00010000
00000000
,
00011000
00000000
00000000
00000000
;

//---------------dance-single - ----------------
#NOTEDATA:;
#CHARTNAME:;
#STEPSTYPE:dance-single;
#DESCRIPTION:;
#CHARTSTYLE:;
#DIFFICULTY:Challenge;
#METER:14;
#RADARVALUES:0.633277,0.718063,0.232027,0.109908,0.421312,363.000000,344.000000,19.000000,9.000000,0.000000,0.000000,0.000000,0.000000,0.000000,0.633277,0.718063,0.232027,0.109908,0.421312,363.000000,344.000000,19.000000,9.000000,0.000000,0.000000,0.000000,0.000000,0.000000;
#CREDIT:;
#DISPLAYBPM:170.000000;
#NOTES:
0000
0000
0000
0000
,
0000
0000
0000
0000
,
0000
0000
0000
0000
,
0000
0000
0000
0000
,
0000
0000
0000
0000
,
0101
0000
1000
0000
0000
0001
1000
0100
,
1100
0000
0001
0000
0000
1000
0001
0100
,
0101
1000
1100
0001
,
1010
0000
0000
0000
1100
0000
0000
0000
0101
0000
0000
0001
1000
0000
0100
0000
,
0020
0000
0000
0001
0000
0000
0001
0000
0000
0001
0030
0000
0010
0000
0001
0000
,
2000
0000
0000
0010
0000
0000
0010
0000
0000
3010
0000
0000
0100
0000
0001
0000
,
2000
0000
0000
0100
0000
0000
0100
0000
0000
3100
0000
0000
0010
0000
0001
0000
,
2000
0000
0000
0010
0000
0000
0010
0000
0000
3010
0000
0000
0100
0000
0001
0000
,
1000
0000
0000
0001
0000
0000
1000
0000
0000
0010
0000
0000
0100
0000
0001
0000
,
0100
0000
0000
0010
0000
0000
1000
0000
0000
0100
0000
0000
0010
0000
0001
0000
,
0100
0000
0000
0001
0000
0000
1000
0000
0000
0100
0000
0000
0010
0000
0100
0000
,
1000
0000
0000
0001
0000
0000
0010
0000
0000
0100
0000
0000
0010
0000
0001
0000
,
0101
0000
1100
0000
1001
0000
0110
0100
,
0001
0100
0001
0100
0010
1000
0010
1000
,
0100
0010
0001
0100
0010
1000
0100
1000
,
0001
0100
1000
0100
0001
0100
1000
0100
,
0001
0010
0100
1000
0010
0100
0001
1000
,
0100
0010
0001
0010
0100
0010
0001
0100
,
0010
1000
0100
1000
0001
0100
0010
1000
,
0100
0001
0100
1000
0100
0001
0100
1000
,
0100
0010
0001
1000
0100
0010
0100
1000
,
0001
0100
0010
1000
0001
1000
0100
0010
,
0001
0000
0100
0001
0010
0001
0100
0000
,
1000
0010
0100
0001
1000
0001
0001
0000
,
1000
0010
1000
0010
0100
0001
0100
0001
,
1000
0100
0001
0100
1000
0010
0001
0010
,
1000
0000
0000
0000
0010
0000
0100
0000
0001
0000
0000
1000
0000
0000
0010
0000
,
0100
0001
0010
0001
1000
0100
0010
0000
,
0001
1000
0100
1000
0010
1000
0001
0100
,
0010
0000
0010
0000
0010
1000
0001
0100
,
0010
1000
0000
0010
0000
0100
0000
0001
0000
0010
0000
0100
1000
0000
0100
0000
,
0110
0000
1001
0000
0110
0000
0001
1000
,
2000
0000
0000
0000
0000
0000
3000
0001
,
0010
0100
0010
0100
0010
0000
0001
0000
1000
0000
0100
0000
0001
0000
0100
0000
,
0010
0001
0000
0010
0000
0100
0000
1000
0000
0010
0000
0100
0001
0000
0100
0000
,
0110
0000
1001
0000
0110
0000
1000
0001
,
0002
0000
0000
0003
,
1000
0100
1000
0100
1000
0000
0001
0000
0010
0000
0010
0000
0100
0000
0000
0000
,
1100
0000
0000
0100
0000
0000
0010
0000
0001
0100
0000
0001
0000
0100
0000
0010
,
1000
0000
0000
0100
0000
0000
0010
0000
0001
0100
0000
0001
0000
0100
0000
0010
,
1000
0000
0000
1000
0100
0000
0000
0100
0010
0000
0000
0010
0001
0000
0000
0001
,
1000
0000
0100
0000
0010
0000
0001
0000
1000
0100
1000
0200
0000
0000
0000
0000
,
0310
0001
0000
0001
0000
0100
0000
1000
0000
0100
0000
0001
1000
0000
0100
0000
,
0010
0000
0010
0000
0010
0000
1000
0001
,
0002
0000
0000
0000
0000
0000
0003
1000
,
0001
0100
0001
0100
0001
0000
0100
0000
0010
0000
1000
0000
0001
0000
0100
0000
,
0010
1000
0000
1000
0000
0100
0000
0001
0000
0100
0000
1000
0001
0000
0100
0000
,
0010
0000
0010
0000
0010
0000
0001
1000
,
2000
0000
0000
3000
,
0001
0010
0001
0010
0001
0000
1000
0010
1000
0010
1000
0000
0010
0100
0010
0000
,
0100
0001
0000
0001
1000
0100
0001
0000
,
0110
0000
0000
0000
;
