#VERSION:0.83;
#TITLE:Anarchy;
#SUBTITLE:;
#ARTIST:KMFDM;
#TITLETRANSLIT:;
#SUBTITLETRANSLIT:;
#ARTISTTRANSLIT:;
#GENRE:;
#ORIGIN:;
#CREDIT:;
#BANNER:;
#BACKGROUND:Anarchy-bg.jpg;
#PREVIEWVID:;
#JACKET:Anarchy-jacket.jpg;
#CDIMAGE:;
#DISCIMAGE:;
#LYRICSPATH:;
#CDTITLE:;
#MUSIC:Anarchy.ogg;
#OFFSET:-1.427000;
#SAMPLESTART:72.433739;
#SAMPLELENGTH:12.000000;
#SELECTABLE:YES;
#BPMS:0.000=114.884,
138.500=114.996;
#STOPS:;
#DELAYS:;
#WARPS:;
#TIMESIGNATURES:0.000=4=4;
#TICKCOUNTS:0.000=4;
#COMBOS:0.000=1;
#SPEEDS:0.000=1.000=0.000=0;
#SCROLLS:0.000=1.000;
#FAKES:;
#LABELS:0.000=Song Start;
#BGCHANGES:;
#KEYSOUNDS:;
#ATTACKS:
;

//---------------dance-single - ----------------
#NOTEDATA:;
#CHARTNAME:;
#STEPSTYPE:dance-single;
#DESCRIPTION:;
#CHARTSTYLE:;
#DIFFICULTY:Hard;
#METER:12;
#RADARVALUES:0.369399,0.602511,0.271727,0.000000,0.105185,295.000000,264.000000,31.000000,0.000000,0.000000,0.000000,0.000000,0.000000,0.000000,0.369399,0.602511,0.271727,0.000000,0.105185,295.000000,264.000000,31.000000,0.000000,0.000000,0.000000,0.000000,0.000000,0.000000;
#CREDIT:;
#NOTES:
// measure 0
0000
0000
0000
0000
,  // measure 1
0000
0000
0000
0000
,  // measure 2
0000
0000
0000
0000
,  // measure 3
0000
0000
0000
0000
,  // measure 4
0000
0000
0000
0000
,  // measure 5
0000
0000
0000
0000
,  // measure 6
0000
0000
0000
0000
,  // measure 7
0000
1000
0000
0001
,  // measure 8
0000
0000
1000
0000
0000
0000
1001
1001
,  // measure 9
1000
0001
1000
0000
1000
0001
1000
0000
1000
0001
1000
0000
1000
0001
1000
0000
,  // measure 10
0100
1000
0100
1000
,  // measure 11
0100
0000
0000
0000
0010
0000
0000
0000
0001
0000
1000
0001
1000
0001
0000
0000
,  // measure 12
0001
1000
0010
1000
,  // measure 13
0001
0000
0000
0000
0010
0000
0000
0000
0100
0000
0010
0100
0010
0100
0000
0000
,  // measure 14
1000
0001
1000
0001
,  // measure 15
0100
0000
0000
0000
0001
0000
0000
0000
0100
0000
0010
0100
0010
0100
0000
0000
,  // measure 16
0010
0010
1000
0010
,  // measure 17
0100
0000
0000
0000
0001
0000
0000
0000
1000
0000
1000
0001
1000
0001
0000
0000
,  // measure 18
0100
0001
0100
0010
,  // measure 19
1000
0000
0000
0000
0010
0000
0000
0000
0100
0000
0010
0100
0010
0100
0000
0000
,  // measure 20
0100
0001
0100
0001
,  // measure 21
1000
0000
0000
0000
0010
0000
0000
0000
1000
0000
0001
1000
0001
1000
0000
0000
,  // measure 22
1000
0100
0010
0100
,  // measure 23
0010
0000
0000
0000
0100
0000
0000
0000
1000
0000
0001
1000
0001
1000
0000
0000
,  // measure 24
1000
0001
1000
0100
,  // measure 25
0010
0100
0010
0100
,  // measure 26
0100
0000
0100
0010
0100
0000
0000
0000
0010
0000
1000
0001
1000
0000
0000
0000
,  // measure 27
0001
0000
1000
0001
1000
0000
0000
0000
1000
0000
0100
1000
0100
0000
1000
0000
,  // measure 28
0000
0000
1100
0000
0010
0001
1000
0100
,  // measure 29
0000
1000
0000
0001
0000
0010
0000
0100
,  // measure 30
0000
0000
0000
0000
0110
0000
0000
0000
0010
0000
0010
0100
0010
0000
0100
0000
,  // measure 31
0000
0000
0000
0000
0010
0000
0000
0000
0001
0000
0001
0010
0001
0000
1001
0000
,  // measure 32
0000
0000
1001
0000
0100
0001
1000
1000
,  // measure 33
0001
0010
1000
1001
,  // measure 34
1001
0000
0110
0000
0100
0000
0100
0010
,  // measure 35
0000
0000
0000
0000
0010
0000
0001
1000
,  // measure 36
0000
0000
0000
0000
1000
0100
1000
0010
,  // measure 37
1000
0001
1000
0001
1000
0010
1000
0100
,  // measure 38
0000
1100
0000
1100
,  // measure 39
0000
0110
0000
0110
,  // measure 40
0000
0011
0000
0011
,  // measure 41
0000
0000
1001
1001
,  // measure 42
1001
0000
0010
1000
0100
0010
0100
1000
,  // measure 43
0100
0010
0001
1000
0100
0010
0100
0010
,  // measure 44
0001
1000
0010
1000
0100
0010
0001
0100
,  // measure 45
0010
0100
0010
1000
0010
0100
0001
0010
,  // measure 46
0001
0100
0001
0100
0010
0100
0001
0010
,  // measure 47
0001
1000
0100
1000
0010
0100
0001
0100
,  // measure 48
0010
0100
0010
1000
0100
0010
0100
1000
,  // measure 49
0010
0100
0010
1000
0001
0010
0001
0100
,  // measure 50
0101
0001
1001
0001
0011
0010
0011
1000
,  // measure 51
1100
0100
0110
0010
1001
0001
1010
0100
,  // measure 52
0101
0010
0011
0010
1001
1000
0101
1001
;

//---------------dance-single - ----------------
#NOTEDATA:;
#CHARTNAME:;
#STEPSTYPE:dance-single;
#DESCRIPTION:;
#CHARTSTYLE:;
#DIFFICULTY:Medium;
#METER:9;
#RADARVALUES:0.295519,0.393950,0.201604,0.000000,0.000000,236.000000,213.000000,23.000000,0.000000,0.000000,0.000000,0.000000,0.000000,0.000000,0.295519,0.393950,0.201604,0.000000,0.000000,236.000000,213.000000,23.000000,0.000000,0.000000,0.000000,0.000000,0.000000,0.000000;
#CREDIT:;
#NOTES:
0000
0000
0000
0000
,
0000
0000
0000
0000
,
0000
0000
0000
0000
,
0000
0000
0000
0000
,
0000
0000
0000
0000
,
0000
0000
0000
0000
,
0000
0000
0000
0000
,
0000
1000
0000
0001
,
0000
0000
1000
0000
0000
0000
1000
1000
,
0001
0001
1000
1000
0001
0001
1000
1000
,
0100
1000
0100
1000
,
0100
0010
0001
1000
,
0001
1000
0010
1000
,
0001
0010
0100
1001
,
1000
0001
1000
0001
,
0100
0001
0100
0010
,
0010
0010
1000
0010
,
0100
0001
1000
1001
,
0100
0001
0100
0010
,
1000
0010
0100
0010
,
1000
0001
0100
0001
,
1000
0010
1000
0101
,
1000
0100
0010
0100
,
0010
0100
1000
0001
,
1000
0001
1000
0100
,
0010
0100
1000
0011
,
0100
0100
0100
0000
0010
1000
1000
0000
,
0001
1000
1000
0000
1000
0100
0100
0000
,
1000
1000
0100
0000
0010
0001
0001
0100
,
0000
0010
0000
1000
0000
0001
0000
0100
,
0000
0000
0110
0000
0010
0010
0010
0100
,
0000
0000
0010
0000
0001
0001
0001
0001
,
0000
0000
1001
0000
0100
0001
1000
1000
,
0001
0010
1000
1001
,
1001
0000
0110
0000
0100
0000
0100
0010
,
0000
0000
0000
0000
0010
0000
0001
1000
,
0000
0000
0110
0101
,
1001
1100
1001
0101
,
0000
1100
0000
1100
,
0000
0110
0000
0110
,
0000
0011
0000
0011
,
0000
0000
1001
1001
,
0001
1000
0010
0000
0100
0010
0100
0000
,
0100
0010
0001
0000
0100
0010
0100
0000
,
0001
1000
0010
0000
0100
0010
0001
0000
,
0010
0100
0010
0000
0010
0100
0001
0000
,
0001
0100
0001
0000
0010
0100
0001
0000
,
0001
1000
0100
0000
0010
0100
0001
0000
,
0010
0100
0010
0000
0100
0010
0100
0000
,
0010
0100
0010
0000
0001
0010
0001
0000
,
0001
0001
0001
0001
0001
0001
0001
0001
,
1000
1000
1000
1000
1000
1000
1000
1000
,
0100
0100
0100
0100
0010
0010
0010
0010
;

//---------------dance-single - ----------------
#NOTEDATA:;
#CHARTNAME:;
#STEPSTYPE:dance-single;
#DESCRIPTION:;
#CHARTSTYLE:;
#DIFFICULTY:Easy;
#METER:6;
#RADARVALUES:0.240422,0.300543,0.105185,0.000000,0.000000,192.000000,180.000000,12.000000,0.000000,0.000000,0.000000,0.000000,0.000000,0.000000,0.240422,0.300543,0.105185,0.000000,0.000000,192.000000,180.000000,12.000000,0.000000,0.000000,0.000000,0.000000,0.000000,0.000000;
#CREDIT:;
#NOTES:
0000
0000
0000
0000
,
0000
0000
0000
0000
,
0000
0000
0000
0000
,
0000
0000
0000
0000
,
0000
0000
0000
0000
,
0000
0000
0000
0000
,
0000
0000
0000
0000
,
0000
1000
0000
0001
,
0000
1000
0000
1000
,
0001
1000
0001
1000
,
1001
1000
0100
1000
,
0100
0010
0001
1000
,
0001
1000
0010
1000
,
0001
0010
0100
1001
,
1000
0001
1000
0001
,
0100
0001
0100
0010
,
0010
0010
1000
0010
,
0100
0001
1000
1001
,
0100
0001
0100
0010
,
1000
0010
0100
0010
,
1000
0001
0100
0001
,
1000
0010
1000
0101
,
1000
0100
0010
0100
,
0010
0100
1000
0001
,
1000
0001
1000
0100
,
0010
0100
1000
0011
,
1100
1010
0010
1000
,
0001
1000
1000
0100
,
1000
0100
0010
0001
,
0100
0010
1000
0001
,
0100
0110
0010
0010
,
0100
0010
0001
0001
,
1000
1001
0100
1000
,
0001
0010
0001
1001
,
1001
0110
0100
0100
,
0010
0100
0010
0001
,
0010
1000
0100
0010
,
0001
0100
1000
0010
,
0001
1000
0010
1000
,
0010
0100
0010
0100
,
0001
0010
0100
0010
,
0001
1000
0001
1000
,
0001
0010
0100
1000
,
0100
0001
0010
1000
,
0100
0001
0010
1000
,
0100
0001
0010
1000
,
0100
0001
0010
1000
,
0100
0001
0010
1000
,
0100
0001
0010
1000
,
1000
1000
1000
1000
,
0001
0001
0001
0001
,
0100
0100
0100
0100
,
0010
0010
0010
0010
;

//---------------dance-single - ----------------
#NOTEDATA:;
#CHARTNAME:;
#STEPSTYPE:dance-single;
#DESCRIPTION:;
#CHARTSTYLE:;
#DIFFICULTY:Beginner;
#METER:2;
#RADARVALUES:0.121463,0.161064,0.008765,0.000000,0.000000,97.000000,96.000000,1.000000,0.000000,0.000000,0.000000,0.000000,0.000000,0.000000,0.121463,0.161064,0.008765,0.000000,0.000000,97.000000,96.000000,1.000000,0.000000,0.000000,0.000000,0.000000,0.000000,0.000000;
#CREDIT:;
#NOTES:
0000
0000
0000
0000
,
0000
0000
0000
0000
,
0000
0000
0000
0000
,
0000
0000
0000
0000
,
0000
0000
0000
0000
,
0000
0000
0000
0000
,
0000
0000
0000
0000
,
0000
1000
0000
1000
,
0000
0001
0000
0001
,
0001
0000
0001
0000
,
1000
0000
0100
0000
,
0100
0000
0001
0000
,
0001
0000
0010
0000
,
0001
0000
0100
0000
,
1000
0000
1000
0000
,
0100
0000
0100
0000
,
0010
0000
1000
0000
,
0100
0000
1000
0000
,
0100
0000
0100
0000
,
1000
0000
0100
0000
,
1000
0000
0001
0000
,
1000
0000
0001
0000
,
1000
0000
0010
0000
,
0001
0000
0100
0000
,
1000
0000
1000
0000
,
0010
0000
1000
0000
,
0100
0000
0010
0000
,
0001
0000
1000
0000
,
1000
0000
0010
0000
,
0100
0000
1000
0000
,
0100
0000
0010
0000
,
0100
0000
0001
0000
,
1000
0000
0100
0000
,
0001
0000
0001
0000
,
1001
0000
0100
0000
,
0010
0000
0010
0000
,
0010
0000
0100
0000
,
0001
0000
1000
0000
,
0001
0000
0010
0000
,
0010
0000
0010
0000
,
0001
0000
0100
0000
,
0001
0000
0001
0000
,
0001
0000
0100
0000
,
0100
0000
0010
0000
,
0100
0000
0010
0000
,
0100
0000
0010
0000
,
0100
0000
0010
0000
,
0100
0000
0010
0000
,
0100
0000
0010
0000
,
1000
1000
1000
0000
,
0001
0001
0001
0000
,
0100
0100
0100
0000
,
0010
0010
0010
0000
;
