#VERSION:0.83;
#TITLE:Alchemist 2;
#SUBTITLE:;
#ARTIST:M.K;
#TITLETRANSLIT:;
#SUBTITLETRANSLIT:;
#ARTISTTRANSLIT:;
#GENRE:;
#ORIGIN:;
#CREDIT:;
#BANNER:;
#BACKGROUND:Alchemist 2-bg.jpg;
#PREVIEWVID:;
#JACKET:Alchemist 2-jacket.jpg;
#CDIMAGE:;
#DISCIMAGE:;
#LYRICSPATH:;
#CDTITLE:;
#MUSIC:Alchemist 2.ogg;
#OFFSET:-0.024000;
#SAMPLESTART:38.388779;
#SAMPLELENGTH:12.000000;
#SELECTABLE:YES;
#BPMS:0.000=149.998;
#STOPS:;
#DELAYS:;
#WARPS:;
#TIMESIGNATURES:0.000=4=4;
#TICKCOUNTS:0.000=4;
#COMBOS:0.000=1;
#SPEEDS:0.000=1.000=0.000=0;
#SCROLLS:0.000=1.000;
#FAKES:;
#LABELS:0.000=Song Start;
#BGCHANGES:;
#KEYSOUNDS:;
#ATTACKS:
;

//---------------dance-single - Nifara----------------
#NOTEDATA:;
#CHARTNAME:Nifara;
#STEPSTYPE:dance-single;
#DESCRIPTION:Nifara;
#CHARTSTYLE:;
#DIFFICULTY:Beginner;
#METER:2;
#RADARVALUES:0.100444,0.186324,0.015625,0.000000,0.000000,90.000000,88.000000,2.000000,0.000000,0.000000,0.000000,0.000000,0.000000,0.000000,0.100444,0.186324,0.015625,0.000000,0.000000,90.000000,88.000000,2.000000,0.000000,0.000000,0.000000,0.000000,0.000000,0.000000;
#CREDIT:Nifara;
#NOTES:
// measure 0
0000
0000
0000
0000
,  // measure 1
0000
0000
0000
0000
,  // measure 2
0000
0000
0000
0000
,  // measure 3
0000
0000
0000
0000
,  // measure 4
0000
0000
0000
0000
,  // measure 5
0000
0000
0000
0000
,  // measure 6
0000
0000
0000
0000
,  // measure 7
0000
0000
0010
0000
,  // measure 8
0000
0000
0000
0000
,  // measure 9
1000
0000
0000
0000
,  // measure 10
0000
0000
0000
0000
,  // measure 11
0001
0000
0000
0000
,  // measure 12
0000
0000
0000
0000
,  // measure 13
1000
0000
0000
0000
,  // measure 14
0000
0000
0000
0000
,  // measure 15
0001
0000
1000
0000
,  // measure 16
1000
0000
0100
0000
,  // measure 17
0100
0000
0010
0000
,  // measure 18
0010
0000
0001
0000
,  // measure 19
0001
0000
1000
0000
,  // measure 20
1000
0000
0100
0000
,  // measure 21
0100
0000
0010
0000
,  // measure 22
0010
0000
0001
0000
,  // measure 23
0001
0000
0000
1000
,  // measure 24
0000
0001
1000
0000
,  // measure 25
0000
0000
0000
0000
,  // measure 26
0000
0001
1000
0000
,  // measure 27
0000
0000
0000
0000
,  // measure 28
0000
0001
1000
0000
,  // measure 29
0000
0000
0000
0000
,  // measure 30
0000
0001
1000
0000
,  // measure 31
0000
0000
1001
0000
,  // measure 32
0000
0000
0000
0000
,  // measure 33
1000
0000
0000
0000
,  // measure 34
0000
0000
0000
0000
,  // measure 35
0000
0000
0000
0000
,  // measure 36
0010
0000
0000
0000
,  // measure 37
0000
0000
0000
0000
,  // measure 38
1000
0000
0000
0000
,  // measure 39
0000
0000
0000
0000
,  // measure 40
0010
0000
0000
0000
,  // measure 41
1000
0000
0000
0000
,  // measure 42
0100
0000
0100
0000
,  // measure 43
0100
0000
0000
0000
,  // measure 44
0010
0000
0000
0000
,  // measure 45
0001
0000
0000
0000
,  // measure 46
0010
0000
0010
0000
,  // measure 47
0010
0000
0000
0000
,  // measure 48
0100
0000
0000
0000
,  // measure 49
0001
0000
0000
0000
,  // measure 50
0100
0000
0100
0000
,  // measure 51
0100
0000
0000
0000
,  // measure 52
1000
0000
0000
0000
,  // measure 53
0001
0000
0000
0000
,  // measure 54
1000
0000
1000
0000
,  // measure 55
1000
0000
0000
0000
,  // measure 56
0000
0000
0000
0000
,  // measure 57
0000
0000
0000
0000
,  // measure 58
0000
0000
0000
0000
,  // measure 59
1000
0000
0000
0000
,  // measure 60
0000
0000
0000
0000
,  // measure 61
0000
0000
0000
0000
,  // measure 62
0000
0000
0000
0000
,  // measure 63
1000
0000
0000
0000
,  // measure 64
0001
0000
0100
0000
,  // measure 65
1000
0000
1000
0000
,  // measure 66
0100
0000
0010
0000
,  // measure 67
0001
0000
1000
0000
,  // measure 68
0100
0000
0010
0000
,  // measure 69
1000
0000
0001
0000
,  // measure 70
0100
0000
0010
0000
,  // measure 71
1000
0000
0001
0000
,  // measure 72
1000
0000
0100
0000
,  // measure 73
0010
0000
1000
0000
,  // measure 74
0010
0000
0001
0000
,  // measure 75
1000
0000
0010
0000
,  // measure 76
0100
0000
0001
0000
,  // measure 77
1000
0000
0100
0000
,  // measure 78
0010
0000
1000
0000
,  // measure 79
0001
0000
1001
0000
;

//---------------dance-single - Nifara----------------
#NOTEDATA:;
#CHARTNAME:Nifara;
#STEPSTYPE:dance-single;
#DESCRIPTION:Nifara;
#CHARTSTYLE:;
#DIFFICULTY:Easy;
#METER:9;
#RADARVALUES:0.296868,0.558971,0.124997,0.000000,0.000000,266.000000,250.000000,16.000000,0.000000,0.000000,0.000000,0.000000,0.000000,0.000000,0.296868,0.558971,0.124997,0.000000,0.000000,266.000000,250.000000,16.000000,0.000000,0.000000,0.000000,0.000000,0.000000,0.000000;
#CREDIT:Nifara;
#NOTES:
0000
0000
0000
0000
,
0000
0000
0000
0000
,
0000
0000
0000
0000
,
0000
0000
0000
0000
,
0000
0000
0000
0000
,
0000
0000
0000
0000
,
0000
0000
0000
0000
,
0000
0000
0010
0000
,
0100
1000
0100
1000
,
0100
0000
1000
0000
1000
0100
0010
0000
,
1000
0010
1000
0010
,
1000
0000
1000
0000
1000
0100
1000
0000
,
1000
1000
1000
1000
,
1000
0000
1000
0000
1000
0010
1000
0000
,
0100
0010
0100
1000
,
0001
1000
0001
1000
0001
0000
0000
0000
,
0100
0010
0110
0000
0001
0010
0011
0000
,
0100
0010
0110
0000
1000
0100
1100
0000
,
0000
1010
0000
0110
,
0100
0001
0101
0000
0001
1000
1001
0000
,
1000
0010
1010
0000
0001
1000
1001
0000
,
0010
0100
0110
0000
0010
0001
0011
0000
,
0000
0010
0100
0000
0000
0000
0010
0000
,
0000
1000
0001
0000
,
1000
0100
1000
0000
0100
0000
0000
0000
,
0100
0010
0100
0000
0100
0000
0000
0000
,
0001
0100
0001
0000
0000
0000
1000
0000
,
0000
0001
0000
0010
,
0000
0000
0100
0001
0100
0000
0000
0000
,
1000
0100
0010
0001
,
0000
0001
0010
0100
,
1000
0100
1100
0000
,
0010
0000
0000
0000
,
0001
0000
0000
0000
,
0100
0000
0000
0000
,
1000
0000
0010
0000
,
1000
0000
0001
0000
1000
0100
1000
0000
,
1000
0001
1000
0000
1000
0100
1000
0000
,
1000
0010
1000
0000
1000
0001
1000
0000
,
1000
0100
1000
0000
1000
0001
1000
0001
,
1000
0000
1000
0000
,
1000
0100
1000
0000
,
0100
0010
0100
0100
,
0010
0100
0110
0000
,
1000
0001
1000
0000
,
0001
1000
0001
0000
,
0001
0010
0100
1000
,
0100
0010
0001
0000
,
1000
0100
1000
0000
,
0010
0100
0010
0000
,
0001
0010
0100
1000
,
0100
0000
0010
0000
0001
0000
0001
0001
,
0001
0010
0001
0000
,
0010
1000
0010
0000
,
1000
0100
0010
0001
,
0010
0100
1000
0000
,
0000
1000
0000
0000
0000
0000
0000
0000
,
0000
1000
0000
0000
0000
0000
0000
0000
,
0000
0001
0000
0000
0000
0000
0000
0000
,
0000
0001
0000
0000
0000
0000
0000
0000
,
0000
1000
0000
0000
0000
0000
0000
0000
,
0000
1000
0000
0000
0000
0000
0000
0000
,
0000
1001
0000
0000
0000
0000
0000
0000
,
0000
0000
0000
0000
,
0100
0010
0100
0010
0100
0000
0000
0000
,
0100
0000
0100
0000
,
0100
0000
0100
0001
0100
0001
0100
0000
,
0100
0000
0100
0000
,
0100
0010
0100
0010
0100
0000
0000
0000
,
0100
0000
0100
0000
,
0100
0010
0100
0010
0100
0000
0000
0000
,
0100
0000
0100
0000
,
0100
0010
0100
0010
0100
0000
0000
0000
,
0100
0000
0100
0000
,
0100
0010
0100
0010
0100
0000
0000
0000
,
0100
0000
0100
0000
,
0100
0010
0100
0010
0100
0000
0000
0000
,
0100
0000
0100
0000
,
0100
0010
0100
0010
0100
0010
0100
0010
,
0100
0000
0110
0000
;

//---------------dance-single - Nifara----------------
#NOTEDATA:;
#CHARTNAME:Nifara;
#STEPSTYPE:dance-single;
#DESCRIPTION:Nifara;
#CHARTSTYLE:;
#DIFFICULTY:Medium;
#METER:12;
#RADARVALUES:0.401776,0.558971,0.226557,0.000000,0.039062,360.000000,331.000000,29.000000,0.000000,0.000000,0.000000,0.000000,0.000000,0.000000,0.401776,0.558971,0.226557,0.000000,0.039062,360.000000,331.000000,29.000000,0.000000,0.000000,0.000000,0.000000,0.000000,0.000000;
#CREDIT:Nifara;
#NOTES:
0000
0000
0000
0000
,
0000
0000
0000
0000
,
0000
0000
0000
0000
,
0000
0000
0000
0000
,
0000
0000
0000
0000
,
0000
0000
0000
0000
,
0000
0000
0000
0000
,
0000
0000
1100
0000
,
1000
0100
0010
0000
1000
0000
0001
0000
,
0100
0010
0001
0000
1000
0001
0010
0000
,
1000
0001
0100
0000
0010
0000
1000
0000
,
0001
0100
1000
0000
0100
0010
1000
0000
,
0100
1000
0001
1000
,
1000
0010
0001
0000
0001
0100
0010
0000
,
1000
0001
0100
0000
0010
0000
0001
0000
,
1000
0001
1000
0000
1000
0100
1000
0100
,
1000
1100
0100
0101
,
0001
0011
0010
0110
,
0100
1100
1000
1000
,
1001
0001
0001
0101
,
0100
0110
0010
0110
,
0100
0110
0010
0011
,
0001
1001
1000
1100
,
0100
0000
1100
0100
1000
0000
0000
0000
,
1000
0001
1000
0000
0100
0000
0001
0000
,
0100
1000
0100
0000
0010
0001
0010
0000
,
0010
0000
0001
0000
1000
0100
0010
0000
,
0010
0100
0010
0000
0010
1000
0010
0000
,
0001
0010
0100
1000
,
1000
0001
0010
0000
0010
0001
1000
0000
,
1000
0010
0100
0000
0100
0000
1000
0000
,
1000
0100
0010
0001
1001
0000
0000
0000
,
0001
0000
0001
0000
,
1000
0000
1000
0000
,
0001
0000
0001
0000
,
1000
0000
1000
0000
,
0001
0000
0001
0000
,
1000
0000
1000
0000
,
0010
0100
0001
1000
,
0100
0000
1000
0000
0100
0000
1000
0000
0100
0000
1000
0000
0100
0000
1000
0100
,
1000
0100
0100
0100
1100
0000
0000
0000
,
0010
0001
0010
0100
0010
0000
0000
0000
,
0001
0001
0001
0000
0100
0100
0100
0000
,
1000
1000
1000
0000
1001
0000
0000
0000
,
0100
0001
0100
0010
0100
0000
0110
0000
,
0100
1000
0100
0010
0100
0000
1100
0000
,
1000
1000
1100
0000
0100
0100
0110
0000
,
0010
0010
0011
0001
0010
0100
1000
1000
,
1000
0000
0100
1000
0000
0000
0000
0000
1100
0000
0000
0000
0000
0000
0000
0000
,
0001
0000
0001
0010
0000
0000
0000
0000
0011
0000
0000
0000
0000
0000
0000
0000
,
1000
0000
1000
0001
0000
0000
0000
0000
0100
0000
0100
0001
0000
0000
0000
0000
,
0100
0001
0010
0000
0101
0000
0000
0000
,
1000
0000
1000
0100
0000
0000
0000
0000
1100
0000
0000
0000
0000
0000
0000
0000
,
0001
0000
0001
0010
0000
0000
0000
0000
0011
0000
0000
0000
0000
0000
0000
0000
,
1000
0000
1000
0001
0000
0000
0000
0000
0100
0000
0100
0001
0000
0000
0000
0000
,
0100
0001
0010
0000
0101
0000
0000
0000
,
0000
1000
0000
1000
0000
0000
0000
0000
,
0000
0001
0000
0001
0000
0000
0000
0000
,
0000
1000
0000
1000
0000
0000
0000
0000
,
0000
0001
0000
0001
0000
0000
0000
0000
,
0000
1000
0000
1000
0000
0000
0000
0000
,
0000
0001
0000
0001
0000
0000
0000
0000
,
0000
1000
0000
1000
0000
0000
0000
0000
,
0000
0000
0000
0000
,
0001
0010
0001
0100
0001
0010
0001
0000
,
0001
0010
0001
0100
,
0100
0010
0100
0001
0100
0010
0100
0000
,
1000
0100
1000
0100
,
1000
0100
1000
0010
1000
0100
1000
0000
,
1000
0010
1000
0010
,
0010
1000
0010
0100
0010
1000
0010
0000
,
0010
1000
0010
1000
,
0010
0001
0010
0100
0010
0001
0010
0000
,
0001
0010
0001
0010
,
0001
1000
0001
0010
0001
1000
0001
0000
,
0001
0010
0100
1000
,
1000
0100
1000
0100
1000
0100
1000
0000
,
1000
0001
1000
0001
,
0100
1000
0100
1000
0100
1000
0100
1000
,
0100
0000
1000
0000
0100
0000
1000
0100
1000
0000
0000
0000
0000
0000
0000
0000
;

//---------------dance-single - Nifara----------------
#NOTEDATA:;
#CHARTNAME:Nifara;
#STEPSTYPE:dance-single;
#DESCRIPTION:Nifara;
#CHARTSTYLE:;
#DIFFICULTY:Hard;
#METER:16;
#RADARVALUES:0.677439,0.904813,0.421865,0.054686,0.628891,607.000000,553.000000,54.000000,7.000000,0.000000,0.000000,0.000000,0.000000,0.000000,0.677439,0.904813,0.421865,0.054686,0.628891,607.000000,553.000000,54.000000,7.000000,0.000000,0.000000,0.000000,0.000000,0.000000;
#CREDIT:Nifara;
#NOTES:
0000
0000
0000
0000
,
0000
0000
0000
0000
,
0000
0000
0000
0000
,
0000
0000
0000
0000
,
0000
0000
0000
0000
,
0000
0000
0000
0000
,
0000
0000
0000
0000
,
0000
0000
1010
0000
,
0010
1000
0010
0000
0010
1000
0000
1000
0010
0000
0100
0000
0001
0100
0001
0000
,
0001
1000
0001
0000
0001
1000
0000
1000
0001
0000
0100
0000
1000
0010
1000
0000
,
1000
0010
1000
0000
1000
0010
0000
0010
1000
0000
0100
0000
0010
0000
0001
0000
,
0010
0000
0100
0000
1000
0000
0100
0000
1000
0100
1000
0000
0100
0010
0100
0000
,
0010
1000
0010
0000
0010
1000
0000
1000
0010
0000
0100
0000
0001
0100
0001
0000
,
0001
1000
0001
0000
0001
1000
0000
1000
0001
0000
0100
0000
1000
0010
1000
0000
,
1000
0001
1000
0000
1000
0001
0000
0001
1000
0000
1000
0000
0100
0000
1000
0000
,
0100
0000
1000
0000
0100
0000
1000
0000
2200
3300
0000
0220
0330
0000
0022
0033
,
0000
1001
0000
1010
,
0000
0101
0000
1010
,
0000
1001
0000
0011
,
0000
1100
0000
0101
,
0000
1001
0000
0110
,
0000
1100
0000
0101
,
0000
0101
1000
1010
,
1000
0100
0001
1000
2000
0000
3001
0000
,
0010
0010
0001
1000
0010
0100
0001
0000
,
1000
0100
0001
0010
1000
0001
0100
0000
,
1000
0001
1000
0010
1000
0100
1000
0000
,
0010
1000
0001
0100
0001
0010
0001
0000
,
0000
1000
0001
1000
0100
1000
0010
0000
,
0000
1000
0001
1000
0010
0100
0010
0000
,
0100
0001
1000
0100
0010
0001
1000
0000
,
1000
0001
1000
0100
1100
0000
0000
0000
,
0100
0000
1000
0000
0100
1000
0100
0000
,
0100
0000
0001
0000
0001
0010
0001
0000
,
1000
0000
1000
0000
1000
0001
1000
0000
,
1000
0000
1000
0000
1000
0100
1000
0000
,
0000
0001
1000
0001
,
1000
0100
0010
0001
,
1000
0001
0010
1000
,
0001
0000
0100
0000
0010
0000
1000
0000
1000
0001
0010
0100
1000
0001
0010
0100
,
1000
0000
0001
1000
0000
1000
0001
0000
1001
0000
0000
0000
0000
0000
0100
0000
,
0010
0000
0010
0100
0000
0100
0010
0000
0110
0000
0000
0000
0000
0000
0000
0000
,
1100
0000
1000
0100
0000
1000
0100
0000
1100
0000
1000
0100
0000
1000
0100
0000
,
1100
0000
1000
0100
0000
0100
1000
0000
1100
0000
0000
0000
0001
0000
0100
0000
,
0110
0000
0100
0010
0000
0010
0100
0000
0101
0000
0000
0000
0000
0000
0100
0000
,
0001
0000
0001
0100
0000
0100
0001
0000
0101
0000
0000
0000
0000
0000
0000
0000
,
0011
0000
0010
0001
0000
0001
0010
0000
0011
0000
0010
0001
0000
0001
0010
0000
,
0011
0000
0010
0001
0000
0001
0010
0000
0011
0000
0000
0000
0000
0000
0000
0000
,
1001
0000
1000
0100
0010
0001
0000
0000
0000
0000
0000
0000
0000
0000
1100
0000
,
1001
0000
1000
0100
0010
0001
0000
0000
0000
0000
0000
0000
0000
0000
0000
0000
,
1001
0000
1000
0100
0010
0001
0000
0000
1001
0000
1000
0100
0010
0001
0000
0000
,
1001
0000
1000
0100
0010
0001
0010
0000
0010
0000
0000
0000
0100
0000
1000
0000
,
1001
0000
1000
0100
0010
0001
0000
0000
0000
0000
0000
0000
0000
0000
1000
0000
,
1001
0000
1000
0100
0010
0001
0000
0000
0000
0000
0000
0000
0000
0000
0000
0000
,
1001
0000
1000
0100
0010
0001
0000
0000
1001
0000
1000
0100
0010
0001
0000
0000
,
1001
0000
1000
0100
0010
0001
0010
0000
0010
0000
0000
0000
0000
0000
0000
0000
,
0000
0000
0001
0000
0000
0000
1000
0000
0000
0000
0100
0010
0000
0100
0010
0000
,
0000
0000
0001
0000
0000
0000
1000
0000
0000
0000
0100
0010
0000
0100
0010
0000
,
0000
0000
0001
0000
0000
0000
1000
0000
0000
0000
0100
0010
0000
0100
0010
0000
,
0000
0000
0100
0010
0000
0100
0010
0000
0000
0100
0010
0000
0000
0000
0000
0000
,
0000
0000
0001
0000
0000
0000
1000
0000
0000
0000
0100
0010
0000
0100
0010
0000
,
0000
0000
1000
0000
0000
0000
0001
0000
0000
0000
0100
0010
0000
0100
0010
0000
,
0000
0000
1000
0000
0000
0000
0001
0000
0000
0000
0100
0010
0000
0100
0010
0000
,
0010
0001
0010
1000
0010
0001
0010
0000
,
1000
0010
1000
0010
1000
0010
1000
0010
1000
0100
0010
0001
0100
0010
0100
0000
,
1001
0000
1000
0001
0000
0001
1000
0000
1001
0000
1000
0001
0000
0001
1000
0000
,
1000
0010
1000
0010
1000
0010
1000
0010
1000
0100
0010
0001
0100
0010
0100
0000
,
1001
0000
0010
0000
0100
0000
1000
1000
,
1000
0010
1000
0010
1000
0010
1000
0010
1000
0100
0010
0001
0100
0010
0100
0000
,
1001
0000
1000
0001
0000
0001
1000
0000
1001
0000
1000
0001
0000
0001
1000
0000
,
1000
0010
1000
0010
1000
0010
1000
0010
1000
0100
0010
0001
0100
0010
0100
0000
,
1001
0000
1000
0001
0000
0001
1000
0000
1001
0000
1000
0001
0000
0001
1000
0000
,
1000
0010
1000
0010
1000
0010
1000
0010
1000
0100
0010
0001
0100
0010
0100
0000
,
1001
0000
1000
0001
0000
0001
1000
0000
1001
0000
1000
0001
0000
0001
1000
0000
,
1000
0010
1000
0010
1000
0010
1000
0010
1000
0100
0010
0001
0100
0010
0100
0000
,
0001
0000
1000
0000
0100
0000
1000
1000
,
1000
0010
1000
0010
1000
0010
1000
0010
1000
0100
0010
0001
0100
0010
0100
0000
,
1001
0000
1000
0001
0000
0001
1000
0000
1001
0000
1000
0001
0000
0001
1000
0000
,
1000
0010
1000
0010
1000
0010
1000
0010
1000
0100
0010
0001
0100
0010
0100
0000
,
0010
0000
1000
0000
0001
0000
1000
0000
1000
0000
0000
0000
1000
0100
1000
0000
;
