#TITLE:ATTACK THE MUSIC;
#SUBTITLE:;
#ARTIST:DJ FX;
#TITLETRANSLIT:;
#SUBTITLETRANSLIT:;
#ARTISTTRANSLIT:;
#GENRE:;
#CREDIT:;
#BANNER:;
#BACKGROUND:DDR CD-bg.JPG;
#LYRICSPATH:;
#CDTITLE:;
#MUSIC:Attack The Music.ogg;
#OFFSET:-0.498000;
#SAMPLESTART:41.643009;
#SAMPLELENGTH:13.712000;
#SELECTABLE:YES;
#BPMS:0.000000=140.022003
;
#STOPS:
;
#BGCHANGES:;
#KEYSOUNDS:;
#ATTACKS:;

//---------------dance-single - Nifara----------------
#NOTES:
     dance-single:
     Nifara:
     Hard:
     12:
     0.543382,0.654942,0.403606,0.000000,0.379145,311.000000,278.000000,33.000000,0.000000,0.000000,0.000000,0.543382,0.654942,0.403606,0.000000,0.379145,311.000000,278.000000,33.000000,0.000000,0.000000,0.000000:
0000
0000
0000
0000
,
0000
0000
0000
0000
,
0000
0000
0000
0000
,
0000
0000
0000
0000
,
1010
0000
1000
0100
0010
0000
0010
0100
,
0110
0000
0010
0001
0100
0000
0001
0001
,
0011
1000
0100
1000
,
0100
0000
0000
0000
1000
0000
0000
0000
0010
1000
0000
1000
0010
0000
1000
0000
,
1001
0000
0001
0100
0001
0000
0001
0010
,
0001
0000
0100
0010
0100
0000
0001
0100
,
0001
0000
0000
0000
0010
0000
0001
0000
1000
0000
0000
0001
0000
0000
0100
0000
,
0110
0000
0000
0000
0001
0000
0100
0000
0001
0000
0000
0010
0000
0000
0001
0000
,
1000
0000
0000
0000
0001
0000
0100
0000
0001
0000
0000
0001
0000
0000
0100
0000
,
0010
0000
0000
0000
1000
0000
0100
0000
0010
0000
0000
0010
0000
0000
0010
0000
,
0001
0000
0000
0000
1000
0000
0100
0000
0010
0000
0000
0001
0000
0000
0100
0000
,
0010
0000
0000
0000
1000
0000
0001
0000
1000
0001
0000
0001
1000
0000
1000
0001
,
1000
0000
1000
0100
1000
0000
1000
1000
,
1000
0000
1000
0100
1000
0000
1000
1000
,
1000
0000
1000
0100
1000
0000
1000
0010
,
0001
0100
1000
0010
0001
0100
1000
0000
,
1000
0000
1000
1000
1000
0000
1000
0100
,
1000
0000
1000
1000
1000
0000
1000
0100
,
1000
0000
1000
1000
1000
0000
1000
0010
,
0001
0100
1000
0010
0001
0100
1000
0010
,
0001
0000
0000
0000
0000
0000
1000
0000
0000
0000
0100
0000
0000
0010
0000
0000
,
0000
0000
0000
0000
0000
0000
0000
0000
0000
0001
0000
0000
1000
0000
0100
0000
0010
0000
0001
0000
0010
0000
0100
0000
,
1000
0000
0000
0000
0000
0000
1000
0000
0000
0000
0100
0000
0000
0001
0000
0000
,
0000
0000
0000
0000
0000
0000
0000
0000
0000
1000
0000
0000
1000
0000
0100
0000
0010
0000
0001
0000
0010
0000
0100
0000
,
1000
0100
0000
0000
1000
0000
0100
0000
1000
0010
0000
0000
1000
0000
0001
0000
,
0100
0000
0000
0010
0000
0000
0000
0000
0000
0000
0000
0000
0010
0000
0000
0000
0000
0000
1000
0000
0000
0000
0000
0000
1000
0000
0000
0000
0100
0000
0000
0000
0010
0000
0000
0000
0001
0000
0000
0000
0010
0000
0000
0000
0100
0000
0000
0000
,
1000
0100
0000
0000
1000
0000
0001
0000
0100
0001
0000
0000
0100
0000
0010
0000
,
1000
0000
0000
0100
0000
0000
0000
0000
0000
0000
0000
0000
1000
0000
0000
0000
0000
0000
0100
0000
0000
0000
0000
0000
1000
0000
0000
0000
0100
0000
0000
0000
0010
0000
0000
0000
0001
0000
0000
0000
0010
0000
0000
0000
0100
0000
0000
0000
,
1000
0001
0000
0000
1001
0000
0001
0000
0010
0001
0000
0000
0100
0000
0010
0000
,
1000
0000
0000
0100
0000
0000
0000
0000
0000
0000
0000
0000
1100
0000
0000
0000
0000
0000
0100
0000
0000
0000
0000
0000
1000
0000
0000
0000
0100
0000
0000
0000
0010
0000
0000
0000
0001
0000
0000
0000
0010
0000
0000
0000
0100
0000
0000
0000
,
1000
0010
0000
0000
1010
0000
0100
0000
0010
0100
0000
0000
0001
0000
0100
0000
,
0010
0000
0000
1000
0000
0000
0000
0000
0000
0000
0000
0000
1001
0000
0000
0000
0000
0000
1000
0000
0000
0000
0000
0000
1000
0000
0000
0000
0100
0000
0000
0000
0010
0000
0000
0000
0001
0000
0000
0000
0010
0000
0000
0000
0100
0000
0000
0000
,
1000
0100
0000
0000
1100
0000
0001
0000
1000
0100
0000
0000
0100
0000
1000
0000
,
1000
0000
0000
0100
0000
0000
0000
0000
0000
0000
0000
0000
1001
0000
0000
0000
0000
0000
0001
0000
0000
0000
0000
0000
1000
0000
0000
0000
0100
0000
0000
0000
0010
0000
0000
0000
0001
0000
0000
0000
0010
0000
0000
0000
0100
0000
0000
0000
,
1000
0100
0000
0000
1001
0000
0001
0000
0100
0001
0000
0000
0100
0000
0010
0000
,
1000
0000
0000
0001
0000
0000
0000
0000
0000
0000
0000
0000
1001
0000
0000
0000
0000
0000
0001
0000
0000
0000
0000
0000
1000
0000
0000
0000
0100
0000
0000
0000
0010
0000
0000
0000
0001
0000
0000
0000
0010
0000
0000
0000
0100
0000
0000
0000
,
1000
0000
1100
1100
0000
1010
1010
0000
,
1001
1001
0000
0011
0011
0000
1001
1001
,
0000
0101
0101
0000
1010
1010
0000
0101
,
0101
0000
1001
1001
0000
0101
0000
0101
,
0000
0000
0000
0100
0000
0100
0000
0000
;

//---------------dance-single - ----------------
#NOTES:
     dance-single:
     :
     Medium:
     9:
     0.424572,0.491206,0.195688,0.000000,0.000000,243.000000,227.000000,16.000000,0.000000,0.000000,0.000000,0.424572,0.491206,0.195688,0.000000,0.000000,243.000000,227.000000,16.000000,0.000000,0.000000,0.000000:
0000
0000
0000
0000
,
0000
0000
0000
0000
,
0000
0000
0000
0000
,
0000
0000
0000
0000
,
1000
0000
1000
0000
1000
1000
1000
0000
,
1000
0000
1000
0000
1000
0100
0010
0001
,
0001
0000
0001
0000
0001
0001
0001
0000
,
0001
0000
0001
0000
0001
0100
0010
1000
,
1000
0000
1000
0000
1000
0001
0100
0000
,
0001
0000
0001
0000
0001
1000
0100
0010
,
0001
0000
0100
0000
0010
1000
0100
0000
,
1000
0000
0010
0000
0100
0001
0100
0001
,
0100
0000
0010
0000
1000
0100
1000
0000
,
0001
0000
0100
0000
0010
0100
0001
0100
,
0010
0000
1000
0000
0100
1000
0010
0000
,
1000
0000
0100
0000
1000
0010
1000
0100
,
1000
0000
1000
0000
0010
0100
0010
0000
,
0100
0000
0001
0000
0010
0001
0010
0001
,
0100
0000
0010
0000
1000
0100
1000
0000
,
0001
0000
0100
0000
0010
0100
0001
0100
,
0010
0000
1000
0000
0100
1000
0100
0000
,
1000
0000
0001
0000
0100
0010
0100
0001
,
0100
0000
0010
0000
1000
0100
1000
0000
,
0010
0000
0100
0000
0010
1000
0010
0100
,
0010
0000
0100
1001
0000
0101
0000
0101
,
0000
1001
0000
1100
0000
1100
0000
1001
,
0000
0110
0000
1001
0000
1100
0000
0011
,
0000
0101
0000
1010
0000
1001
0000
0101
,
0001
0001
0001
0000
0001
0100
0100
0000
,
0001
1000
0001
0000
0001
0100
0001
0000
,
1000
1000
1000
0000
1000
0100
1000
0000
,
1000
0010
1000
0000
0100
1000
0100
1000
,
1000
0010
0100
0000
0001
0100
0001
0000
,
0100
0010
0100
0000
0001
0100
0001
0001
,
0010
0001
0010
0000
0001
0100
0100
0000
,
0010
1000
1000
0000
0010
1000
0100
1000
,
0100
0000
1000
0000
0010
0010
1000
0000
,
1000
0000
1000
0010
0100
0010
0100
0100
,
0001
0000
0001
0100
0001
0000
1000
0000
,
0100
1000
0100
0100
1000
0100
0100
0100
,
1000
0000
0001
1000
0000
0001
1000
0000
,
0001
1000
0000
0001
1000
0000
0001
1000
,
0000
0001
1000
0000
0001
1000
0000
0001
,
1000
0000
0001
0000
0001
0001
0001
0000
,
1001
0000
0000
0100
0000
0100
0000
0000
;

//---------------dance-single - ----------------
#NOTES:
     dance-single:
     :
     Easy:
     7:
     0.368661,0.491206,0.305762,0.000000,0.000000,211.000000,186.000000,25.000000,0.000000,0.000000,0.000000,0.368661,0.491206,0.305762,0.000000,0.000000,211.000000,186.000000,25.000000,0.000000,0.000000,0.000000:
0000
0000
0000
0000
,
0000
0000
0000
0000
,
0000
0000
0000
0000
,
0000
0000
0000
0000
,
1000
1000
1001
1000
,
1000
0000
1000
0000
1000
0100
0010
0000
,
0001
0001
1001
0001
,
0001
0000
0001
0000
0001
0100
0010
1000
,
1000
1000
1001
0100
,
0001
0000
0001
0000
0001
1000
0100
0010
,
0001
0100
1010
0100
,
1000
0000
0010
0000
0100
0001
0100
0001
,
0100
0010
1010
1000
,
0001
0000
0100
0000
0010
0100
0001
0100
,
0010
1000
1100
0001
,
1000
0000
0100
0000
1000
0010
1000
0100
,
1000
1000
0110
0010
,
0100
0000
0001
0000
0010
0001
0010
0001
,
0100
0010
1001
1000
,
0001
0000
0100
0000
0010
0100
0001
0100
,
0010
1000
1100
0100
,
1000
0000
0001
0000
0100
0010
0100
0001
,
0100
0010
1001
1000
,
0010
0000
0100
0000
0010
1000
0010
0100
,
0010
0000
0000
1001
0000
0101
0000
0101
,
0000
1001
0000
1100
0000
1100
0000
1001
,
0000
0110
0000
1001
0000
1100
0000
0011
,
0000
0101
0000
1010
0000
1001
0000
0001
,
0001
0001
0001
0100
,
0001
0001
0001
0001
,
1000
1000
1000
1000
,
1000
1000
0100
0100
,
1000
0100
0001
0001
,
0100
0100
0001
0001
,
0010
0010
0001
0100
,
0010
1000
0010
0100
,
0100
1000
0010
1000
,
1000
1000
0100
0100
,
0001
0001
0001
1000
,
0100
0100
1000
0100
,
1000
0000
0001
1000
0000
0001
1000
0000
,
0001
1000
0000
0001
1000
0000
0001
1000
,
0000
0001
1000
0000
0001
1000
0000
0001
,
1000
0001
1000
0001
,
1001
0000
0000
0100
0000
0100
0000
0000
;

//---------------dance-single - ----------------
#NOTES:
     dance-single:
     :
     Beginner:
     1:
     0.143271,0.161442,0.012230,0.000000,0.000000,82.000000,81.000000,1.000000,0.000000,0.000000,0.000000,0.143271,0.161442,0.012230,0.000000,0.000000,82.000000,81.000000,1.000000,0.000000,0.000000,0.000000:
// measure 0
0000
0000
0000
0000
,  // measure 1
0000
0000
0000
0000
,  // measure 2
0000
0000
0000
0000
,  // measure 3
0000
0000
0000
0000
,  // measure 4
1000
1000
0000
0000
,  // measure 5
1000
1000
0000
0000
,  // measure 6
0001
0001
0000
0000
,  // measure 7
0001
0001
0000
0000
,  // measure 8
0100
0100
0000
0000
,  // measure 9
0100
0100
0000
0000
,  // measure 10
0010
0010
0000
0000
,  // measure 11
0010
0010
0000
0000
,  // measure 12
1000
1000
0000
0000
,  // measure 13
1000
1000
0000
0000
,  // measure 14
0001
0001
0000
0000
,  // measure 15
0001
0001
0000
0000
,  // measure 16
0100
0100
0000
0000
,  // measure 17
0100
0100
0000
0000
,  // measure 18
0010
0010
0000
0000
,  // measure 19
0010
0010
0000
0000
,  // measure 20
1000
1000
0000
0000
,  // measure 21
1000
1000
0000
0000
,  // measure 22
0001
0001
0000
0000
,  // measure 23
0001
0001
0000
0000
,  // measure 24
0100
0100
0000
0000
,  // measure 25
0100
0100
0000
0000
,  // measure 26
0010
0010
0000
0000
,  // measure 27
0010
0010
0000
0000
,  // measure 28
1000
1000
0000
0000
,  // measure 29
1000
1000
0000
0000
,  // measure 30
0001
0001
0000
0000
,  // measure 31
0001
0001
0000
0000
,  // measure 32
0100
0100
0000
0000
,  // measure 33
0100
0100
0000
0000
,  // measure 34
0010
0010
0000
0000
,  // measure 35
0010
0010
0000
0000
,  // measure 36
1000
1000
0000
0000
,  // measure 37
1000
1000
0000
0000
,  // measure 38
0001
0001
0000
0000
,  // measure 39
0001
0001
0000
0000
,  // measure 40
0100
0100
0000
0000
,  // measure 41
0100
0100
0000
0000
,  // measure 42
0010
0010
0000
0000
,  // measure 43
0010
0010
0000
0000
,  // measure 44
1001
0000
0000
0000
;
