#VERSION:0.83;
#TITLE:ART CITY;
#SUBTITLE:;
#ARTIST:VIRGILL;
#TITLETRANSLIT:;
#SUBTITLETRANSLIT:;
#ARTISTTRANSLIT:;
#GENRE:Techno;
#ORIGIN:;
#CREDIT:;
#BANNER:;
#BACKGROUND:DDR CD-bg.JPG;
#PREVIEWVID:;
#JACKET:Art City-jacket.jpg;
#CDIMAGE:;
#DISCIMAGE:;
#LYRICSPATH:;
#CDTITLE:;
#MUSIC:Art City.ogg;
#OFFSET:-0.096000;
#SAMPLESTART:51.179955;
#SAMPLELENGTH:11.860000;
#SELECTABLE:YES;
#BPMS:0.000=122.140;
#STOPS:;
#DELAYS:;
#WARPS:;
#TIMESIGNATURES:0.000=4=4;
#TICKCOUNTS:0.000=4;
#COMBOS:0.000=1;
#SPEEDS:0.000=1.000=0.000=0;
#SCROLLS:0.000=1.000;
#FAKES:;
#LABELS:0.000=Song Start;
#BGCHANGES:;
#KEYSOUNDS:;
#ATTACKS:
;

//---------------dance-single - ----------------
#NOTEDATA:;
#CHARTNAME:;
#STEPSTYPE:dance-single;
#DESCRIPTION:;
#CHARTSTYLE:;
#DIFFICULTY:Hard;
#METER:11;
#RADARVALUES:0.441718,0.547051,0.118924,0.183792,0.232442,286.000000,275.000000,11.000000,17.000000,0.000000,0.000000,0.000000,0.000000,0.000000,0.441718,0.547051,0.118924,0.183792,0.232442,286.000000,275.000000,11.000000,17.000000,0.000000,0.000000,0.000000,0.000000,0.000000;
#CREDIT:;
#NOTES:
0000
0000
0000
0000
,
0000
0000
0000
0000
0000
0000
0000
0000
0000
0000
0000
0000
1000
0001
0000
0000
,
0100
0001
0100
0010
1000
0100
1000
0010
,
0100
0001
0100
0010
1000
0100
1000
0010
,
1000
0100
1000
0010
0100
0001
0100
0010
,
1000
0100
0001
0100
1000
0100
0001
0100
,
1000
0000
0000
0001
1000
0100
0000
1000
0000
1000
0000
0001
0000
0100
0000
0010
,
0100
0000
0000
0100
0010
0100
0000
0100
0001
0100
0001
0100
0000
0100
0000
0100
,
0001
0010
0000
0010
0001
0010
0000
0010
0000
0001
0000
1000
0100
0000
1000
0000
,
0020
0230
0302
2003
,
3010
0000
0000
0010
1000
0100
0000
1000
0000
0100
0000
0010
0000
0001
0000
0100
,
0010
0100
0000
0010
0100
0010
0000
0100
0001
0000
0100
0000
0010
0000
1000
0000
,
0100
0000
0000
1000
0100
1000
0000
1000
0000
0010
0000
0100
0000
0001
0000
0001
,
2000
3200
0320
0032
,
1003
1000
0001
0100
0001
0100
0010
0000
,
0010
0100
0010
0100
0001
0010
0001
0000
,
0001
0001
1000
0010
0100
0010
1000
0000
,
1000
0100
1000
0010
0100
0001
0100
0000
,
0100
0100
0010
0100
0001
0100
0010
0000
,
1000
0100
1000
0010
1000
0010
0100
0000
,
0010
0010
0100
0001
0100
0010
1000
0100
,
0010
0000
0001
0000
0010
0000
0100
0000
1000
0000
0100
0000
0010
0001
0000
0000
,
2002
0000
3000
0000
,
0200
0000
0003
0000
,
0020
0000
0300
0000
,
2000
0000
3030
1001
,
1001
0100
0001
0010
1000
0100
1000
0100
,
1000
0010
0100
0001
0100
0010
1001
0000
,
1000
0001
0000
0000
0100
0000
0000
0000
0010
0000
0000
0000
0100
0000
0000
0000
,
0001
0010
0100
1000
,
1000
1000
0001
0001
0100
0010
0100
0001
,
1000
0100
1000
0010
0100
0001
1001
0000
,
0100
0010
0000
0000
1000
0000
0000
0000
0001
0000
0000
0000
0100
0000
0000
0000
,
0010
1000
0100
0001
,
0010
0010
0010
0001
0100
0010
1000
0100
,
1000
0010
0100
0001
0100
0010
1001
0000
,
1000
0010
0000
0000
0100
0000
0000
0000
0001
0000
0000
0000
0100
0000
0000
0000
,
0010
1000
0100
1000
,
0100
0100
0010
0001
0100
0010
1000
0100
,
1000
0010
0100
0001
0100
0010
0100
0000
,
0001
0001
0001
0000
0001
0100
1000
0000
,
1000
1000
1000
0000
1000
0100
0001
0000
,
1002
0000
0100
0103
,
2001
0000
0100
3100
,
1002
0000
0010
0013
,
2001
0000
0010
3010
,
1001
0000
0000
0000
;

//---------------dance-single - ----------------
#NOTEDATA:;
#CHARTNAME:;
#STEPSTYPE:dance-single;
#DESCRIPTION:;
#CHARTSTYLE:;
#DIFFICULTY:Medium;
#METER:8;
#RADARVALUES:0.370672,0.397855,0.259471,0.151358,0.000000,240.000000,216.000000,24.000000,14.000000,0.000000,0.000000,0.000000,0.000000,0.000000,0.370672,0.397855,0.259471,0.151358,0.000000,240.000000,216.000000,24.000000,14.000000,0.000000,0.000000,0.000000,0.000000,0.000000;
#CREDIT:;
#NOTES:
0000
0000
0000
0000
,
0000
0000
0000
0000
,
1000
1000
0001
0000
0001
0001
1000
0000
,
0010
0010
0100
0000
0100
0100
0010
0000
,
1000
0001
0100
0000
0001
1000
0100
0000
,
1000
0001
0100
0000
0010
1000
0100
0000
,
1000
1000
2000
0000
0100
0000
3100
0000
,
0001
0001
0002
0000
0100
0000
0103
0000
,
1000
1000
0020
0000
0100
0000
0130
0000
,
0001
0000
0100
0000
0010
0200
0020
0300
,
1030
0001
0010
0000
0002
0000
0103
0000
,
0010
0010
0010
0000
1000
1000
0001
0001
,
0100
0100
0100
0000
0002
0000
0103
0000
,
1000
0100
0001
0100
,
1000
0000
1000
0001
1000
0001
1000
0000
,
0001
0000
1000
0001
1000
0001
1000
0000
,
0010
0000
0100
0010
0100
0010
0100
0000
,
0100
0000
0010
0100
0010
0100
0010
0000
,
1001
0000
0100
0001
0100
0001
0100
0000
,
1001
0000
0010
1000
0010
1000
0010
0000
,
1001
0000
1000
0001
0100
0010
0100
0000
,
1001
0000
0100
0010
1000
0001
1000
0000
,
2001
0100
0000
0100
,
0000
0100
0000
3100
,
1002
0100
0000
0100
,
0000
0100
0000
0103
,
1001
0000
0100
0000
0001
0100
0001
0000
,
1001
0000
0010
0000
1000
0100
1000
0000
,
1001
0000
0100
1000
0100
1000
0100
0000
,
1001
0000
0100
0001
0100
0001
0100
0000
,
1001
0000
0100
0000
1000
0010
1000
0000
,
1001
0000
0100
0000
0100
0001
0100
0000
,
1001
0000
0010
1000
0100
1000
0010
0000
,
1001
0000
0100
0001
0010
0001
0100
0000
,
1001
0000
1000
0000
0001
0100
0010
0000
,
1001
0000
0001
0000
1000
0010
0100
0000
,
1001
0000
0100
0010
0100
0001
0100
0000
,
1001
0000
0010
1000
0010
0100
0010
0000
,
1001
0000
1000
0000
0100
0010
0001
0000
,
1001
0000
0001
0000
0010
0100
1000
0000
,
1001
0000
1000
0001
0100
0010
1000
0000
,
1001
0000
0001
1000
0010
0100
0001
0000
,
2002
0000
0000
0003
,
0200
0000
0000
3000
,
0020
0000
0000
0300
,
0002
0000
0000
0033
,
1001
0000
0000
0000
;

//---------------dance-single - ----------------
#NOTEDATA:;
#CHARTNAME:;
#STEPSTYPE:dance-single;
#DESCRIPTION:;
#CHARTSTYLE:;
#DIFFICULTY:Easy;
#METER:5;
#RADARVALUES:0.265649,0.348123,0.248659,0.194603,0.000000,172.000000,149.000000,23.000000,18.000000,0.000000,0.000000,0.000000,0.000000,0.000000,0.265649,0.348123,0.248659,0.194603,0.000000,172.000000,149.000000,23.000000,18.000000,0.000000,0.000000,0.000000,0.000000,0.000000;
#CREDIT:;
#NOTES:
0000
0000
0000
0000
,
0000
0000
0000
0000
,
1000
0001
0100
0100
,
0001
1000
0100
0100
,
1000
0010
0100
0001
,
1000
0001
0100
0010
,
1000
0100
1000
0010
,
1000
0100
1000
0010
,
0100
0001
0100
0010
,
0100
0001
0100
0010
,
1000
0100
0010
0001
,
1000
0001
0100
0010
,
1000
0010
0100
0001
,
1000
0010
0100
0001
,
1002
0103
0010
0001
,
2001
3100
0010
1000
,
1002
0103
0010
0001
,
2001
3100
0010
1000
,
1200
0310
0100
1000
,
0210
0301
0010
0001
,
2001
3100
1002
0103
,
2001
3100
1002
0103
,
2002
0000
0000
0000
,
3003
0000
0000
0000
,
0220
0000
0000
0000
,
0330
0000
0000
0000
,
1001
0100
1000
1000
,
0001
0100
0010
0100
,
1001
0100
0001
0100
,
0010
1000
0100
1000
,
1001
1000
0010
0100
,
0001
0100
0010
0100
,
0101
0010
1000
0100
,
1000
0010
1000
0100
,
1100
1000
0001
0010
,
0100
1000
0001
0100
,
0011
0100
0001
0100
,
0010
1000
0100
0010
,
1010
0100
0010
0100
,
0001
0100
0010
1000
,
0110
1000
0001
0100
,
0001
1000
0100
0100
,
2002
0000
0000
0000
,
3003
0000
0000
0000
,
0220
0000
0000
0000
,
0330
0000
0000
0000
,
1001
0000
0000
0000
;

//---------------dance-single - ----------------
#NOTEDATA:;
#CHARTNAME:;
#STEPSTYPE:dance-single;
#DESCRIPTION:;
#CHARTSTYLE:;
#DIFFICULTY:Beginner;
#METER:2;
#RADARVALUES:0.117380,0.149196,0.032434,0.075679,0.000000,76.000000,73.000000,3.000000,7.000000,0.000000,0.000000,0.000000,0.000000,0.000000,0.117380,0.149196,0.032434,0.075679,0.000000,76.000000,73.000000,3.000000,7.000000,0.000000,0.000000,0.000000,0.000000,0.000000;
#CREDIT:;
#NOTES:
0000
0000
0000
0000
,
0000
0000
0000
0000
,
1000
1000
0000
0000
,
1000
1000
0000
0000
,
0100
0100
0000
0000
,
0100
0100
0000
0000
,
1000
1000
0000
0000
,
0100
0100
0000
0000
,
0010
0010
0000
0000
,
0001
0001
0001
0000
,
1000
1000
0000
0000
,
0100
0100
0000
0000
,
0010
0010
0000
0000
,
0001
0001
0001
0000
,
2000
0000
3000
0000
,
1000
0000
0000
0000
,
0002
0000
0003
0000
,
0001
0000
0000
0000
,
0200
0000
0300
0000
,
0100
0000
0000
0000
,
0020
0000
0030
0000
,
0010
0000
0000
0000
,
1001
0000
0000
0000
,
0100
0000
0000
0000
,
1001
0000
0000
0000
,
0200
0000
0300
0000
,
0100
0000
0010
0000
,
0100
0000
0001
0000
,
1000
0000
0010
0000
,
0100
0000
0001
0000
,
1000
0000
0100
0000
,
1000
0000
0010
0000
,
0100
0000
0001
0000
,
0100
0000
0010
0000
,
1000
0000
0001
0000
,
0100
0000
1000
0000
,
0100
0000
1000
0000
,
0010
0000
0100
0000
,
0001
0000
0100
0000
,
0010
0000
1000
0000
,
0100
0000
1000
0000
,
0010
0000
0100
0000
,
0002
0000
0000
0000
,
0003
0000
0000
0000
,
2000
0000
0000
0000
,
3000
0000
0000
0000
,
1001
0000
0000
0000
;
